osu file format v14

[General]
AudioFilename: audio.mp3
AudioLeadIn: 0
PreviewTime: 44822
Countdown: 0
SampleSet: Soft
StackLeniency: 0.4
Mode: 0
LetterboxInBreaks: 0
WidescreenStoryboard: 1

[Editor]
DistanceSpacing: 1.3
BeatDivisor: 4
GridSize: 16
TimelineZoom: 1.3

[Metadata]
Title:Stay
TitleUnicode:Stay
Artist:The Kid LAROI, Justin Bieber
ArtistUnicode:The Kid LAROI, Justin Bieber
Creator:Log Off Now
Version:Hard
Source:
Tags:english pop synth synth-pop hip hop hip-hop rock tiktok fuck f*ck love 3 over you
BeatmapID:3220371
BeatmapSetID:1575739

[Difficulty]
HPDrainRate:4
CircleSize:3.5
OverallDifficulty:6
ApproachRate:8
SliderMultiplier:1.2
SliderTickRate:1

[Events]
//Background and Video events
0,0,"stay.jpg",0,0
//Break Periods
2,39793,44161
//Storyboard Layer 0 (Background)
//Storyboard Layer 1 (Fail)
//Storyboard Layer 2 (Pass)
//Storyboard Layer 3 (Foreground)
//Storyboard Layer 4 (Overlay)
//Storyboard Sound Samples

[TimingPoints]
264,352.941176470588,4,2,1,50,1,0
11205,-100,4,2,1,5,0,0
11381,-100,4,2,1,5,0,0
11558,-100,4,2,1,50,0,0
21616,-100,4,2,1,50,0,0
22146,-100,4,2,1,50,0,0
22852,-90.9090909090909,4,2,1,62,0,0
31322,-90.9090909090909,4,2,1,62,0,0
34146,-90.9090909090909,4,2,1,69,0,0
45440,-76.9230769230769,4,2,1,75,0,1
68028,-90.9090909090909,4,2,1,75,0,0
90616,-90.9090909090909,4,2,1,68,0,0
101911,-100,4,2,1,73,0,0
103322,-100,4,2,1,73,0,0
106852,-100,4,2,1,73,0,0
107558,-90.9090909090909,4,2,1,73,0,0
108087,-90.9090909090909,4,2,1,55,0,0
108616,-90.9090909090909,4,2,1,60,0,0
108969,-90.9090909090909,4,2,1,63,0,0
109675,-90.9090909090909,4,2,1,66,0,0
110381,-90.9090909090909,4,2,1,69,0,0
111969,-90.9090909090909,4,2,1,73,0,0
113205,-76.9230769230769,4,2,1,75,0,1
124499,-83.3333333333333,4,2,1,75,0,0

[Colours]
Combo1 : 199,192,150
Combo2 : 187,187,187
Combo3 : 39,48,120
Combo4 : 162,221,221

[HitObjects]
256,192,9969,12,0,11205,0:0:0:0:
209,156,11558,6,0,P|155:151|78:144,1,120,2|2,0:0|0:0,0:0:0:0:
31,92,12087,2,0,P|10:133|34:202,1,120,2|0,0:0|0:0,0:0:0:0:
80,261,12616,1,2,0:0:0:0:
225,205,12969,6,0,P|263:198|303:200,1,60,2|2,0:0|0:0,0:0:0:0:
354,233,13322,2,0,P|396:247|413:247,1,60,2|0,0:0|0:0,0:0:0:0:
481,213,13675,2,0,P|497:183|496:152,1,60,2|2,0:0|0:0,0:0:0:0:
464,86,14028,1,2,0:0:0:0:
349,191,14381,6,0,P|311:198|271:196,1,60,2|2,0:0|0:0,0:0:0:0:
231,145,14734,1,2,0:0:0:0:
188,210,14911,2,0,P|148:242|75:240,1,120,2|0,0:0|0:0,0:0:0:0:
30,183,15440,1,2,0:0:0:0:
111,49,15793,6,0,L|180:60,1,60,2|2,0:0|0:0,0:0:0:0:
223,116,16146,2,0,L|282:106,1,60,2|0,0:0|0:0,0:0:0:0:
324,40,16499,2,0,P|355:71|363:95,1,60,2|2,0:0|0:0,0:0:0:0:
342,161,16852,1,2,0:0:0:0:
388,309,17205,6,0,L|457:299,1,60,2|2,0:0|0:0,0:0:0:0:
500,242,17558,1,2,0:0:0:0:
458,175,17734,2,0,P|439:134|461:55,1,120,2|0,0:0|0:0,0:0:0:0:
394,13,18263,1,2,0:0:0:0:
313,98,18616,6,0,L|240:88,1,60,2|2,0:0|0:0,0:0:0:0:
207,26,18969,2,0,L|134:36,1,60,2|0,0:0|0:0,0:0:0:0:
80,73,19322,2,0,P|64:114|82:149,1,60,2|2,0:0|0:0,0:0:0:0:
106,195,19675,2,0,P|122:236|107:273,1,60,2|0,0:0|0:0,0:0:0:0:
73,313,20028,6,0,L|8:302,2,60,2|2|2,0:0|0:0|0:0,0:0:0:0:
129,367,20558,2,0,L|264:343,1,120,2|0,0:0|0:0,0:0:0:0:
285,278,21087,6,0,L|350:289,2,60,2|2|2,0:0|0:0|0:0,0:0:0:0:
239,214,21616,2,0,P|218:169|236:102,1,120,2|0,0:0|0:0,0:0:0:0:
287,44,22146,2,0,L|469:74,1,180,2|2,0:0|0:0,0:0:0:0:
510,10,22852,1,0,1:0:0:0:
470,177,23205,6,0,L|386:190,1,66.0000020141602,10|0,0:0|0:0,0:0:0:0:
354,257,23558,2,0,P|296:233|219:225,1,132.00000402832,2|8,1:2|0:0,0:0:0:0:
168,287,24087,2,0,P|176:334|169:354,1,66.0000020141602,2|0,0:0|1:0,0:0:0:0:
89,378,24440,2,0,P|28:364|18:362,1,66.0000020141602,2|8,0:0|0:0,0:0:0:0:
0,280,24793,1,2,0:0:0:0:
0,280,24969,2,0,P|16:223|19:208,1,66.0000020141602,2|0,1:2|0:0,0:0:0:0:
91,173,25322,2,0,P|75:116|72:101,1,66.0000020141602,10|0,0:2|0:0,0:0:0:0:
15,46,25675,1,2,1:2:0:0:
180,0,26028,6,0,P|164:57|161:72,1,66.0000020141602,10|0,0:2|0:0,0:0:0:0:
209,135,26381,2,0,P|264:106|339:116,1,132.00000402832,2|8,1:2|0:0,0:0:0:0:
391,175,26911,2,0,P|422:201|460:202,1,66.0000020141602,2|0,0:2|1:0,0:0:0:0:
506,143,27263,2,0,P|499:81|498:71,1,66.0000020141602,2|8,0:2|0:0,0:0:0:0:
435,18,27616,1,2,0:0:0:0:
372,77,27793,1,2,1:2:0:0:
372,77,27969,1,0,1:2:0:0:
308,19,28145,2,0,P|275:26|244:36,1,66.0000020141602,10|0,0:2|0:0,0:0:0:0:
193,105,28498,1,2,1:2:0:0:
299,240,28852,6,0,L|215:227,1,66.0000020141602,10|0,0:2|0:0,0:0:0:0:
153,198,29205,2,0,P|95:222|18:230,1,132.00000402832,2|8,1:2|0:0,0:0:0:0:
99,277,29734,2,0,P|107:324|100:344,1,66.0000020141602,2|0,0:2|1:0,0:0:0:0:
179,377,30087,2,0,P|211:372|261:368,1,66.0000020141602,2|8,0:2|0:0,0:0:0:0:
305,305,30440,1,2,0:0:0:0:
305,305,30616,2,0,P|289:248|286:233,1,66.0000020141602,2|0,1:2|0:0,0:0:0:0:
214,198,30969,2,0,P|230:141|233:126,1,66.0000020141602,10|0,1:2|0:0,0:0:0:0:
300,53,31322,6,0,P|342:24|422:44,1,132.00000402832,2|10,1:2|1:2,0:0:0:0:
464,112,31852,1,0,0:0:0:0:
426,188,32028,1,2,1:2:0:0:
260,143,32381,1,10,0:2:0:0:
126,250,32734,2,0,P|106:205|108:169,1,66.0000020141602,2|2,1:2|0:0,0:0:0:0:
151,116,33087,2,0,P|170:71|168:35,1,66.0000020141602,10|2,0:0|0:0,0:0:0:0:
107,5,33440,1,2,1:2:0:0:
107,5,33616,1,0,1:0:0:0:
35,52,33793,2,0,L|47:119,1,66.0000020141602,10|0,0:0|1:0,0:0:0:0:
102,182,34146,6,0,L|75:342,2,132.00000402832,2|8|0,1:2|0:0|1:0,0:0:0:0:
171,130,35028,1,2,0:0:0:0:
171,130,35205,2,0,P|222:160|237:160,1,66.0000020141602,10|0,0:0|0:0,0:0:0:0:
298,112,35558,2,0,P|340:91|424:100,1,132.00000402832,0|8,1:2|0:0,0:0:0:0:
495,155,36087,1,2,0:0:0:0:
495,155,36263,2,0,P|480:212|469:302,1,132.00000402832,0|8,1:0|0:0,0:0:0:0:
312,351,36969,6,0,L|285:191,2,132.00000402832,2|8|0,1:2|0:0|1:0,0:0:0:0:
394,376,37852,1,2,0:0:0:0:
394,376,38028,2,0,P|425:367|450:345,1,66.0000020141602,10|0,0:0|0:0,0:0:0:0:
434,261,38381,2,0,P|421:202|411:114,1,132.00000402832,0|8,1:0|0:0,0:0:0:0:
467,65,38910,1,2,0:0:0:0:
399,12,39087,1,0,1:0:0:0:
399,12,39263,1,0,1:2:0:0:
321,48,39440,1,10,0:0:0:0:
206,296,44911,5,8,0:0:0:0:
241,217,45087,1,8,0:0:0:0:
276,138,45263,1,8,0:0:0:0:
207,73,45440,6,0,L|124:89,1,77.9999964294435,2|2,1:2|0:0,0:0:0:0:
52,34,45793,1,10,0:0:0:0:
3,136,45969,2,0,P|14:178|38:299,1,155.999992858887,2|0,0:0|0:0,0:0:0:0:
7,372,46499,2,0,P|62:375|97:349,1,77.9999964294435,10|0,0:0|0:0,0:0:0:0:
129,287,46852,5,2,1:2:0:0:
129,287,47028,1,2,0:0:0:0:
200,348,47205,2,0,P|255:357|296:368,1,77.9999964294435,10|2,0:0|0:0,0:0:0:0:
352,304,47558,1,2,1:2:0:0:
352,304,47734,1,2,0:0:0:0:
295,228,47911,2,0,P|269:171|271:132,1,77.9999964294435,8|0,0:0|0:0,0:0:0:0:
337,90,48263,6,0,P|389:97|432:103,2,77.9999964294435,2|2|10,1:2|0:0|0:0,0:0:0:0:
235,24,48793,2,0,P|147:35|77:44,1,155.999992858887,2|0,0:0|0:0,0:0:0:0:
25,116,49322,2,0,P|14:158|31:200,1,77.9999964294435,10|0,0:0|0:0,0:0:0:0:
90,266,49675,6,0,P|138:259|172:255,1,77.9999964294435,2|2,1:2|0:0,0:0:0:0:
222,173,50028,2,0,P|270:180|324:189,1,77.9999964294435,8|2,0:0|0:0,0:0:0:0:
368,257,50381,1,0,1:0:0:0:
368,257,50558,1,2,1:2:0:0:
310,337,50734,2,0,P|262:330|226:325,1,77.9999964294435,8|0,0:0|0:0,0:0:0:0:
152,278,51087,6,0,P|138:339|147:368,2,77.9999964294435,2|2|10,1:2|0:0|0:0,0:0:0:0:
216,142,51616,2,0,P|154:190|63:159,1,155.999992858887,2|0,0:0|0:0,0:0:0:0:
25,112,52146,2,0,P|37:56|37:29,1,77.9999964294435,10|0,0:0|0:0,0:0:0:0:
132,5,52499,5,2,1:2:0:0:
132,5,52675,1,2,0:0:0:0:
203,61,52852,2,0,P|258:70|301:80,1,77.9999964294435,10|2,0:0|0:0,0:0:0:0:
355,20,53205,1,2,1:2:0:0:
355,20,53381,1,2,0:0:0:0:
425,81,53558,2,0,P|447:138|448:176,1,77.9999964294435,8|0,0:0|0:0,0:0:0:0:
397,233,53911,6,0,L|304:218,1,77.9999964294435,2|2,1:2|0:0,0:0:0:0:
263,141,54263,1,10,0:0:0:0:
185,223,54440,2,0,P|138:232|28:252,1,155.999992858887,2|0,0:0|0:0,0:0:0:0:
94,329,54969,6,0,P|147:346|176:356,1,77.9999964294435,10|2,0:2|0:0,0:0:0:0:
241,299,55322,1,2,1:2:0:0:
358,370,55499,2,0,P|367:323|391:216,1,155.999992858887,2|0,0:0|0:0,0:0:0:0:
320,167,56028,1,0,1:2:0:0:
320,167,56205,1,0,1:2:0:0:
386,101,56381,1,8,0:0:0:0:
340,18,56558,1,0,1:0:0:0:
260,67,56734,6,0,P|217:75|177:83,1,77.9999964294435,2|2,1:2|0:0,0:0:0:0:
126,150,57087,1,10,0:0:0:0:
12,85,57263,2,0,P|39:153|1:223,1,155.999992858887,2|0,0:0|0:0,0:0:0:0:
37,309,57793,2,0,P|75:319|128:335,1,77.9999964294435,10|0,0:0|0:0,0:0:0:0:
171,259,58146,5,2,1:2:0:0:
171,259,58322,1,2,0:0:0:0:
109,187,58499,2,0,P|100:131|89:88,1,77.9999964294435,10|2,0:0|0:0,0:0:0:0:
158,46,58852,1,2,1:2:0:0:
158,46,59028,1,2,0:0:0:0:
230,106,59205,2,0,P|277:131|318:130,1,77.9999964294435,10|0,0:0|0:0,0:0:0:0:
371,74,59558,6,0,P|364:22|358:-21,2,77.9999964294435,2|2|10,1:2|0:0|0:0,0:0:0:0:
470,139,60087,2,0,P|452:227|440:294,1,155.999992858887,2|0,0:0|0:0,0:0:0:0:
482,370,60616,2,0,P|440:381|397:365,1,77.9999964294435,10|0,0:0|0:0,0:0:0:0:
339,311,60969,6,0,P|297:298|260:304,1,77.9999964294435,2|2,1:2|0:0,0:0:0:0:
194,357,61322,2,0,P|152:370|116:364,1,77.9999964294435,10|2,0:0|0:0,0:0:0:0:
53,314,61675,1,2,1:2:0:0:
53,314,61852,1,2,1:2:0:0:
106,237,62028,2,0,P|113:189|117:156,1,77.9999964294435,10|0,0:0|0:0,0:0:0:0:
70,82,62381,6,0,P|16:99|-20:108,2,77.9999964294435,2|2|10,1:2|0:0|0:0,0:0:0:0:
157,20,62911,2,0,P|256:42|312:57,1,155.999992858887,2|0,0:0|0:0,0:0:0:0:
374,110,63440,2,0,P|393:58|385:24,1,77.9999964294435,10|0,0:0|0:0,0:0:0:0:
473,10,63793,5,2,1:2:0:0:
473,10,63969,1,2,0:0:0:0:
497,100,64146,2,0,P|504:135|512:180,1,77.9999964294435,10|2,0:0|0:0,0:0:0:0:
438,237,64499,1,2,1:2:0:0:
438,237,64675,1,2,0:0:0:0:
350,187,64852,2,0,P|293:165|256:160,1,77.9999964294435,10|0,0:0|0:0,0:0:0:0:
197,208,65205,6,0,L|213:303,1,77.9999964294435,2|2,1:2|0:0,0:0:0:0:
273,348,65557,1,10,0:0:0:0:
149,382,65734,2,0,P|102:373|-7:351,1,155.999992858887,2|0,0:0|0:0,0:0:0:0:
64,273,66263,6,0,P|76:239|70:196,1,77.9999964294435,10|2,0:2|0:0,0:0:0:0:
13,129,66616,1,2,1:2:0:0:
91,31,66793,2,0,P|138:40|249:61,1,155.999992858887,2|0,0:0|0:0,0:0:0:0:
304,136,67322,5,2,1:2:0:0:
304,136,67499,1,0,1:2:0:0:
370,70,67675,1,8,0:0:0:0:
457,104,67852,1,2,1:2:0:0:
438,128,70146,5,8,0:0:0:0:
426,153,70499,1,8,0:0:0:0:
487,221,70852,2,0,P|495:283|446:335,1,132.00000402832,0|10,1:0|0:0,0:0:0:0:
377,289,71381,5,2,0:0:0:0:
377,289,71558,2,0,P|315:305|295:311,1,66.0000020141602,2|0,1:2|0:0,0:0:0:0:
245,358,71911,2,0,P|213:349|181:341,1,66.0000020141602,10|0,0:0|0:0,0:0:0:0:
129,273,72263,1,2,1:2:0:0:
129,273,72440,1,2,0:0:0:0:
50,307,72616,2,0,P|37:238|17:156,1,132.00000402832,10|0,0:0|1:0,0:0:0:0:
76,110,73146,1,2,1:2:0:0:
138,166,73322,1,10,0:0:0:0:
206,114,73499,1,2,0:0:0:0:
354,248,74028,6,0,P|403:262|428:271,1,66.0000020141602,10|2,0:0|0:0,0:0:0:0:
477,327,74381,2,0,P|500:281|496:249,1,66.0000020141602,2|0,1:2|0:0,0:0:0:0:
472,186,74734,2,0,P|449:140|453:108,1,66.0000020141602,10|0,0:2|0:0,0:0:0:0:
491,51,75087,1,2,1:2:0:0:
491,51,75263,1,2,0:0:0:0:
417,6,75440,2,0,P|361:19|287:42,1,132.00000402832,10|0,0:0|1:0,0:0:0:0:
245,114,75969,1,2,0:0:0:0:
170,70,76146,2,0,P|121:62|84:56,1,66.0000020141602,10|2,0:0|0:0,0:0:0:0:
38,114,76499,1,2,1:2:0:0:
132,256,76852,6,0,P|125:305|119:331,1,66.0000020141602,10|2,0:0|0:0,0:0:0:0:
185,378,77205,2,0,P|234:351|319:355,1,132.00000402832,2|10,1:2|0:2,0:0:0:0:
378,301,77734,1,0,0:0:0:0:
333,227,77911,2,0,P|323:185|319:160,1,66.0000020141602,0|2,1:2|0:0,0:0:0:0:
253,107,78263,2,0,P|301:77|375:98,1,132.00000402832,10|0,0:0|1:0,0:0:0:0:
432,161,78793,1,2,1:2:0:0:
432,161,78969,1,8,0:0:0:0:
504,114,79146,1,2,1:2:0:0:
367,10,79499,5,2,0:0:0:0:
308,72,79675,1,10,0:0:0:0:
230,33,79852,2,0,P|182:20|87:18,1,132.00000402832,2|2,0:2|0:0,0:0:0:0:
36,73,80381,2,0,P|46:110|53:149,1,66.0000020141602,10|2,0:0|0:0,0:0:0:0:
120,188,80734,2,0,P|109:247|94:338,1,132.00000402832,2|10,1:2|0:2,0:0:0:0:
158,377,81263,1,0,0:0:0:0:
228,327,81440,2,0,P|258:314|302:317,1,66.0000020141602,2|0,1:2|0:0,0:0:0:0:
366,355,81793,2,0,P|420:374|500:360,1,132.00000402832,10|0,0:2|1:2,0:0:0:0:
504,278,82322,5,2,0:0:0:0:
452,209,82499,2,0,P|411:213|371:224,1,66.0000020141602,10|2,0:0|0:0,0:0:0:0:
335,287,82852,2,0,P|302:279|269:274,1,66.0000020141602,2|0,1:2|0:0,0:0:0:0:
214,208,83205,1,10,0:0:0:0:
214,208,83381,1,2,0:0:0:0:
148,263,83558,2,0,P|95:276|15:301,1,132.00000402832,2|10,1:2|0:2,0:0:0:0:
1,128,84263,5,2,1:2:0:0:
73,174,84440,1,0,1:2:0:0:
134,115,84616,2,0,P|175:84|274:74,1,132.00000402832,10|0,0:2|1:2,0:0:0:0:
320,124,85146,5,2,0:0:0:0:
392,78,85322,1,10,0:0:0:0:
462,126,85499,2,0,P|453:192|443:271,1,132.00000402832,2|2,0:2|0:2,0:0:0:0:
493,327,86028,5,10,0:0:0:0:
390,380,86205,2,0,P|348:361|256:334,1,132.00000402832,2|2,0:2|0:2,0:0:0:0:
220,263,86734,5,10,0:0:0:0:
139,335,86911,2,0,P|98:349|5:375,1,132.00000402832,2|2,0:2|0:0,0:0:0:0:
66,266,87440,5,10,0:0:0:0:
25,190,87616,2,0,P|12:146|57:68,1,132.00000402832,2|0,0:0|0:0,0:0:0:0:
131,44,88146,2,0,P|170:56|207:65,1,66.0000020141602,10|0,0:0|0:0,0:0:0:0:
250,127,88499,2,0,P|289:115|326:106,1,66.0000020141602,0|0,1:2|0:0,0:0:0:0:
358,35,88852,1,10,0:0:0:0:
354,53,90087,5,8,0:0:0:0:
220,104,90263,1,8,0:0:0:0:
382,193,90616,6,0,L|542:220,2,132.00000402832,2|8|0,1:2|0:0|1:0,0:0:0:0:
311,242,91498,1,2,0:0:0:0:
311,242,91675,2,0,P|274:250|241:259,1,66.0000020141602,10|0,0:0|0:0,0:0:0:0:
183,199,92028,2,0,P|162:241|193:325,1,132.00000402832,0|8,1:2|0:0,0:0:0:0:
260,372,92558,1,2,0:0:0:0:
260,372,92734,2,0,P|203:357|113:346,1,132.00000402832,0|8,1:0|0:0,0:0:0:0:
24,211,93440,6,0,P|11:133|-3:51,2,132.00000402832,2|8|0,1:2|0:0|1:0,0:0:0:0:
95,259,94322,1,2,0:0:0:0:
95,259,94498,2,0,P|119:245|155:232,1,66.0000020141602,10|0,0:0|0:0,0:0:0:0:
222,285,94852,2,0,P|270:329|352:310,1,132.00000402832,0|8,1:0|0:0,0:0:0:0:
394,263,95380,1,2,0:0:0:0:
358,190,95557,1,0,1:0:0:0:
358,190,95733,1,0,1:2:0:0:
407,119,95910,1,10,0:0:0:0:
256,192,99087,12,0,100499,0:0:0:0:
206,110,101911,6,0,B|150:67|150:67|180:257,1,240,4|0,1:3|0:0,0:0:0:0:
477,317,103322,6,0,P|443:266|320:264,1,180,4|0,1:3|0:0,0:0:0:0:
308,331,104028,2,0,P|258:340|127:366,1,180,4|0,1:3|0:0,0:0:0:0:
68,318,104734,2,0,P|35:280|112:128,1,240,4|0,1:3|0:0,0:0:0:0:
193,264,106852,6,0,P|243:252|370:226,1,180,4|0,1:3|0:0,0:0:0:0:
431,285,107558,2,0,P|456:238|415:154,1,132.00000402832,4|2,1:3|0:0,0:0:0:0:
353,133,108087,1,2,0:0:0:0:
282,322,108616,1,2,0:0:0:0:
188,228,108969,6,0,P|122:242|57:258,1,132.00000402832,4|2,1:3|0:0,0:0:0:0:
4,198,109499,1,2,0:0:0:0:
4,198,109675,1,4,1:3:0:0:
62,36,110028,1,2,0:0:0:0:
125,101,110205,1,2,0:0:0:0:
125,101,110381,6,0,L|113:179,2,66.0000020141602,4|0|2,1:3|0:0|0:0,0:0:0:0:
177,32,110911,2,0,P|223:11|308:39,1,132.00000402832,2|0,0:2|0:0,0:0:0:0:
345,103,111440,1,2,0:0:0:0:
345,103,111616,1,0,0:0:0:0:
295,173,111793,1,2,0:0:0:0:
336,247,111969,2,0,P|403:233|470:221,1,132.00000402832,2|0,0:2|0:0,0:0:0:0:
512,318,112499,5,4,0:3:0:0:
512,318,112675,1,4,0:3:0:0:
450,377,112852,5,4,0:3:0:0:
450,377,113028,1,4,0:3:0:0:
376,318,113205,6,0,P|321:329|291:335,1,77.9999964294435,2|2,1:2|0:0,0:0:0:0:
223,383,113558,1,10,0:0:0:0:
145,297,113734,2,0,P|154:235|170:137,1,155.999992858887,2|0,0:0|0:0,0:0:0:0:
188,53,114263,2,0,P|135:34|97:43,1,77.9999964294435,10|0,0:0|0:0,0:0:0:0:
47,106,114616,5,2,1:2:0:0:
47,106,114792,1,2,0:0:0:0:
74,195,114969,2,0,P|66:230|58:273,1,77.9999964294435,10|2,0:0|0:0,0:0:0:0:
11,352,115322,1,2,1:2:0:0:
11,352,115498,1,2,0:0:0:0:
99,374,115675,2,0,P|140:366|194:356,1,77.9999964294435,8|0,0:0|0:0,0:0:0:0:
241,293,116028,6,0,P|293:300|338:309,2,77.9999964294435,2|2|10,1:2|0:0|0:0,0:0:0:0:
157,198,116558,2,0,P|117:128|155:44,1,155.999992858887,2|0,0:0|0:0,0:0:0:0:
216,19,117087,2,0,P|251:23|298:32,1,77.9999964294435,10|2,0:0|0:0,0:0:0:0:
348,97,117440,1,2,1:2:0:0:
289,169,117616,1,2,0:0:0:0:
345,243,117793,2,0,P|383:238|425:233,1,77.9999964294435,10|2,0:0|0:0,0:0:0:0:
487,302,118145,1,2,1:2:0:0:
487,302,118322,1,2,1:2:0:0:
427,373,118498,2,0,P|387:366|343:357,1,77.9999964294435,8|0,0:0|0:0,0:0:0:0:
280,306,118852,6,0,P|261:369|267:396,2,77.9999964294435,2|0|10,1:2|0:0|0:0,0:0:0:0:
351,196,119381,2,0,P|275:209|191:224,1,155.999992858887,2|0,0:0|0:0,0:0:0:0:
139,294,119911,2,0,P|69:283|44:278,1,77.9999964294435,10|0,0:0|0:0,0:0:0:0:
11,207,120263,5,2,1:2:0:0:
11,207,120439,1,2,0:0:0:0:
73,136,120616,2,0,P|80:100|64:60,1,77.9999964294435,10|2,0:0|0:0,0:0:0:0:
141,7,120969,1,2,1:2:0:0:
141,7,121145,1,2,0:0:0:0:
220,56,121322,2,0,P|212:105|205:147,1,77.9999964294435,10|0,0:0|0:0,0:0:0:0:
259,205,121675,6,0,P|300:196|351:186,1,77.9999964294435,2|2,1:2|0:0,0:0:0:0:
412,242,122027,1,10,0:0:0:0:
506,161,122205,2,0,P|497:114|475:5,1,155.999992858887,2|0,0:0|0:0,0:0:0:0:
402,80,122734,6,0,P|360:71|312:61,1,77.9999964294435,10|2,0:2|0:0,0:0:0:0:
256,7,123086,1,2,1:2:0:0:
164,98,123263,2,0,P|173:145|192:259,1,155.999992858887,2|0,0:0|0:0,0:0:0:0:
272,296,123792,1,2,1:2:0:0:
272,296,123969,1,0,1:0:0:0:
217,371,124145,1,8,0:0:0:0:
126,344,124322,1,2,1:2:0:0:
