osu file format v14

[General]
AudioFilename: audio.mp3
AudioLeadIn: 0
PreviewTime: 99911
Countdown: 0
SampleSet: Soft
StackLeniency: 0.7
Mode: 0
LetterboxInBreaks: 0
WidescreenStoryboard: 1

[Editor]
DistanceSpacing: 1.3
BeatDivisor: 6
GridSize: 32
TimelineZoom: 4.099999

[Metadata]
Title:Little Wing
TitleUnicode:Little Wing
Artist:The Jimi Hendrix Experience
ArtistUnicode:The Jimi Hendrix Experience
Creator:Net0
Version:Normal
Source:
Tags:guitar axis bold as love classic 1960 James Marshall Hendrix psychedelic acid hard blues rock english
BeatmapID:2116764
BeatmapSetID:989704

[Difficulty]
HPDrainRate:3
CircleSize:3
OverallDifficulty:6
ApproachRate:6
SliderMultiplier:1.4
SliderTickRate:1

[Events]
//Background and Video events
0,0,"5348290-jimi-hendrix-wallpaper-widescreen.jpg",0,0
//Break Periods
//Storyboard Layer 0 (Background)
//Storyboard Layer 1 (Fail)
//Storyboard Layer 2 (Pass)
//Storyboard Layer 3 (Foreground)
//Storyboard Layer 4 (Overlay)
//Storyboard Sound Samples

[TimingPoints]
1268,923.076923076923,4,2,1,60,1,0
1268,-100,4,2,1,60,0,0
2191,810.810810810811,4,2,1,60,1,0
2596,1037.1650821089,4,2,1,60,1,0
3114,805.369127516779,4,2,1,60,1,0
4322,857.142857142857,4,2,1,60,1,0
4750,933.852140077821,4,2,1,60,1,0
6617,851.063829787234,4,2,1,60,1,0
7893,863.309352517986,4,2,1,60,1,0
8324,923.076923076923,4,2,1,60,1,0
9708,882.352941176471,4,2,1,60,1,0
10149,845.070422535211,4,2,1,60,1,0
10994,916.030534351145,4,2,1,60,1,0
11910,885.608856088561,4,2,1,60,1,0
13681,892.193308550186,4,2,1,60,1,0
15019,937.5,4,2,1,60,1,0
15487,948.616600790514,4,2,1,60,1,0
16435,857.142857142857,4,2,1,60,1,0
17720,902.255639097744,4,2,1,60,1,0
18171,916.030534351145,4,2,1,60,1,0
19087,930.232558139535,4,2,1,60,1,0
19552,991.735537190083,4,2,1,60,1,0
20047,860.215053763441,4,2,1,60,1,0
20907,895.522388059701,4,2,1,60,1,0
22698,952.380952380952,4,2,1,60,1,0
23650,926.283288305673,4,2,1,60,1,0
24576,925.568839182414,4,2,1,60,1,0
25965,-100,4,2,1,60,0,0
26427,905.660377358491,4,2,1,60,1,0
27332,882.352941176471,4,2,1,60,1,0
28238,909.090909090909,4,2,1,60,1,0
29147,869.565217391304,4,2,1,60,1,0
29581,923.076923076923,4,2,1,60,1,0
30042,895.522388059701,4,2,1,60,1,0
31385,902.255639097744,4,2,1,60,1,0
31836,845.070422535211,4,2,1,60,1,0
33526,1250,4,2,1,60,1,0
33838,909.090909090909,4,2,1,60,1,0
34747,652.173913043478,4,2,1,60,1,0
35399,879.120879120879,4,2,0,80,1,0
35399,-100,4,2,2,80,0,0
36278,923.076923076923,4,2,2,80,1,0
37201,833.333333333333,4,2,2,80,1,0
38451,898.876404494382,4,2,2,80,1,0
38900,845.070422535211,4,2,2,80,1,0
42280,857.142857142857,4,2,2,80,1,0
45708,860.215053763441,4,2,2,80,1,0
48288,876.552227903579,4,2,2,80,1,0
49164,845.070422535211,4,2,2,80,1,0
51699,882.352941176471,4,2,2,80,1,0
52581,857.142857142857,4,2,2,80,1,0
55999,869.565217391304,4,2,2,80,1,0
57723,839.160839160839,4,2,2,80,1,0
59401,857.142857142857,4,2,2,80,1,0
62829,821.917808219178,4,2,2,80,1,0
64035,923.076923076923,4,2,2,80,1,0
64472,600,4,2,2,80,1,0
64772,1111.11111111111,4,2,2,80,1,0
64910,740.740740740741,4,2,2,80,1,0
65187,857.142857142857,4,2,2,80,1,0
65615,1176.47058823529,4,2,2,80,1,0
65762,731.707317073171,4,2,2,80,1,0
66036,779.220779220779,4,2,2,80,1,0
66462,895.522388059701,4,2,2,80,1,0
67357,594.059405940594,4,2,2,80,1,0
67951,845.070422535211,4,2,2,80,1,0
68796,857.142857142857,4,2,2,80,1,0
69706,857.142857142857,4,2,2,80,1,0
70510,869.565217391304,4,2,2,80,1,0
72249,857.142857142857,4,2,2,80,1,0
73963,849.256900212314,4,2,2,80,1,0
74812,848.956490979837,4,2,2,80,1,0
76509,845.070422535211,4,2,2,80,1,0
78199,882.352941176471,4,2,2,80,1,0
79081,833.333333333333,4,2,2,80,1,0
81581,857.142857142857,4,2,2,80,1,0
82438,857.142857142857,4,2,2,80,1,0
85009,857.142857142857,4,2,2,80,1,0
86723,833.333333333333,4,2,2,80,1,0
87556,825.025782055689,4,2,2,80,1,0
88381,869.565217391304,4,2,2,80,1,0
91859,833.333333333333,4,2,2,80,1,0
96025,779.220779220779,4,2,2,80,1,0
96385,779.220779220779,4,2,2,80,1,0
96804,821.917808219178,4,2,2,80,1,0
99269,857.142857142857,4,2,1,80,1,0
99697,-100,4,2,2,80,0,0
100019,-100,4,2,2,80,0,0
100126,869.565217391304,4,2,3,100,1,0
101865,800,4,2,3,100,1,0
103500,845.070422535211,4,2,3,100,1,0
105204,789.473684210526,4,2,3,100,1,0
105993,833.333333333333,4,2,2,100,1,0
106826,842.105263157895,4,2,3,100,1,0
109352,833.333333333333,4,2,3,100,1,0
110185,857.142857142857,4,2,3,100,1,0
111042,793.126239259749,4,2,3,100,1,0
111835,-100,4,2,1,100,0,0
112628,833.333333333333,4,2,2,100,1,0
113461,801.068090787717,4,2,3,100,1,0
113461,-100,4,2,3,100,0,0
114262,869.565217391304,4,2,3,100,1,0
114262,-100,4,2,3,100,0,0
115131,810.810810810811,4,2,3,100,1,0
116751,833.333333333333,4,2,3,100,1,0
118417,810.810810810811,4,2,3,100,1,0
119227,-100,4,2,1,100,0,0
119633,-100,4,2,3,100,0,0
120038,857.142857142857,4,2,3,100,1,0
120895,821.917808219178,4,2,3,100,1,0
124182,869.565217391304,4,2,3,100,1,0
125051,821.917808219178,4,2,3,100,1,0
127516,800,4,2,3,100,1,0
128316,750,4,2,2,100,1,0
129066,810.810810810811,4,2,1,100,1,0
131498,882.352941176471,4,2,3,100,1,0
132380,836.236933797909,4,2,3,100,1,0
134052,854.092526690391,4,2,3,100,1,0
135760,821.917808219178,4,2,3,100,1,0
136581,-100,4,2,3,80,0,0
138224,857.142857142857,4,2,3,80,1,0
139081,857.142857142857,4,2,3,80,1,0

[Colours]
Combo1 : 228,57,46
Combo2 : 201,175,46
Combo3 : 239,176,147
Combo4 : 109,172,223
Combo5 : 245,171,32
Combo6 : 235,129,175

[HitObjects]
86,59,344,6,0,L|26:65,2,35,0|2|0,3:0|0:0|0:0,0:0:0:0:
178,52,1268,1,0,3:0:0:0:
160,174,2191,2,0,L|155:230,1,46.6666666666667,2|0,0:0|0:0,0:0:0:0:
147,335,3114,6,0,L|113:334,1,35,2|0,0:0|0:0,0:0:0:0:
43,276,3718,2,0,L|37:214,1,35,2|0,0:0|0:0,0:0:0:0:
47,150,4322,2,0,L|52:78,1,70,2|2,0:0|3:2,0:0:0:0:
173,98,5683,70,0,L|257:89,1,70,2|2,0:0|0:0,0:0:0:0:
250,0,6617,1,2,3:2:0:0:
340,8,7042,2,0,L|425:17,1,70,2|2,0:0|0:0,0:0:0:0:
401,106,7893,2,0,L|408:175,1,70,2|2,0:0|3:2,0:0:0:0:
426,297,9247,6,0,L|356:289,1,70,2|2,0:0|0:0,0:0:0:0:
272,321,10149,2,0,P|236:261|236:192,1,140,2|8,0:0|0:3,0:0:0:0:
278,110,11452,2,0,L|271:38,1,70,4|2,0:3|3:1,0:0:0:0:
149,22,12795,69,0,0:0:0:0:
83,85,13238,2,0,L|8:92,1,70,2|2,0:0|0:0,0:0:0:0:
13,187,14127,2,0,L|5:265,2,70,2|2|2,0:0|0:0|0:0,0:0:0:0:
104,175,15487,1,2,3:2:0:0:
209,254,16435,6,0,L|220:173,2,70,2|2|2,0:0|0:0|0:0,0:0:0:0:
126,291,17720,1,2,0:0:0:0:
69,365,18171,2,0,P|26:365|-13:357,2,70,2|2|2,0:0|0:0|3:2,0:0:0:0:
40,279,19552,69,0,3:0:0:0:
0,196,20047,2,0,L|5:125,1,70,2|2,0:0|0:0,0:0:0:0:
55,49,20907,1,2,3:2:0:0:
132,101,21354,2,0,P|171:106|211:103,1,70,2|2,0:0|0:0,0:0:0:0:
278,54,22250,1,2,0:0:0:0:
303,143,22698,6,0,L|292:230,1,70,2|0,3:1|0:0,0:0:0:0:
353,284,23650,1,2,3:2:0:0:
421,347,24113,1,2,3:2:0:0:
505,313,24576,70,0,P|497:273|442:185,1,140,2|2,3:2|0:0,0:0:0:0:
362,150,25964,1,2,0:0:0:0:
309,224,26427,2,0,L|167:214,1,140,2|2,0:0|0:0,0:0:0:0:
86,253,27773,1,2,0:0:0:0:
161,306,28238,6,0,L|235:311,1,70,2|0,0:0|0:0,0:0:0:0:
324,315,29147,2,0,L|319:238,1,70,2|2,0:0|0:0,0:0:0:0:
240,197,30042,70,0,L|250:122,1,70,2|2,0:0|0:0,0:0:0:0:
302,55,30937,2,0,P|269:41|234:39,1,70,2|2,0:0|0:0,0:0:0:0:
146,64,31836,6,0,P|78:45|25:1,2,140,0|4|4,3:0|3:0|1:3,0:0:0:0:
163,156,33838,2,0,L|157:233,1,70,8|4,0:3|0:3,0:0:0:0:
148,318,34747,2,0,L|1:331,1,140,8|4,0:3|0:0,0:0:0:0:
7,204,36278,6,0,P|13:160|28:123,1,70,0|0,1:0|0:0,0:0:0:0:
80,63,37201,1,2,0:0:0:0:
172,44,37617,1,0,0:0:0:0:
215,126,38034,2,0,L|298:120,1,70,0|0,1:0|3:0,0:0:0:0:
376,111,38900,6,0,P|391:153|397:191,1,70,4|0,0:0|0:0,0:0:0:0:
385,270,39745,1,0,1:0:0:0:
476,256,40167,1,0,0:0:0:0:
486,164,40590,2,0,L|489:93,1,70,2|0,0:0|0:0,0:0:0:0:
460,3,41435,2,0,L|389:0,1,70,0|0,1:0|3:0,0:0:0:0:
303,34,42280,70,0,P|266:19|232:0,2,70,4|0|0,0:0|0:0|1:0,0:0:0:0:
370,98,43565,1,0,0:0:0:0:
277,97,43994,2,0,L|189:104,1,70,2|0,0:0|0:0,0:0:0:0:
120,73,44851,2,0,P|122:38|132:4,2,70,0|0|4,1:0|3:0|0:0,0:0:0:0:
136,194,46568,6,0,P|147:226|148:261,1,70,0|0,1:0|0:0,0:0:0:0:
121,349,47428,1,2,0:0:0:0:
51,289,47858,2,0,P|39:256|38:221,1,70,0|0,0:0|1:0,0:0:0:0:
58,98,49164,69,4,0:0:0:0:
136,194,50009,2,0,L|220:187,1,70,0|0,1:0|0:0,0:0:0:0:
264,116,50854,1,2,0:0:0:0:
330,181,51276,2,0,P|333:204|329:261,1,70,0|0,0:0|1:0,0:0:0:0:
251,346,52581,5,4,0:0:0:0:
376,362,53438,2,0,P|410:360|444:368,2,70,0|0|2,1:0|0:0|0:0,0:0:0:0:
321,289,54723,1,0,0:0:0:0:
396,237,55152,2,0,L|465:240,1,70,0|0,1:0|3:0,0:0:0:0:
482,151,55999,1,4,0:0:0:0:
391,68,56868,70,0,P|425:64|462:69,1,70,0|0,1:0|0:0,0:0:0:0:
406,142,57723,1,2,0:0:0:0:
317,123,58142,1,0,0:0:0:0:
227,107,58562,2,0,L|149:96,1,70,0|0,1:0|3:0,0:0:0:0:
125,183,59401,6,0,P|117:217|100:247,1,70,4|0,0:0|0:0,0:0:0:0:
34,185,60258,2,0,L|29:106,1,70,0|0,1:0|0:0,0:0:0:0:
21,24,61115,2,0,P|55:16|90:18,1,70,2|0,0:0|0:0,0:0:0:0:
182,10,61972,1,0,1:0:0:0:
157,97,62401,1,0,3:0:0:0:
125,183,62829,70,0,P|103:249|95:318,1,140,4|0,0:0|1:0,0:0:0:0:
171,372,64035,1,0,0:0:0:0:
256,192,64472,12,4,66462,0:3:0:0:
327,39,67357,6,0,L|387:40,1,35,4|4,3:0|3:0,0:0:0:0:
457,52,67951,70,0,L|461:131,1,70,6|0,0:0|0:0,0:0:0:0:
468,213,68796,2,0,P|423:219|391:231,1,70,0|0,1:0|0:0,0:0:0:0:
322,276,69706,1,2,0:0:0:0:
368,356,70134,1,0,0:0:0:0:
459,366,70510,2,0,P|461:331|458:296,1,70,0|0,1:0|3:0,0:0:0:0:
399,226,71379,6,0,P|390:191|389:157,1,70,4|0,0:0|0:0,0:0:0:0:
443,82,72249,2,0,L|519:72,2,70,0|0|2,1:0|3:0|0:0,0:0:0:0:
358,49,73534,1,2,0:0:0:0:
307,123,73963,1,0,1:0:0:0:
315,215,74387,1,0,3:0:0:0:
224,201,74812,70,0,L|128:187,1,70,4|0,0:0|0:0,0:0:0:0:
64,171,75660,2,0,P|79:139|102:113,1,70,0|0,1:0|0:0,0:0:0:0:
134,25,76509,2,0,L|175:19,2,35,2|0|0,0:0|0:0|0:0,0:0:0:0:
42,30,77354,1,0,1:0:0:0:
0,112,77776,1,0,3:0:0:0:
41,188,78199,1,4,0:0:0:0:
131,276,79081,6,0,P|142:242|148:208,1,70,0|0,1:0|0:0,0:0:0:0:
215,143,79914,1,2,0:0:0:0:
280,207,80331,1,0,0:0:0:0:
268,298,80747,2,0,L|427:271,1,140,8|6,0:3|0:0,0:0:0:0:
495,188,82438,70,0,L|474:107,1,70,0|0,1:0|0:0,0:0:0:0:
421,46,83295,1,2,0:0:0:0:
331,24,83723,1,0,0:0:0:0:
360,110,84152,2,0,P|390:174|388:243,1,140,0|4,1:0|0:0,0:0:0:0:
362,330,85437,5,0,0:0:0:0:
271,333,85866,2,0,L|264:252,1,70,0|0,1:0|0:0,0:0:0:0:
187,216,86723,2,0,P|161:268|161:356,1,140,2|0,0:0|1:0,0:0:0:0:
70,368,87968,2,0,L|1:354,1,70,0|6,3:0|0:0,0:0:0:0:
0,263,88815,69,0,0:0:0:0:
48,186,89250,1,0,1:0:0:0:
47,95,89685,1,0,3:0:0:0:
127,143,90120,2,0,L|208:140,2,70,2|0|0,0:0|0:0|1:0,0:0:0:0:
47,95,91424,2,0,P|46:50|61:16,1,70,0|4,3:0|0:0,0:0:0:0:
177,13,92692,5,0,1:0:0:0:
250,67,93109,1,0,0:0:0:0:
196,140,93525,2,0,P|195:184|210:218,1,70,2|0,0:0|0:0,0:0:0:0:
285,162,94359,2,0,L|354:155,1,70,0|0,1:0|3:0,0:0:0:0:
447,149,95192,70,0,P|426:215|354:249,1,140,2|0,0:0|1:0,0:0:0:0:
287,291,96385,1,0,0:0:0:0:
335,369,96804,6,0,B|373:369|373:369|403:360,1,70,8|10,3:0|3:0,0:0:0:0:
435,239,98036,2,0,B|397:239|397:239|366:247,1,70,0|4,1:0|3:0,0:0:0:0:
249,208,99269,2,0,B|250:176|250:176|267:141,1,70,0|2,1:0|1:2,0:0:0:0:
297,56,100126,6,0,P|263:42|206:41,1,70,2|0,0:0|3:0,0:0:0:0:
154,88,100995,2,0,P|120:102|63:103,1,70,0|0,1:0|3:0,0:0:0:0:
3,71,101865,5,2,0:0:0:0:
0,163,102265,1,2,0:0:0:0:
0,255,102665,2,0,L|32:268,1,35,2|0,1:2|0:0,0:0:0:0:
85,291,103065,2,0,L|89:252,1,35,0|0,3:0|0:0,0:0:0:0:
89,205,103500,1,4,0:1:0:0:
175,174,103922,70,0,L|184:252,2,70,0|0|0,3:0|1:0|0:0,0:0:0:0:
261,140,105204,2,0,P|305:145|340:163,1,70,2|0,0:0|0:0,0:0:0:0:
392,222,105993,6,0,L|384:361,1,140,0|4,1:0|0:0,0:0:0:0:
294,375,107247,69,0,0:0:0:0:
218,325,107668,2,0,L|160:334,1,35,0|0,1:0|0:0,0:0:0:0:
128,349,108089,2,0,L|119:407,2,35,0|0|2,0:0|0:0|0:0,0:0:0:0:
158,261,108931,1,2,0:0:0:0:
67,278,109352,2,0,L|20:288,2,35,0|0|0,1:0|0:0|3:0,0:0:0:0:
102,193,110185,6,0,P|82:140|86:55,1,140,6|0,0:0|1:0,0:0:0:0:
166,16,111438,2,0,L|184:63,1,35
208,100,111835,2,0,L|205:187,1,70,0|8,1:0|0:3,0:0:0:0:
206,261,112628,2,0,L|299:258,1,70,0|4,1:0|0:3,0:0:0:0:
351,316,113461,1,4,0:1:0:0:
457,256,114262,2,0,B|466:158,2,70,0|0|2,1:0|0:0|0:0,0:0:0:0:
440,346,115536,1,2,0:0:0:0:
350,362,115941,2,0,P|302:382|258:376,1,70,0|0,1:0|0:0,0:0:0:0:
290,291,116751,5,2,0:0:0:0:
250,208,117167,1,0,3:0:0:0:
290,125,117584,1,0,1:0:0:0:
250,42,118001,2,0,L|194:73,1,35
169,84,118417,70,0,B|128:63|128:63|35:76,1,140,6|0,1:2|1:0,0:0:0:0:
3,163,119633,1,0,1:2:0:0:
69,229,120038,5,4,0:1:0:0:
23,312,120466,2,0,L|115:323,1,70,0|0,0:0|1:0,0:0:0:0:
172,274,121305,1,0,0:0:0:0:
243,333,121716,2,0,P|272:332|332:310,2,70,2|2|0,0:0|0:0|1:0,0:0:0:0:
172,274,122949,2,0,L|175:227,1,35,0|0,3:0|0:0,0:0:0:0:
181,182,123360,70,0,L|187:91,1,70,4|0,1:2|0:0,0:0:0:0:
193,19,124182,2,0,P|159:22|130:40,2,70,2|0|0,0:0|0:0|3:0,0:0:0:0:
269,74,125461,1,0,0:0:0:0:
344,128,125872,2,0,P|374:147|408:150,1,70,0|0,1:0|0:0,0:0:0:0:
403,59,126694,1,2,0:0:0:0:
496,47,127105,1,0,3:0:0:0:
502,140,127516,2,0,L|509:237,1,70,2|0,0:0|0:0,0:0:0:0:
512,300,128316,6,0,L|467:302,1,35,0|0,1:0|1:0,0:0:0:0:
398,353,128878,2,0,L|353:351,1,35,8|0,0:3|1:0,0:0:0:0:
270,351,129471,2,0,L|272:316,1,35,0|8,1:0|0:3,0:0:0:0:
195,266,130079,2,0,L|192:231,1,35,4|0,1:3|3:0,0:0:0:0:
260,169,130687,2,0,L|262:134,2,35,0|4|8,1:0|3:3|3:3,0:0:0:0:
192,231,131498,69,6,0:0:0:0:
138,157,131939,1,0,3:0:0:0:
180,74,132380,2,0,P|209:56|245:44,1,70,2|0,0:0|3:0,0:0:0:0:
335,51,133216,5,2,0:0:0:0:
353,140,133634,1,2,0:0:0:0:
383,228,134052,2,0,P|417:230|472:214,1,70,2|0,1:2|3:0,0:0:0:0:
459,131,134906,1,4,0:0:0:0:
341,0,135760,70,0,L|334:50,1,70,0|0,1:0|0:0,0:0:0:0:
243,35,136581,6,0,L|239:-24,2,35,2|0|2,0:0|0:0|0:0,0:0:0:0:
198,117,137403,2,0,L|194:176,2,35,2|0|2,0:0|0:0|0:0,0:0:0:0:
142,47,138224,1,6,0:0:0:0:
