osu file format v14

[General]
AudioFilename: audio.mp3
AudioLeadIn: 0
PreviewTime: 81514
Countdown: 0
SampleSet: Soft
StackLeniency: 0.2
Mode: 0
LetterboxInBreaks: 0
WidescreenStoryboard: 1

[Editor]
DistanceSpacing: 0.5
BeatDivisor: 4
GridSize: 16
TimelineZoom: 2.799999

[Metadata]
Title:Taste of Cindy
TitleUnicode:Taste of Cindy
Artist:The Jesus and Mary Chain
ArtistUnicode:The Jesus and Mary Chain
Creator:app
Version:nik's Hard
Source:
Tags:psychocandy alternative rock english noise pop nik nikolomara
BeatmapID:4018509
BeatmapSetID:1942245

[Difficulty]
HPDrainRate:4.2
CircleSize:3.4
OverallDifficulty:5.3
ApproachRate:6.2
SliderMultiplier:1.4
SliderTickRate:1

[Events]
//Background and Video events
0,0,"flow.png",0,0
//Break Periods
2,57722,63698
//Storyboard Layer 0 (Background)
//Storyboard Layer 1 (Fail)
//Storyboard Layer 2 (Pass)
//Storyboard Layer 3 (Foreground)
//Storyboard Layer 4 (Overlay)
//Storyboard Sound Samples

[TimingPoints]
309,476.190476190477,4,2,2,40,1,0
547,491.803278688525,4,2,2,40,1,0
1039,460.652591170826,4,2,2,50,1,0
4724,454.545454545454,4,2,2,50,1,0
6542,465.116279069768,4,2,2,50,1,0
7007,444.444444444445,4,2,2,50,1,0
7451,461.538461538462,4,2,2,50,1,0
8374,434.782608695652,4,2,2,50,1,0
8808,454.545454545454,4,2,2,50,1,0
9035,-98.5221674876847,4,2,2,50,0,0
9262,441.176470588235,4,2,2,50,1,0
9703,437.956204379562,4,2,2,50,1,0
10140,458.015267175573,4,2,2,50,1,0
10598,451.127819548873,4,2,2,50,1,0
11951,458.015267175573,4,2,2,50,1,0
12867,431.654676258993,4,2,2,50,1,0
13730,465.116279069768,4,2,2,50,1,0
14892,444.444444444445,4,2,2,50,1,0
15336,476.190476190477,4,2,2,50,1,0
15574,451.127819548872,4,2,2,50,1,0
16476,431.654676258993,4,2,2,50,1,0
16907,450.281425891182,4,2,2,50,1,0
18708,461.538461538462,4,2,2,50,1,0
19169,425.531914893617,4,2,2,50,1,0
19594,457.142857142857,4,2,2,50,1,0
20051,417.391304347826,4,2,2,50,1,0
20468,467.836257309943,4,2,2,50,1,0
20936,438.756855575868,4,2,2,50,1,0
22252,458.015267175572,4,2,2,50,1,0
22710,437.956204379562,4,2,2,50,1,0
23147,458.015267175572,4,2,2,50,1,0
23376,-95.2380952380952,4,2,2,50,0,0
23605,434.782608695652,4,2,2,50,1,0
24039,462.427745664739,4,2,2,50,1,0
24501,434.782608695651,4,2,2,50,1,0
24935,451.12781954887,4,2,2,50,1,0
25386,428.571428571427,4,2,2,50,1,0
25814,458.01526717557,4,2,2,50,1,0
26272,433.21299638989,4,2,2,50,1,0
26705,451.12781954887,4,2,2,50,1,0
27156,413.793103448274,4,2,2,50,1,0
27569,461.538461538459,4,2,2,50,1,0
28030,446.927374301674,4,2,2,50,1,0
28923,431.65467625899,4,2,2,50,1,0
29138,461.538461538458,4,2,2,50,1,0
29599,444.444444444441,4,2,2,50,1,0
29821,425.531914893613,4,2,2,50,1,0
30672,450.281425891178,4,2,2,50,1,0
31347,-98.3284169124877,4,2,2,50,0,0
31572,441.176470588232,4,2,2,50,1,0
32895,451.127819548869,4,2,2,50,1,0
33346,441.176470588235,4,2,2,55,1,0
33787,392.798690671031,4,2,2,55,1,0
34179,451.127819548872,4,2,2,55,1,0
34630,437.956204379562,4,2,2,55,1,0
34848,-102.249488752556,4,2,2,55,0,0
35067,454.545454545454,4,2,2,55,1,0
35521,431.654676258992,4,2,2,55,1,0
35952,452.830188679245,4,2,2,55,1,0
36631,421.052631578947,4,2,2,55,1,0
36841,453.172205438066,4,2,2,55,1,0
37294,425.531914893617,4,2,2,55,1,0
37719,454.545454545455,4,2,2,55,1,0
38173,428.571428571429,4,2,2,55,1,0
39030,441.176470588235,4,2,2,55,1,0
40353,428.571428571429,4,2,2,55,1,0
40781,437.956204379562,4,2,2,55,1,0
41218,428.571428571429,4,2,2,55,1,0
41860,-101.010101010101,4,2,2,55,0,0
42075,437.956204379562,4,2,2,55,1,0
42950,-100,4,2,2,60,0,0
43826,439.560439560439,4,2,2,65,1,1
45584,428.571428571428,4,2,2,65,1,1
46655,-103.199174406605,4,2,2,65,0,1
46869,460.652591170825,4,2,2,65,1,1
47329,416.666666666666,4,2,2,65,1,1
48162,431.654676258992,4,2,2,65,1,1
49888,451.127819548871,4,2,2,65,1,1
50790,435.571687840289,4,2,2,65,1,1
52532,422.535211267605,4,2,2,65,1,1
53377,441.176470588236,4,2,2,65,1,1
53597,-102.040816326531,4,2,2,65,0,1
53818,459.770114942529,4,2,2,65,1,1
54277,422.535211267606,4,2,2,65,1,0
54277,-100,4,2,2,65,0,0
54699,437.956204379562,4,2,2,65,1,0
55136,431.654676258993,4,2,2,65,1,0
56646,-98.0392156862745,4,2,2,65,0,0
56862,426.287744227354,4,2,2,65,1,0
57075,447.761194029851,4,2,2,65,1,0
57522,393.442622950819,4,2,2,65,1,0
57718,461.538461538462,4,2,2,65,1,0
58179,405.405405405406,4,2,2,65,1,0
58584,476.190476190477,4,2,2,65,1,0
59061,431.654676258994,4,2,2,65,1,0
59492,425.531914893618,4,2,2,65,1,0
60343,451.127819548873,4,2,2,65,1,0
60794,425.531914893618,4,2,2,65,1,0
61219,454.545454545456,4,2,2,65,1,0
61674,419.580419580421,4,2,2,65,1,0
62093,461.538461538463,4,2,2,65,1,0
62554,425.531914893618,4,2,2,65,1,0
62979,434.782608695653,4,2,2,65,1,0
64718,445.269016697588,4,2,2,50,1,0
64773,-100,4,2,2,65,0,0
65608,413.793103448275,4,2,2,65,1,0
66021,441.176470588235,4,2,2,65,1,0
66462,434.782608695652,4,2,2,65,1,0
66896,419.580419580419,4,2,2,65,1,0
67315,437.956204379561,4,2,2,65,1,0
67533,428.571428571428,4,2,2,65,1,0
67747,413.793103448275,4,2,2,65,1,0
67953,489.396411092985,4,2,2,65,1,0
68197,427.046263345195,4,2,2,55,1,0
69905,451.977401129943,4,2,2,55,1,0
70130,-95.7854406130268,4,2,2,55,0,0
70356,410.958904109589,4,2,2,55,1,0
70766,444.444444444444,4,2,2,55,1,0
71654,413.793103448275,4,2,2,55,1,0
72067,440.366972477064,4,2,2,55,1,0
72507,422.535211267606,4,2,2,55,1,0
73352,419.58041958042,4,2,2,55,1,0
74610,451.127819548872,4,2,2,55,1,0
75061,408.163265306122,4,2,2,55,1,0
75469,451.127819548872,4,2,2,55,1,0
75920,408.163265306122,4,2,2,55,1,0
76328,397.350993377484,4,2,2,55,1,0
76725,448.598130841123,4,2,2,55,1,0
77173,444.444444444446,4,2,2,55,1,0
77395,-94.7867298578199,4,2,2,55,0,0
77617,398.009950248757,4,2,2,55,1,0
78015,434.782608695653,4,2,2,55,1,0
78449,413.793103448277,4,2,2,55,1,0
78862,433.212996389892,4,2,2,55,1,0
79295,409.556313993177,4,2,2,55,1,0
79704,446.927374301679,4,2,2,55,1,0
80150,397.350993377485,4,2,2,55,1,0
80547,437.956204379564,4,2,2,55,1,0
80765,-93.4579439252336,4,2,2,55,0,0
80984,379.746835443039,4,2,2,55,1,0
81173,476.190476190477,4,2,2,55,1,0
81411,413.793103448277,4,2,2,55,1,0
81617,451.127819548872,4,2,2,60,1,0
81842,394.736842105263,4,2,2,65,1,1
81842,-100,4,2,2,65,0,1
82236,427.046263345195,4,2,2,65,1,1
82663,424.778761061946,4,2,2,65,1,1
82663,-100,4,2,2,65,0,1
83087,426.287744227353,4,2,2,65,1,1
83087,-100,4,2,2,65,0,1
83939,402.684563758389,4,2,2,65,1,1
83939,-100,4,2,2,65,0,1
84341,442.80442804428,4,2,2,65,1,1
84783,445.269016697587,4,2,2,65,1,1
84783,-100,4,2,2,65,0,1
85228,439.560439560438,4,2,2,65,1,1
85228,-100,4,2,2,65,0,1
85667,418.848167539266,4,2,2,65,1,1
86085,434.782608695651,4,2,2,65,1,1
86085,-100,4,2,2,65,0,1
86954,410.958904109588,4,2,2,65,1,1
86954,-100,4,2,2,65,0,1
87775,436.363636363636,4,2,2,65,1,1
88211,-100,4,2,2,65,0,1
88647,414.507772020726,4,2,2,65,1,1
88647,-100,4,2,2,65,0,1
89061,415.944540727904,4,2,2,65,1,1
89476,434.782608695653,4,2,2,65,1,1
89476,-100,4,2,2,65,0,1
89910,422.535211267606,4,2,2,65,1,1
89910,-100,4,2,2,65,0,1
90332,416.666666666667,4,2,2,65,1,1
90332,-100,4,2,2,65,0,1
90748,422.535211267606,4,2,2,65,1,1
90748,-100,4,2,2,65,0,1
91170,437.956204379563,4,2,2,65,1,1
91607,-100,4,2,2,65,0,1
91826,468.750000000001,4,2,2,65,1,1
91826,-100,4,2,2,65,0,1
92060,398.009950248757,4,2,2,65,1,1
92060,-100,4,2,2,65,0,1
92856,-100,4,2,1,45,0,1
93652,397.350993377484,4,2,2,35,1,0
94446,-100,4,2,2,30,0,0
95241,-100,4,2,2,25,0,0
96036,-100,4,2,2,20,0,0
96830,-100,4,2,2,15,0,0
97625,-100,4,2,2,10,0,0
98420,-100,4,2,2,5,0,0

[Colours]
Combo1 : 186,243,148
Combo2 : 243,232,1
Combo3 : 219,252,103
Combo4 : 43,217,73

[HitObjects]
206,289,1039,6,0,P|158:261|59:245,1,140,2|8,1:2|0:0,0:0:0:0:
6,303,1729,1,0,0:0:0:0:
66,384,1960,2,0,P|114:324|105:246,1,140,0|8,1:0|0:0,0:0:0:0:
33,173,2651,1,0,0:0:0:0:
70,73,2881,2,0,B|110:43|168:56|168:56|189:15,1,140,0|10,1:0|0:0,0:0:0:0:
288,0,3572,1,2,0:0:0:0:
371,59,3802,2,0,L|453:47,1,70,2|2,1:2|0:0,0:0:0:0:
505,113,4263,1,8,0:0:0:0:
420,81,4493,1,0,0:0:0:0:
347,147,4724,6,0,P|341:202|421:243,1,140,2|8,1:2|0:0,0:0:0:0:
507,231,5405,1,0,0:0:0:0:
473,141,5633,2,0,P|440:178|426:276,1,140,0|8,1:0|0:0,0:0:0:0:
494,351,6314,1,0,0:0:0:0:
396,384,6542,2,0,B|352:355|299:344|299:344|295:276,1,140,0|10,1:0|0:0,0:0:0:0:
339,208,7229,1,2,0:0:0:0:
436,213,7451,2,0,L|472:129,1,70,2|2,1:2|0:0,0:0:0:0:
461,45,7912,1,8,0:0:0:0:
357,29,8143,1,2,0:0:0:0:
278,104,8374,6,0,B|194:88|213:128|117:105,1,140,4|10,1:2|0:0,0:0:0:0:
79,46,9035,2,0,P|31:42|13:136,1,140,2|0,0:0|0:0,0:0:0:0:
36,217,9703,1,8,0:0:0:0:
138,202,9921,1,0,0:0:0:0:
230,259,10140,2,0,P|261:226|259:125,1,140,0|10,1:0|0:0,0:0:0:0:
215,49,10823,1,2,0:0:0:0:
129,80,11049,2,0,L|48:71,1,70,2|2,1:2|0:0,0:0:0:0:
0,154,11500,1,10,0:0:0:0:
49,253,11725,1,2,0:0:0:0:
149,217,11951,6,0,P|187:177|191:79,1,140,0|8,1:0|0:0,0:0:0:0:
121,17,12638,1,0,1:0:0:0:
25,79,12867,2,0,P|55:109|150:145,1,140,0|8,1:0|0:0,0:0:0:0:
220,72,13514,1,0,0:0:0:0:
317,115,13730,6,2,B|324:203|324:203|278:291|278:291|287:384,1,280,4|4,1:2|1:2,0:1:0:0:
398,381,14892,1,10,0:0:0:0:
431,276,15114,1,10,0:0:0:0:
357,203,15336,1,10,0:0:0:0:
258,245,15574,6,0,B|200:234|200:234|140:302,1,140,2|8,1:2|0:0,0:0:0:0:
53,365,16250,1,0,0:0:0:0:
6,276,16476,2,0,B|28:229|28:229|-4:134,1,140,0|8,1:0|0:0,0:0:0:0:
22,47,17132,1,0,0:0:0:0:
110,81,17357,2,0,B|160:74|160:74|191:86|191:86|253:80,1,140,0|10,1:0|0:0,0:0:0:0:
316,8,18032,1,2,0:0:0:0:
386,69,18257,2,0,L|468:56,1,70,2|2,1:2|0:0,0:0:0:0:
512,128,18708,1,8,0:0:0:0:
474,218,18938,1,0,0:0:0:0:
365,208,19169,6,0,B|343:247|343:247|248:239,1,140,0|8,1:0|0:0,0:0:0:0:
176,157,19822,1,0,0:0:0:0:
77,198,20051,2,0,B|36:233|36:233|41:328,1,140,0|8,1:0|0:0,0:0:0:0:
126,383,20701,1,0,0:0:0:0:
222,336,20936,2,0,B|289:325|289:325|292:314|292:314|377:299,1,140,0|10,1:0|0:0,0:0:0:0:
453,348,21594,1,2,0:0:0:0:
512,265,21813,2,0,L|500:190,1,70,2|2,1:2|0:0,0:0:0:0:
413,131,22252,1,10,0:0:0:0:
342,214,22481,1,2,0:0:0:0:
243,161,22710,6,0,B|199:154|199:154|140:177|140:177|104:157,1,140,4|10,1:2|0:0,0:0:0:0:
16,210,23376,2,0,B|-11:166|-11:166|5:117|5:117|-1:70,1,143.500002189636,2|0,0:0|0:0,0:0:0:0:
82,0,24039,1,8,0:0:0:0:
178,57,24270,1,0,0:0:0:0:
130,161,24501,2,0,B|142:276|142:276|180:260,1,140,0|10,1:0|0:0,0:0:0:0:
252,209,25160,1,2,0:2:0:0:
342,259,25386,2,0,L|344:350,1,70,0|2,1:0|0:0,0:0:0:0:
271,384,25814,1,10,0:0:0:0:
172,353,26043,1,2,0:0:0:0:
74,384,26272,6,2,B|14:381|14:381|-6:272,1,140,0|8,1:0|0:0,0:1:0:0:
37,202,26930,1,0,1:0:0:0:
150,220,27156,2,2,B|211:209|211:209|286:256,1,140,0|8,1:0|0:0,0:1:0:0:
354,333,27799,1,0,1:0:0:0:
451,290,28030,2,2,L|452:216,1,70,4|0,1:2|0:0,0:1:0:0:
512,136,28476,2,2,L|513:62,1,70,12|0,0:0|0:0,0:1:0:0:
421,0,28923,1,4,1:2:0:0:
303,27,29138,2,0,B|272:12|272:12|218:13,2,70,10|10|8,0:0|0:0|0:0,0:0:0:0:
361,124,29821,6,0,B|319:208|389:173|333:273,1,140,2|8,1:2|0:0,0:0:0:0:
227,253,30459,2,0,P|180:238|142:234,1,70,2|0,0:0|1:0,0:0:0:0:
79,174,30897,2,0,P|44:180|11:191,1,70,2|8,0:0|0:0,0:0:0:0:
0,301,31347,2,0,B|-1:347|32:378|32:378|80:335|157:354,1,210,2|8,0:0|0:0,0:0:0:0:
256,384,32233,1,0,1:0:0:0:
334,325,32454,2,0,P|337:290|329:243,1,70,2|2,1:2|0:0,0:0:0:0:
232,215,32895,1,8,0:0:0:0:
169,116,33120,1,8,0:0:0:0:
233,25,33346,6,0,B|273:8|273:8|319:30|392:7,1,140,6|8,1:2|0:0,0:0:0:0:
482,10,33983,2,0,P|510:40|519:75,1,70,0|2,0:0|1:2,0:0:0:0:
492,184,34404,2,0,P|480:216|455:241,1,70,2|8,0:0|0:0,0:0:0:0:
332,236,34848,2,2,B|190:263|271:198|119:222,1,210,2|8,0:0|0:0,0:1:0:0:
61,326,35736,1,0,0:0:0:0:
165,384,35952,2,0,P|185:349|181:309,1,70,2|10,1:2|0:0,0:0:0:0:
115,217,36404,1,8,0:0:0:0:
169,123,36631,1,8,0:0:0:0:
273,178,36841,6,0,P|317:167|350:160,1,70,2|0,1:2|0:0,0:0:0:0:
426,105,37294,2,0,P|460:112|494:121,1,70,10|0,0:0|0:0,0:0:0:0:
512,226,37719,1,2,1:2:0:0:
429,302,37946,2,0,P|385:291|352:284,1,70,2|8,0:0|0:0,0:0:0:0:
273,335,38387,2,0,P|219:294|224:213,1,140,2|0,0:0|0:0,0:0:0:0:
307,153,39030,2,0,P|309:104|308:71,1,70,8|0,0:0|0:0,0:0:0:0:
239,6,39471,1,2,1:2:0:0:
140,46,39691,2,0,P|105:46|70:44,1,70,2|8,0:0|0:0,0:0:0:0:
0,116,40132,5,8,0:0:0:0:
0,116,40243,1,8,0:0:0:0:
0,116,40353,2,0,P|1:150|1:185,1,70,2|0,1:2|0:0,0:0:0:0:
78,258,40781,2,0,P|113:258|148:256,1,70,8|0,0:0|0:0,0:0:0:0:
224,190,41218,1,2,1:2:0:0:
318,236,41432,2,0,P|342:279|336:327,1,70,2|8,0:0|0:0,0:0:0:0:
280,370,41860,2,0,B|189:377|236:335|123:346,1,140,2|0,0:0|0:0,0:0:0:0:
44,377,42512,2,0,P|14:345|11:296,1,70,8|0,0:0|0:0,0:0:0:0:
94,249,42950,1,2,1:2:0:0:
45,166,43169,2,0,P|39:116|38:25,1,140,10|10,0:0|0:0,0:0:0:0:
76,158,43826,6,0,B|117:151|117:151|123:157|123:157|168:155,1,70,6|0,1:2|0:0,0:0:0:0:
251,220,44265,2,0,B|270:220|270:220|287:231|287:231|317:221,1,70,10|2,0:0|0:0,0:0:0:0:
406,128,44705,2,0,B|402:92|402:92|405:79|405:79|397:48,1,70,2|0,1:2|0:0,0:0:0:0:
287,6,45144,1,10,0:0:0:0:
206,87,45364,1,2,0:0:0:0:
102,33,45584,2,0,B|54:41|18:21|18:21|-21:57,1,140,2|10,1:2|0:0,0:0:0:0:
66,151,46226,1,2,0:0:0:0:
2,257,46441,1,2,1:2:0:0:
71,357,46655,2,0,B|111:332|147:344|147:344|166:380|211:392,1,140,2|2,0:0|0:0,0:0:0:0:
266,299,47329,6,0,B|256:271|256:271|266:251|266:251|262:206,1,70,6|0,1:2|0:0,0:0:0:0:
166,150,47745,2,0,B|165:122|165:122|181:98|181:98|183:64,1,70,10|2,0:0|0:0,0:0:0:0:
281,0,48162,2,0,B|316:1|316:1|329:15|329:15|353:29,1,70,2|0,1:2|0:0,0:0:0:0:
372,142,48593,1,10,0:0:0:0:
293,220,48809,1,2,0:0:0:0:
190,167,49025,2,0,B|152:162|152:162|140:166|140:166|93:157,1,70,2|0,1:2|0:0,0:0:0:0:
48,235,49456,2,0,B|53:256|53:256|49:268|49:268|58:307,1,70,10|2,0:0|0:0,0:0:0:0:
149,374,49888,1,2,1:2:0:0:
240,324,50113,1,2,0:0:0:0:
372,374,50339,1,10,0:0:0:0:
450,303,50564,1,2,0:0:0:0:
450,303,50677,1,0,0:0:0:0:
450,303,50790,6,0,B|441:277|441:277|446:249|446:249|447:218,1,70,6|0,1:2|0:0,0:0:0:0:
512,138,51225,2,0,B|504:95|504:95|514:78|514:78|504:58,1,70,10|2,0:0|0:0,0:0:0:0:
395,0,51661,2,0,B|366:2|366:2|339:16|339:16|306:17,1,70,2|0,1:2|0:0,0:0:0:0:
283,109,52096,1,10,0:0:0:0:
346,202,52314,1,2,0:0:0:0:
280,278,52532,2,0,B|232:289|232:289|192:263|138:267,1,140,2|10,1:2|0:0,0:0:0:0:
61,342,53165,1,2,0:0:0:0:
0,245,53377,1,2,1:2:0:0:
49,151,53597,1,2,0:0:0:0:
0,57,53818,1,10,0:0:0:0:
90,0,54047,5,2,0:0:0:0:
90,0,54162,1,0,0:0:0:0:
90,0,54277,2,0,L|160:3,1,70,6|0,1:2|0:0,0:0:0:0:
234,57,54699,2,0,L|231:127,1,70,10|2,0:0|0:0,0:0:0:0:
291,200,55136,2,0,L|294:269,1,70,0|0,1:0|0:0,0:0:0:0:
211,350,55567,1,10,0:0:0:0:
122,301,55783,1,2,0:0:0:0:
36,347,55999,6,0,B|13:371|13:371|-3:249,1,140,0|8,1:0|0:0,0:0:0:0:
116,192,56646,2,0,B|152:156|152:156|132:53,1,141.399997195129,0|8,0:0|0:0,0:0:0:0:
50,19,57298,1,8,0:0:0:0:
0,103,57522,1,8,0:0:0:0:
256,192,64718,12,10,66896,0:0:0:0:
171,328,67315,5,8,0:0:0:0:
74,369,67533,1,8,0:0:0:0:
0,312,67747,1,10,0:0:0:0:
11,213,67953,1,10,0:0:0:0:
117,150,68197,6,0,P|168:149|238:208,1,140,2|10,1:2|0:0,0:0:0:0:
302,304,68837,1,2,0:0:0:0:
407,256,69051,2,0,P|408:208|399:112,1,140,2|10,1:2|0:0,0:0:0:0:
438,25,69691,1,2,0:0:0:0:
512,88,69905,1,2,1:2:0:0:
460,187,70130,2,0,P|416:171|315:157,1,140,2|2,0:0|0:0,0:0:0:0:
240,91,70766,2,0,P|199:97|155:120,1,70,0|2,1:0|0:0,0:0:0:0:
95,181,71210,1,8,0:0:0:0:
0,133,71432,1,8,0:0:0:0:
38,22,71654,6,0,P|90:28|192:7,1,140,2|10,1:2|0:0,0:0:0:0:
265,89,72287,1,2,0:0:0:0:
353,19,72507,2,0,P|424:27|493:91,1,140,0|10,1:2|0:0,0:0:0:0:
438,162,73140,1,2,0:0:0:0:
492,250,73352,1,2,1:2:0:0:
415,325,73561,2,2,P|350:297|278:285,1,140,2|2,0:0|0:0,0:1:0:0:
196,331,74191,2,0,P|155:335|107:344,1,70,0|2,1:0|0:0,0:0:0:0:
29,384,74610,1,8,0:0:0:0:
1,283,74835,1,8,0:0:0:0:
55,194,75061,6,2,P|107:191|139:196,1,70,6|0,1:2|0:0,0:1:0:0:
207,248,75469,1,8,0:0:0:0:
304,213,75694,1,2,0:0:0:0:
382,285,75920,2,0,P|416:282|451:285,1,70,2|0,1:2|0:0,0:0:0:0:
512,212,76328,1,10,0:0:0:0:
502,105,76526,1,2,0:0:0:0:
413,65,76725,1,2,1:2:0:0:
352,136,76949,2,0,P|287:145|253:150,1,70,2|8,0:0|0:0,0:0:0:0:
201,214,77395,2,0,P|160:200|159:107,1,140,2|2,0:0|0:0,0:0:0:0:
220,41,78015,2,0,B|246:37|246:37|266:47|266:47|318:42,1,70,8|4,0:0|0:0,0:0:0:0:
390,0,78449,6,0,P|430:-1|482:85,1,140,2|10,1:2|0:0,0:0:0:0:
429,175,79078,1,2,0:0:0:0:
338,130,79295,2,0,B|269:130|287:167|193:149,1,140,2|10,1:2|0:0,0:0:0:0:
131,62,79927,1,2,0:0:0:0:
27,64,80150,1,2,1:2:0:0:
0,159,80348,2,0,P|6:205|7:257,1,70,2|8,0:0|0:0,0:0:0:0:
91,302,80765,2,0,B|179:276|133:330|254:299,1,140,2|10,0:0|0:0,0:0:0:0:
323,361,81411,1,8,0:0:0:0:
430,302,81617,1,10,0:0:0:0:
430,302,81729,1,8,0:0:0:0:
430,302,81842,6,0,B|437:272|437:272|436:260|436:260|446:234,1,70,6|0,1:2|0:0,0:0:0:0:
507,151,82236,2,0,B|506:115|506:115|498:98|498:98|499:69,1,70,10|0,0:0|0:0,0:0:0:0:
390,35,82663,2,0,B|358:40|358:40|340:39|340:39|312:44,1,70,2|0,1:2|0:0,0:0:0:0:
273,150,83087,1,8,0:0:0:0:
165,152,83300,1,2,0:0:0:0:
108,236,83513,2,0,B|76:235|76:235|17:260|17:260|0:241|0:211,1,140,2|10,1:2|0:0,0:0:0:0:
0,100,84140,1,2,0:0:0:0:
99,38,84341,1,2,1:2:0:0:
181,127,84562,2,0,B|217:122|263:150|263:150|245:180|245:217,1,140,2|2,0:0|0:0,0:0:0:0:
163,289,85228,6,0,B|175:321|175:321|171:341|171:341|178:387,1,70,6|0,1:2|0:0,0:0:0:0:
286,384,85667,2,0,B|313:372|313:372|334:373|334:373|368:370,1,70,10|0,0:0|0:0,0:0:0:0:
413,267,86085,2,0,B|405:224|405:224|408:211|408:211|402:175,1,70,2|0,1:2|0:0,0:0:0:0:
305,144,86519,1,10,0:0:0:0:
298,33,86737,1,2,0:0:0:0:
404,5,86954,2,0,B|423:6|423:6|444:5|444:5|471:17,1,70,2|0,1:2|0:0,0:0:0:0:
512,128,87364,2,0,B|501:154|501:154|509:179|509:179|508:223,1,70,10|2,0:0|0:0,0:0:0:0:
434,276,87775,1,2,1:2:0:0:
326,224,87993,1,10,0:0:0:0:
250,308,88211,1,8,0:0:0:0:
146,256,88429,1,10,0:0:0:0:
146,256,88538,1,8,0:0:0:0:
146,256,88647,6,0,B|107:250|107:250|101:261|101:261|65:266,1,70,6|0,1:2|0:0,0:0:0:0:
0,194,89061,2,0,B|10:162|10:162|-2:138|-2:138|4:116,1,70,10|0,0:0|0:0,0:0:0:0:
43,38,89476,2,0,B|75:39|75:39|89:56|89:56|124:60,1,70,2|0,1:2|0:0,0:0:0:0:
210,10,89910,1,10,0:0:0:0:
279,73,90121,1,2,0:0:0:0:
360,24,90332,2,0,B|391:25|391:25|412:10|412:10|455:18,1,70,2|0,1:2|0:0,0:0:0:0:
506,71,90748,2,0,B|516:97|516:97|508:120|508:120|511:146,1,70,10|2,0:0|0:0,0:0:0:0:
425,233,91170,1,8,0:0:0:0:
323,176,91388,1,10,0:0:0:0:
237,257,91607,1,8,0:0:0:0:
135,206,91826,1,10,0:0:0:0:
135,206,91943,1,8,0:0:0:0:
135,206,92060,1,4,1:2:0:0:
256,192,92159,12,0,98420,0:0:0:0:
