osu file format v14

[General]
AudioFilename: audio.mp3
AudioLeadIn: 0
PreviewTime: 81514
Countdown: 0
SampleSet: Soft
StackLeniency: 0.7
Mode: 0
LetterboxInBreaks: 0
WidescreenStoryboard: 1

[Editor]
DistanceSpacing: 0.5
BeatDivisor: 4
GridSize: 8
TimelineZoom: 4.399998

[Metadata]
Title:Taste of Cindy
TitleUnicode:Taste of Cindy
Artist:The Jesus and Mary Chain
ArtistUnicode:The Jesus and Mary Chain
Creator:app
Version:Expert
Source:
Tags:psychocandy alternative rock english noise pop nik nikolomara
BeatmapID:4017654
BeatmapSetID:1942245

[Difficulty]
HPDrainRate:6.2
CircleSize:4.6
OverallDifficulty:8.2
ApproachRate:8.8
SliderMultiplier:2.1
SliderTickRate:1

[Events]
//Background and Video events
0,0,"flow.png",0,0
//Break Periods
//Storyboard Layer 0 (Background)
//Storyboard Layer 1 (Fail)
//Storyboard Layer 2 (Pass)
//Storyboard Layer 3 (Foreground)
//Storyboard Layer 4 (Overlay)
//Storyboard Sound Samples

[TimingPoints]
309,476.190476190477,4,2,2,40,1,0
309,-133.333333333333,4,2,2,40,0,0
547,491.803278688525,4,2,2,40,1,0
547,-133.333333333333,4,2,2,40,0,0
1039,460.652591170826,4,2,2,50,1,0
1039,-80,4,2,2,50,0,0
1729,-100,4,2,2,50,0,0
4724,454.545454545454,4,2,2,50,1,0
6542,465.116279069768,4,2,2,50,1,0
7007,444.444444444445,4,2,2,50,1,0
7451,461.538461538462,4,2,2,50,1,0
8374,434.782608695652,4,2,2,50,1,0
8374,-80,4,2,2,50,0,0
8808,454.545454545454,4,2,2,50,1,0
9262,441.176470588235,4,2,2,50,1,0
9703,437.956204379562,4,2,2,50,1,0
10140,458.015267175573,4,2,2,50,1,0
10598,451.127819548873,4,2,2,50,1,0
11951,458.015267175573,4,2,2,50,1,0
12867,431.654676258993,4,2,2,50,1,0
13730,465.116279069768,4,2,2,50,1,0
13730,-66.6666666666667,4,2,2,50,0,0
14892,444.444444444445,4,2,2,50,1,0
15336,476.190476190477,4,2,2,50,1,0
15574,451.127819548872,4,2,2,50,1,0
16476,431.654676258993,4,2,2,50,1,0
16907,450.281425891182,4,2,2,50,1,0
18708,461.538461538462,4,2,2,50,1,0
19169,425.531914893617,4,2,2,50,1,0
19594,457.142857142857,4,2,2,50,1,0
20051,417.391304347826,4,2,2,50,1,0
20468,467.836257309943,4,2,2,50,1,0
20936,438.756855575868,4,2,2,50,1,0
22252,458.015267175572,4,2,2,50,1,0
22710,437.956204379562,4,2,2,50,1,0
22710,-80,4,2,2,50,0,0
23147,458.015267175572,4,2,2,50,1,0
23605,434.782608695652,4,2,2,50,1,0
24039,462.427745664739,4,2,2,50,1,0
24501,434.782608695651,4,2,2,50,1,0
24935,451.12781954887,4,2,2,50,1,0
25386,428.571428571427,4,2,2,50,1,0
25814,458.01526717557,4,2,2,50,1,0
26272,433.21299638989,4,2,2,50,1,0
26705,451.12781954887,4,2,2,50,1,0
27156,413.793103448274,4,2,2,50,1,0
27569,461.538461538459,4,2,2,50,1,0
28030,446.927374301674,4,2,2,50,1,0
28030,-66.6666666666667,4,2,2,50,0,0
28923,431.65467625899,4,2,2,50,1,0
29138,461.538461538458,4,2,2,50,1,0
29599,444.444444444441,4,2,2,50,1,0
29821,425.531914893613,4,2,2,50,1,0
29821,-80,4,2,2,50,0,0
30672,450.281425891178,4,2,2,50,1,0
30897,-80,4,2,2,50,0,0
31572,441.176470588232,4,2,2,50,1,0
31572,-80,4,2,2,50,0,0
32895,451.127819548869,4,2,2,50,1,0
33346,441.176470588235,4,2,2,55,1,0
33346,-80,4,2,2,55,0,0
33787,392.798690671031,4,2,2,55,1,0
34179,451.127819548872,4,2,2,55,1,0
34179,-80,4,2,2,55,0,0
34630,437.956204379562,4,2,2,55,1,0
34848,-80,4,2,2,55,0,0
35067,454.545454545454,4,2,2,55,1,0
35067,-80,4,2,2,55,0,0
35521,431.654676258992,4,2,2,55,1,0
35521,-80,4,2,2,55,0,0
35952,452.830188679245,4,2,2,55,1,0
36631,421.052631578947,4,2,2,55,1,0
36841,453.172205438066,4,2,2,55,1,0
36841,-80,4,2,2,55,0,0
37294,425.531914893617,4,2,2,55,1,0
37294,-80,4,2,2,55,0,0
37719,454.545454545455,4,2,2,55,1,0
38173,428.571428571429,4,2,2,55,1,0
38601,-80,4,2,2,55,0,0
39030,441.176470588235,4,2,2,55,1,0
39471,-80,4,2,2,55,0,0
40353,428.571428571429,4,2,2,55,1,0
40353,-80,4,2,2,55,0,0
40781,437.956204379562,4,2,2,55,1,0
41218,428.571428571429,4,2,2,55,1,0
41218,-80,4,2,2,55,0,0
42075,437.956204379562,4,2,2,55,1,0
42075,-80,4,2,2,55,0,0
42950,-80,4,2,2,60,0,0
43826,439.560439560439,4,2,2,65,1,1
43826,-66.6666666666667,4,2,2,65,0,1
45584,428.571428571428,4,2,2,65,1,1
45584,-66.6666666666667,4,2,2,65,0,1
46869,460.652591170825,4,2,2,65,1,1
46869,-66.6666666666667,4,2,2,65,0,1
47099,-50,4,2,2,65,0,1
47329,416.666666666666,4,2,2,65,1,1
47329,-66.6666666666667,4,2,2,65,0,1
48162,431.654676258992,4,2,2,65,1,1
49025,-66.6666666666667,4,2,2,65,0,1
49888,451.127819548871,4,2,2,65,1,1
50113,-66.6666666666667,4,2,2,65,0,1
50339,-57.1428571428571,4,2,2,65,0,1
50564,-50,4,2,2,65,0,1
50790,435.571687840289,4,2,2,65,1,1
50790,-66.6666666666667,4,2,2,65,0,1
52532,422.535211267605,4,2,2,65,1,1
52532,-66.6666666666667,4,2,2,65,0,1
53377,441.176470588236,4,2,2,65,1,1
53597,-66.6666666666667,4,2,2,65,0,1
53818,459.770114942529,4,2,2,65,1,1
54047,-66.6666666666667,4,2,2,65,0,1
54277,422.535211267606,4,2,2,65,1,0
54277,-80,4,2,2,65,0,0
54699,437.956204379562,4,2,2,65,1,0
55136,431.654676258993,4,2,2,65,1,0
56862,426.287744227354,4,2,2,65,1,0
57075,447.761194029851,4,2,2,65,1,0
57522,393.442622950819,4,2,2,65,1,0
57718,461.538461538462,4,2,2,65,1,0
58179,405.405405405406,4,2,2,65,1,0
58584,476.190476190477,4,2,2,65,1,0
59061,431.654676258994,4,2,2,65,1,0
59492,425.531914893618,4,2,2,65,1,0
60343,451.127819548873,4,2,2,65,1,0
60794,425.531914893618,4,2,2,65,1,0
61219,454.545454545456,4,2,2,65,1,0
61674,419.580419580421,4,2,2,65,1,0
62093,461.538461538463,4,2,2,65,1,0
62554,425.531914893618,4,2,2,65,1,0
62979,434.782608695653,4,2,2,65,1,0
64718,445.269016697588,4,2,2,50,1,0
64773,-100,4,2,2,65,0,0
65608,413.793103448275,4,2,2,65,1,0
66021,441.176470588235,4,2,2,65,1,0
66462,434.782608695652,4,2,2,65,1,0
66896,419.580419580419,4,2,2,65,1,0
67315,437.956204379561,4,2,2,65,1,0
67533,428.571428571428,4,2,2,65,1,0
67747,413.793103448275,4,2,2,65,1,0
67953,489.396411092985,4,2,2,65,1,0
68197,427.046263345195,4,2,2,55,1,0
68197,-80,4,2,2,55,0,0
69905,451.977401129943,4,2,2,55,1,0
69905,-80,4,2,2,55,0,0
70356,410.958904109589,4,2,2,55,1,0
70561,-82.9875518672199,4,2,2,55,0,0
70766,444.444444444444,4,2,2,55,1,0
71654,413.793103448275,4,2,2,55,1,0
71654,-80,4,2,2,55,0,0
72067,440.366972477064,4,2,2,55,1,0
72507,422.535211267606,4,2,2,55,1,0
72507,-80,4,2,2,55,0,0
73352,419.58041958042,4,2,2,55,1,0
73561,-80,4,2,2,55,0,0
74610,451.127819548872,4,2,2,55,1,0
75061,408.163265306122,4,2,2,55,1,0
75061,-80,4,2,2,55,0,0
75469,451.127819548872,4,2,2,55,1,0
75469,-80,4,2,2,55,0,0
75920,408.163265306122,4,2,2,55,1,0
75920,-80,4,2,2,55,0,0
76328,397.350993377484,4,2,2,55,1,0
76725,448.598130841123,4,2,2,55,1,0
76725,-80,4,2,2,55,0,0
77173,444.444444444446,4,2,2,55,1,0
77617,398.009950248757,4,2,2,55,1,0
77617,-80,4,2,2,55,0,0
78015,434.782608695653,4,2,2,55,1,0
78015,-80,4,2,2,55,0,0
78449,413.793103448277,4,2,2,55,1,0
78449,-80,4,2,2,55,0,0
78862,433.212996389892,4,2,2,55,1,0
79295,409.556313993177,4,2,2,55,1,0
79295,-80,4,2,2,55,0,0
79704,446.927374301679,4,2,2,55,1,0
80150,397.350993377485,4,2,2,55,1,0
80547,437.956204379564,4,2,2,55,1,0
80547,-80,4,2,2,55,0,0
80984,379.746835443039,4,2,2,55,1,0
81173,476.190476190477,4,2,2,55,1,0
81411,413.793103448277,4,2,2,55,1,0
81617,451.127819548872,4,2,2,60,1,0
81617,-66.6666666666667,4,2,2,60,0,0
81842,394.736842105263,4,2,2,65,1,1
81842,-66.6666666666667,4,2,2,65,0,1
82236,427.046263345195,4,2,2,65,1,1
82663,424.778761061946,4,2,2,65,1,1
82663,-66.6666666666667,4,2,2,65,0,1
83087,426.287744227353,4,2,2,65,1,1
83300,-66.6666666666667,4,2,2,65,0,1
83939,402.684563758389,4,2,2,65,1,1
84341,442.80442804428,4,2,2,65,1,1
84341,-66.6666666666667,4,2,2,65,0,1
84783,445.269016697587,4,2,2,65,1,1
85228,439.560439560438,4,2,2,65,1,1
85228,-66.6666666666667,4,2,2,65,0,1
85667,418.848167539266,4,2,2,65,1,1
86085,434.782608695651,4,2,2,65,1,1
86085,-66.6666666666667,4,2,2,65,0,1
86954,410.958904109588,4,2,2,65,1,1
86954,-66.6666666666667,4,2,2,65,0,1
87775,436.363636363636,4,2,2,65,1,1
88647,414.507772020726,4,2,2,65,1,1
88647,-66.6666666666667,4,2,2,65,0,1
89061,415.944540727904,4,2,2,65,1,1
89476,434.782608695653,4,2,2,65,1,1
89476,-66.6666666666667,4,2,2,65,0,1
89910,422.535211267606,4,2,2,65,1,1
89910,-66.6666666666667,4,2,2,65,0,1
90332,416.666666666667,4,2,2,65,1,1
90332,-66.6666666666667,4,2,2,65,0,1
90748,422.535211267606,4,2,2,65,1,1
91170,437.956204379563,4,2,2,65,1,1
91826,468.750000000001,4,2,2,65,1,1
92060,398.009950248757,4,2,2,65,1,1
92060,-66.6666666666667,4,2,2,65,0,1
92856,-66.6666666666667,4,2,1,45,0,1
93652,397.350993377484,4,2,2,35,1,0
94446,-100,4,2,2,30,0,0
95241,-100,4,2,2,25,0,0
96036,-100,4,2,2,20,0,0
96830,-100,4,2,2,15,0,0
97625,-100,4,2,2,10,0,0
98420,-100,4,2,2,5,0,0

[Colours]
Combo1 : 186,243,148
Combo2 : 243,232,1
Combo3 : 219,252,103
Combo4 : 43,217,73

[HitObjects]
404,153,309,6,0,L|461:189,1,39.3750015020371,2|0,0:0|0:0,0:0:0:0:
477,167,547,2,0,B|397:206|397:206|418:250,1,118.125004506111,2|0,0:0|0:0,0:0:0:0:
474,276,1039,6,0,B|494:186|494:186|454:141|454:141|482:17,1,262.5,2|8,1:2|0:0,0:0:0:0:
313,83,1729,1,0,0:0:0:0:
274,144,1960,2,0,B|222:154|222:154|174:118,1,105,0|0,1:0|0:0,0:0:0:0:
266,313,2420,2,0,B|340:287|340:287|414:350,1,157.5,8|0,0:0|0:0,0:0:0:0:
435,321,2881,6,0,P|444:281|475:214,1,105,0|0,1:0|0:0,0:0:0:0:
175,365,3342,2,0,P|148:320|134:270,1,105,10|2,0:0|0:0,0:0:0:0:
279,156,3802,1,2,1:2:0:0:
117,48,4033,1,2,0:0:0:0:
264,244,4263,2,0,P|338:228|372:137,1,157.5,8|0,0:0|0:0,0:0:0:0:
403,135,4724,6,0,P|376:259|331:363,1,210,2|8,1:2|0:0,0:0:0:0:
164,258,5405,1,0,0:0:0:0:
108,304,5633,2,0,B|38:298|77:324|-3:315,1,105,0|0,1:0|0:0,0:0:0:0:
54,139,6087,2,0,B|154:143|112:180|250:165,1,157.5,8|0,0:0|0:0,0:0:0:0:
246,134,6542,6,0,P|257:105|204:26,1,105,0|0,1:0|0:0,0:0:0:0:
388,262,7007,2,0,P|396:243|400:211,1,52.5,10|0,0:0|0:0,0:0:0:0:
322,167,7229,2,0,P|309:197|307:241,1,52.5,2|0,0:0|0:0,0:0:0:0:
426,375,7451,2,0,B|400:357|381:319|410:255,1,105,2|2,1:2|0:0,0:0:0:0:
489,92,7912,1,8,0:0:0:0:
512,244,8143,1,2,0:0:0:0:
352,59,8374,6,0,B|260:53|260:53|223:103|223:103|94:96,1,262.5,4|10,1:2|0:0,0:0:0:0:
387,89,9035,2,0,B|416:130|416:130|407:196,1,105,2|0,0:0|1:0,0:0:0:0:
209,255,9482,1,0,0:0:0:0:
287,321,9703,1,8,0:0:0:0:
232,376,9921,1,0,0:0:0:0:
258,197,10140,5,0,1:0:0:0:
258,197,10598,2,0,P|268:115|272:58,1,105,10|2,0:0|0:0,0:0:0:0:
139,257,11049,2,0,P|147:287|190:310,1,52.5,2|0,1:2|0:0,0:0:0:0:
126,109,11274,2,0,P|89:73|-6:76,1,105,2|10,0:0|0:0,0:0:0:0:
306,20,11725,2,0,P|330:20|358:-11,1,52.5,2|0,0:0|0:0,0:0:0:0:
446,58,11951,6,0,B|411:154|430:177|499:225|449:292,1,210,0|8,1:0|0:0,0:0:0:0:
300,378,12638,1,0,1:0:0:0:
450,340,12867,2,0,P|398:323|323:312,1,105,0|0,1:0|0:0,0:0:0:0:
81,370,13298,2,0,P|152:361|243:322,1,157.5,8|0,0:0|0:0,0:0:0:0:
288,268,13730,6,2,L|307:172,1,78.7500030040742,4|0,1:2|0:0,0:1:0:0:
120,120,13962,2,2,L|139:216,1,78.7500030040742,0|0,0:0|0:0,0:1:0:0:
293,35,14195,2,2,B|309:76|309:76|414:140|414:140|469:94|469:94|394:47,1,315.000012016297,12|4,0:0|1:2,0:1:0:0:
23,311,14892,5,10,0:0:0:0:
205,280,15114,5,10,0:0:0:0:
414,276,15336,5,10,0:0:0:0:
488,256,15574,6,0,P|499:151|513:44,1,210,2|8,1:2|0:0,0:0:0:0:
312,144,16250,1,0,0:0:0:0:
258,93,16476,2,0,P|194:84|148:82,1,105,0|0,1:0|0:0,0:0:0:0:
28,236,16907,2,0,P|92:227|191:225,1,157.5,8|0,0:0|0:0,0:0:0:0:
214,251,17357,5,0,1:0:0:0:
26,120,17582,2,0,B|36:143|36:143|75:165,1,52.5,2|0,0:0|0:0,0:0:0:0:
237,276,17807,2,0,B|262:323|262:323|269:389,1,105,10|2,0:0|0:0,0:0:0:0:
508,222,18257,1,2,1:2:0:0:
452,176,18482,2,0,B|394:165|405:199|349:188,1,105,2|8,0:0|0:0,0:0:0:0:
106,53,18938,1,0,0:0:0:0:
106,53,19054,1,2,0:0:0:0:
106,53,19169,6,0,L|129:296,1,210,0|8,1:0|0:0,0:0:0:0:
26,120,19822,1,0,0:0:0:0:
0,295,20051,2,0,B|107:311|88:375|223:384,1,210,0|8,1:0|0:0,0:0:0:0:
337,277,20701,2,0,P|342:237|336:207,1,52.5
274,165,20936,6,0,P|257:233|342:286,1,157.5,0|0,1:0|0:0,0:0:0:0:
372,340,21374,2,0,P|420:313|463:243,1,105,10|2,0:0|0:0,0:0:0:0:
346,86,21813,2,0,P|367:113|387:126,1,52.5,2|0,1:2|0:0,0:0:0:0:
412,99,22032,2,0,P|457:113|518:134,1,105,2|10,0:0|0:0,0:0:0:0:
303,0,22481,1,2,0:0:0:0:
262,31,22595,1,0,0:0:0:0:
212,25,22710,6,0,B|184:127|184:127|216:176|216:176|184:293,1,262.5,4|10,1:2|0:0,0:0:0:0:
419,198,23376,2,0,B|400:217|400:217|360:204,1,52.5,2|0,0:0|0:0,0:0:0:0:
262,100,23605,1,0,1:0:0:0:
227,284,23822,1,0,0:0:0:0:
120,168,24039,2,0,P|58:203|11:298,1,157.5,8|0,0:0|0:0,0:0:0:0:
38,296,24501,6,0,P|29:247|28:187,1,105,0|0,1:0|0:0,0:0:0:0:
204,80,24935,2,0,P|213:129|214:189,1,105,10|2,0:0|0:2,0:0:0:0:
319,305,25386,1,0,1:0:0:0:
194,267,25600,2,2,B|205:273|205:273|252:264,1,52.5,2|0,0:0|0:0,0:1:0:0:
428,158,25814,2,2,B|356:126|356:126|416:219,1,157.5,10|0,0:0|0:0,0:1:0:0:
470,221,26272,6,2,B|495:369|495:369|450:323,1,210,0|8,1:0|0:0,0:1:0:0:
512,155,26930,1,0,1:0:0:0:
362,260,27156,2,2,B|277:279|277:279|259:307|259:307|137:331,1,210,0|8,1:0|0:0,0:1:0:0:
369,370,27799,1,0,1:0:0:0:
200,203,28030,6,2,L|166:122,1,78.7500030040742,4|0,1:2|0:0,0:1:0:0:
359,56,28253,2,2,L|328:128,1,78.7500030040742,0|0,0:0|0:0,0:1:0:0:
49,232,28476,2,2,B|55:205|55:205|108:185|108:185|151:93|151:93|81:35|81:35|66:85,1,315.000012016297,12|4,0:0|1:2,0:1:0:0:
295,371,29138,5,10,0:0:0:0:
345,304,29368,5,10,0:0:0:0:
382,181,29599,5,8,0:0:0:0:
370,23,29821,6,0,P|433:113|510:162,1,196.875,2|0,1:2|0:0,0:0:0:0:
485,127,30246,2,0,B|506:103|506:103|488:61,1,65.625,8|0,0:0|0:0,0:0:0:0:
296,158,30459,2,0,B|227:191|227:191|235:281,1,131.25,2|0,0:0|1:0,0:0:0:0:
16,161,30897,2,0,B|115:131|115:131|134:86,1,131.25,2|8,0:0|0:0,0:0:0:0:
0,210,31347,2,0,L|21:291,1,65.625,2|0,0:0|0:0,0:0:0:0:
158,339,31572,6,0,B|200:373|200:373|215:334|215:334|339:313|339:313|376:349,1,262.5,0|8,1:0|0:0,0:0:0:0:
121,261,32233,1,0,1:0:0:0:
344,210,32454,2,0,L|290:246,1,65.625,2|0,1:2|0:0,0:0:0:0:
158,190,32674,1,2,0:0:0:0:
416,136,32895,1,8,0:0:0:0:
339,364,33120,1,8,0:0:0:0:
15,84,33346,6,0,P|143:93|329:117,1,262.5,6|8,1:2|0:0,0:0:0:0:
0,109,33983,1,0,0:0:0:0:
299,89,34179,2,0,P|331:83|371:76,1,65.625,2|0,1:2|0:0,0:0:0:0:
207,191,34404,2,0,P|178:198|120:317,1,131.25,2|8,0:0|0:0,0:0:0:0:
330,368,34848,6,2,B|338:351|338:351|308:291,1,65.625,2|0,0:0|0:0,0:1:0:0:
78,176,35067,2,2,B|37:148|37:148|12:-12,1,196.875,0|0,1:0|0:0,0:1:0:0:
53,24,35521,2,2,B|72:51|72:51|36:71,2,65.625,8|0|0,0:0|0:0|0:0,0:1:0:0:
398,163,35952,5,2,1:2:0:0:
446,35,36178,5,10,0:0:0:0:
464,135,36404,5,8,0:0:0:0:
310,4,36631,5,8,0:0:0:0:
241,194,36841,6,0,B|198:303|255:358|276:385,1,196.875,2|2,1:2|0:0,0:0:0:0:
301,363,37294,2,0,P|284:337|354:273,1,131.25,10|0,0:0|0:0,0:0:0:0:
64,206,37719,2,0,P|53:214|-5:208,1,52.5,2|0,1:2|0:0,0:0:0:0:
102,238,37946,2,0,P|148:213|170:160,1,105,2|8,0:0|0:0,0:0:0:0:
83,18,38387,1,2,0:0:0:0:
41,104,38601,6,0,P|53:237|74:364,1,262.5,0|8,1:0|0:0,0:0:0:0:
291,262,39250,1,0,0:0:0:0:
349,317,39471,2,0,P|397:348|492:342,1,131.25,2|2,1:2|0:0,0:0:0:0:
507,173,39912,2,0,P|494:206|452:202,1,65.625,8|0,0:0|0:0,0:0:0:0:
254,186,40132,1,8,0:0:0:0:
312,174,40243,1,8,0:0:0:0:
321,160,40353,6,0,P|188:125|171:1,1,262.5,2|8,1:2|0:0,0:0:0:0:
98,147,40999,1,0,0:0:0:0:
312,174,41218,2,0,L|258:318,1,131.25,2|2,1:2|0:0,0:0:0:0:
9,363,41646,2,0,B|101:346|101:346|149:242,1,196.875,8|0,0:0|0:0,0:0:0:0:
32,193,42075,6,0,B|44:234|44:234|168:287,1,131.25,0|0,1:0|0:0,0:0:0:0:
353,107,42512,2,0,B|451:126|451:126|496:96,1,131.25,8|0,0:0|0:0,0:0:0:0:
107,12,42950,5,2,1:2:0:0:
86,169,43169,5,10,0:0:0:0:
25,3,43388,5,8,0:0:0:0:
253,289,43607,5,10,0:0:0:0:
489,363,43826,6,0,P|475:265|436:108,1,236.250009012223,6|0,1:2|0:0,0:0:0:0:
405,97,44265,2,0,P|366:128|374:167,1,78.7500030040742,10|0,0:0|0:0,0:0:0:0:
354,343,44485,2,0,P|364:305|368:232,1,78.7500030040742,2|0,0:0|0:0,0:0:0:0:
217,11,44705,6,0,P|188:125|171:242,1,236.250009012223,2|0,1:2|0:0,0:0:0:0:
206,280,45144,2,0,P|245:251|236:216,1,78.7500030040742,10|0,0:0|0:0,0:0:0:0:
104,61,45364,2,0,P|66:70|41:105,1,78.7500030040742,2|0,0:0|0:0,0:0:0:0:
35,349,45584,6,0,B|171:282|126:419|286:347,1,236.250009012223,2|0,1:2|0:0,0:0:0:0:
287,333,46012,2,0,P|293:302|298:230,1,78.7500030040742,10|0,0:0|0:0,0:0:0:0:
197,37,46226,2,0,P|203:68|208:140,1,78.7500030040742,2|0,0:0|0:0,0:0:0:0:
406,193,46441,5,2,1:2:0:0:
479,203,46655,1,2,0:0:0:0:
82,243,46869,6,0,B|-13:255,1,78.7500030040742,10|0,0:0|0:0,0:0:0:0:
251,177,47099,2,0,L|305:87,1,105,2|0,0:0|0:0,0:0:0:0:
487,353,47329,6,0,P|366:327|207:308,1,236.250009012223,6|0,1:2|0:0,0:0:0:0:
235,327,47745,2,0,P|240:365|284:382,1,78.7500030040742,10|0,0:0|0:0,0:0:0:0:
407,229,47954,2,0,P|399:199|380:142,1,78.7500030040742,2|0,0:0|0:0,0:0:0:0:
64,29,48162,5,2,1:2:0:0:
197,198,48377,1,0,0:0:0:0:
354,16,48593,2,0,L|282:27,1,52.5,10|0,0:0|0:0,0:0:0:0:
139,88,48809,2,0,L|125:147,1,52.5,2|0,0:0|0:0,0:0:0:0:
319,251,49025,6,0,P|168:288|55:297,1,236.250009012223,2|0,1:2|0:0,0:0:0:0:
71,317,49456,2,0,P|116:322|165:343,1,78.7500030040742,10|0,0:0|0:0,0:0:0:0:
276,376,49672,2,0,P|314:360|306:316,1,78.7500030040742,2|0,0:0|0:0,0:0:0:0:
231,105,49888,5,2,1:2:0:0:
224,11,50113,6,0,P|217:52|214:111,1,78.7500030040742,2|0,0:0|0:0,0:0:0:0:
375,155,50339,6,0,P|367:202|365:267,1,91.8750008761883,10|0,0:0|0:0,0:0:0:0:
64,189,50564,6,0,P|56:239|54:301,1,105,2|0,0:0|0:0,0:0:0:0:
370,362,50790,6,0,P|475:297|501:182,1,236.250009012223,6|0,1:2|0:0,0:0:0:0:
466,156,51225,2,0,P|433:207|443:249,1,78.7500030040742,10|0,0:0|0:0,0:0:0:0:
505,378,51443,2,0,P|515:348|502:299,1,78.7500030040742,2|0,0:0|0:0,0:0:0:0:
222,209,51661,6,0,P|255:122|249:18,1,157.500006008148,2|0,1:2|0:0,0:0:0:0:
206,4,51987,1,0,0:0:0:0:
206,4,52096,1,10,0:0:0:0:
279,267,52314,1,2,0:0:0:0:
19,36,52532,6,0,B|169:5|95:107|258:75,1,236.250009012223,2|0,1:2|0:0,0:0:0:0:
291,33,52954,2,0,B|371:49|292:42|372:57,1,78.7500030040742,10|0,0:0|0:0,0:0:0:0:
429,233,53165,1,2,0:0:0:0:
445,0,53377,5,2,1:2:0:0:
165,201,53597,2,0,L|143:305,1,78.7500030040742,2|0,0:0|0:0,0:0:0:0:
212,349,53818,5,10,0:0:0:0:
374,163,54047,2,0,L|284:222,1,78.7500030040742,2|0,0:0|0:0,0:0:0:0:
52,59,54277,6,0,L|312:17,1,262.5,6|10,1:2|0:0,0:0:0:0:
165,201,54917,1,2,0:0:0:0:
457,330,55136,6,0,L|210:288,1,210,0|10,1:0|0:0,0:0:0:0:
484,144,55783,1,2,0:0:0:0:
80,384,55999,6,0,L|101:297,1,52.5,0|0,1:0|0:0,0:0:0:0:
18,177,56323,1,0,0:0:0:0:
18,177,56430,1,8,0:0:0:0:
332,112,56646,2,0,L|307:7,1,105,0|0,0:0|1:0,0:0:0:0:
283,37,56968,5,0,0:0:0:0:
283,37,57075,1,8,0:0:0:0:
300,205,57298,5,8,0:0:0:0:
317,373,57522,5,8,0:0:0:0:
502,255,57718,6,0,P|482:317|438:333,2,105,2|0|10,1:2|0:0|0:0,0:0:0:0:
468,215,58380,1,2,0:0:0:0:
409,273,58584,2,0,P|429:335|400:385,2,105,2|0|10,1:2|0:0|0:0,0:0:0:0:
420,164,59276,1,2,0:0:0:0:
359,326,59492,2,0,B|286:320|188:376|307:415|338:291,1,210,2|10,1:2|0:0,0:0:0:0:
468,215,60130,2,0,B|487:238|407:249|442:312,1,105,2|0,0:0|1:0,0:0:0:0:
383,201,60568,1,2,0:0:0:0:
496,126,60794,1,10,0:0:0:0:
431,59,61005,1,2,0:0:0:0:
110,123,61219,6,0,P|53:177|37:204,2,105,2|0|10,1:2|0:0|0:0,0:0:0:0:
65,67,61883,1,0,0:0:0:0:
114,157,62093,2,0,P|108:271|98:290,1,105,2|0,1:2|0:0,0:0:0:0:
180,87,62554,2,0,L|219:71,1,26.25,10|0,0:0|0:0,0:0:0:0:
56,34,62766,1,2,0:0:0:0:
13,93,62979,2,0,P|-7:159|110:257,1,210,2|10,1:2|0:0,0:0:0:0:
209,163,63631,2,0,P|197:114|186:183,1,210,2|10,0:0|0:0,0:0:0:0:
0,230,64283,2,0,P|22:190|29:130,1,105,10|10,0:0|0:0,0:0:0:0:
8,5,64718,5,6,1:2:0:0:
86,78,64940,1,0,0:0:0:0:
156,55,65163,2,0,L|172:165,1,105,10|2,0:0|0:0,0:0:0:0:
441,270,65608,1,2,1:2:0:0:
321,240,65814,1,2,0:0:0:0:
276,306,66021,2,0,L|171:318,1,105,10|2,0:0|0:0,0:0:0:0:
227,31,66462,1,2,1:2:0:0:
259,199,66679,1,0,0:0:0:0:
259,199,66788,1,0,0:0:0:0:
259,199,66896,1,10,0:0:0:0:
379,65,67105,1,2,0:0:0:0:
86,170,67315,5,8,0:0:0:0:
269,192,67533,5,8,0:0:0:0:
316,372,67747,5,10,0:0:0:0:
263,203,67953,5,10,0:0:0:0:
193,34,68197,6,0,B|282:-19|375:69|458:11,1,262.5,2|10,1:2|0:0,0:0:0:0:
116,29,68837,1,2,0:0:0:0:
47,177,69051,2,0,P|28:281|150:369,1,262.5,2|10,1:2|0:0,0:0:0:0:
313,301,69691,1,2,0:0:0:0:
475,372,69905,6,0,P|496:346|488:302,1,65.625,2|0,1:2|0:0,0:0:0:0:
325,109,70130,2,0,P|336:190|379:269,1,131.25,2|8,0:0|0:0,0:0:0:0:
474,44,70561,2,0,B|426:15|339:2|336:131|202:102,1,262.5,2|2,0:0|0:0,0:0:0:0:
146,0,71210,1,8,0:0:0:0:
420,139,71432,1,8,0:0:0:0:
189,222,71654,6,0,B|113:290|171:372|171:372|234:348|220:287,1,262.5,2|10,1:2|0:0,0:0:0:0:
41,111,72287,1,2,0:0:0:0:
190,57,72507,2,0,P|251:47|344:36,1,131.25,0|0,1:2|0:0,0:0:0:0:
17,276,72929,2,0,P|81:286|146:294,1,131.25,10|2,0:0|0:0,0:0:0:0:
392,212,73352,5,2,1:2:0:0:
472,366,73561,2,2,B|443:331|443:331|504:236|504:236|416:157|416:157|411:167|411:167|434:285,1,393.75,2|0,0:0|1:0,0:1:0:0:
511,106,74400,1,2,0:0:0:0:
213,113,74610,5,8,0:0:0:0:
360,0,74835,5,8,0:0:0:0:
256,291,75061,6,2,P|165:321|51:369,1,196.875,6|0,1:2|0:0,0:1:0:0:
1,253,75469,2,0,P|32:260|78:282,1,65.625,8|0,0:0|0:0,0:0:0:0:
172,349,75694,2,0,P|202:361|234:369,1,65.625,2|0,0:0|0:0,0:0:0:0:
431,301,75920,6,0,B|358:201|527:160|437:48,1,262.5,2|10,1:2|0:0,0:0:0:0:
269,140,76526,1,2,0:0:0:0:
73,12,76725,6,0,B|46:110|86:56|54:186,1,131.25,2|2,1:2|0:0,0:0:0:0:
84,172,77061,1,0,0:0:0:0:
84,172,77173,1,8,0:0:0:0:
349,219,77395,1,2,0:0:0:0:
227,368,77617,2,0,L|234:232,1,131.25,0|2,1:0|0:0,0:0:0:0:
460,3,78015,6,0,L|371:82,1,65.625,8|0,0:0|0:0,0:0:0:0:
485,267,78232,2,0,L|396:188,1,65.625,4|0,0:0|0:0,0:0:0:0:
265,111,78449,6,0,B|75:158|75:158|20:106,1,262.5,2|10,1:2|0:0,0:0:0:0:
316,195,79078,1,2,0:0:0:0:
81,15,79295,2,0,B|154:199|154:199|224:219,1,262.5,2|10,1:2|0:0,0:0:0:0:
421,179,79927,1,2,0:0:0:0:
227,14,80150,5,2,1:2:0:0:
412,193,80348,1,2,0:0:0:0:
165,273,80547,2,0,B|146:336|146:336|217:390,1,131.25,8|2,0:0|0:0,0:0:0:0:
28,30,80984,5,8,0:0:0:0:
273,140,81173,5,10,0:0:0:0:
131,55,81411,5,8,0:0:0:0:
388,282,81617,6,0,P|400:337|444:375,1,78.7500030040742,2|0,0:0|0:0,0:0:0:0:
489,371,81842,6,0,P|492:316|447:33,1,315.000012016297,6|10,1:2|0:0,0:0:0:0:
173,269,82449,1,0,0:0:0:0:
173,269,82556,1,0,0:0:0:0:
173,269,82663,2,0,B|40:257|40:257|17:233,1,157.500006008148,2|0,1:2|0:0,0:0:0:0:
372,6,83087,1,8,0:0:0:0:
68,113,83300,2,0,L|82:190,1,78.7500030040742,2|0,0:0|0:0,0:0:0:0:
282,379,83513,2,0,P|356:243|387:75,1,315.000012016297,2|10,1:2|0:0,0:0:0:0:
105,0,84140,1,2,0:0:0:0:
421,277,84341,6,0,P|441:316|441:377,1,78.7500030040742,2|0,1:2|0:0,0:0:0:0:
224,221,84562,6,0,P|187:207|126:147,1,78.7500030040742,2|0,0:0|0:0,0:0:0:0:
24,240,84783,5,10,0:0:0:0:
431,90,85005,5,2,0:0:0:0:
385,41,85116,5,0,0:0:0:0:
386,87,85228,6,0,B|304:314|304:314|206:365,1,315.000012016297,6|10,1:2|0:0,0:0:0:0:
31,125,85876,1,0,0:0:0:0:
457,190,86085,2,0,B|446:229|446:229|390:284|390:284|375:330,1,157.500006008148,2|0,1:2|0:0,0:0:0:0:
138,137,86519,2,0,B|120:113|120:113|131:55,1,78.7500030040742,10|0,0:0|0:0,0:0:0:0:
365,0,86737,2,0,B|383:24|383:24|372:82,1,78.7500030040742,2|0,0:0|0:0,0:0:0:0:
217,345,86954,2,0,B|191:283|191:283|25:185|25:185|30:125,1,315.000012016297,2|10,1:2|0:0,0:0:0:0:
469,172,87570,1,2,0:0:0:0:
117,346,87775,5,2,1:2:0:0:
12,0,87993,6,0,L|56:62,1,52.5,10|0,0:0|0:0,0:0:0:0:
405,94,88211,6,0,L|327:134,1,52.5,8|0,0:0|0:0,0:0:0:0:
335,301,88429,5,10,0:0:0:0:
298,373,88538,5,8,0:0:0:0:
359,359,88647,6,0,B|411:323|411:323|460:41,1,315.000012016297,6|10,1:2|0:0,0:0:0:0:
92,238,89268,1,0,0:0:0:0:
341,189,89476,2,0,L|316:34,1,157.500006008148,2|0,1:2|0:0,0:0:0:0:
6,319,89910,2,0,L|77:352,1,78.7500030040742,10|0,0:0|0:0,0:0:0:0:
153,78,90121,2,0,L|82:112,1,78.7500030040742,2|0,0:0|0:0,0:0:0:0:
227,330,90332,2,0,B|455:368|455:368|517:302,1,315.000012016297,2|10,1:2|0:0,0:0:0:0:
448,48,90959,1,2,0:0:0:0:
256,192,91170,5,8,0:0:0:0:
292,0,91388,6,0,B|287:24|287:24|289:33|289:33|279:73,1,52.5,10|0,0:0|0:0,0:0:0:0:
54,309,91607,6,0,B|73:298|73:298|82:300|82:300|127:271,1,52.5,8|0,0:0|0:0,0:0:0:0:
402,217,91826,5,10,0:0:0:0:
454,305,91943,5,8,0:0:0:0:
482,230,92060,6,2,B|510:161|510:161|412:186|412:186|339:228|339:228|310:272|310:272|164:320|164:320|258:202|258:202|234:136|234:136|257:51|257:51|269:40|269:40|360:79|360:79|365:93|365:93|344:150|344:150|367:212|367:212|362:229|362:229|389:263|389:263|388:294|388:294|433:358|433:358|458:294,1,1260.00004806519,4|2,1:2|0:1,0:1:0:0:
256,192,93701,12,0,98420,0:0:0:0:
