osu file format v14

[General]
AudioFilename: audio.mp3
AudioLeadIn: 0
PreviewTime: 50509
Countdown: 0
SampleSet: Normal
StackLeniency: 0.7
Mode: 1
LetterboxInBreaks: 0
WidescreenStoryboard: 0

[Editor]
Bookmarks: 13009
DistanceSpacing: 1.1
BeatDivisor: 6
GridSize: 4
TimelineZoom: 1.9

[Metadata]
Title:Easter Bunny
TitleUnicode:Easter Bunny
Artist:The Idol Formerly Known As LADYBABY
ArtistUnicode:The Idol Formerly Known As LADYBABY
Creator:Karee Pan
Version:Muzukashii
Source:
Tags:Kawaii, Metal, Rie Kaneko, Rei Kuromniya,
BeatmapID:1236162
BeatmapSetID:584308

[Difficulty]
HPDrainRate:5
CircleSize:5
OverallDifficulty:5
ApproachRate:5
SliderMultiplier:1.4
SliderTickRate:1

[Events]
//Background and Video events
0,0,"ladybaby-breaking-news-rie-rei-04.jpg",0,0
//Break Periods
//Storyboard Layer 0 (Background)
//Storyboard Layer 1 (Fail)
//Storyboard Layer 2 (Pass)
//Storyboard Layer 3 (Foreground)
//Storyboard Sound Samples

[TimingPoints]
1025,375,4,1,0,100,1,0
50525,-100,4,1,0,100,0,1
74525,-100,4,1,0,100,0,0
115025,-100,4,1,0,100,0,1
139025,-100,4,1,0,100,0,0
197150,-100,4,1,0,100,0,1
222275,-100,4,1,0,100,0,0

[HitObjects]
264,192,1025,5,4,0:0:0:0:
264,192,1775,1,12,0:0:0:0:
264,192,2525,1,4,0:0:0:0:
264,192,3275,1,12,0:0:0:0:
264,192,4025,1,4,0:0:0:0:
264,192,4775,1,12,0:0:0:0:
264,192,5525,1,12,0:0:0:0:
264,192,5900,1,4,0:0:0:0:
264,192,6275,1,12,0:0:0:0:
256,196,6650,1,8,0:0:0:0:
264,192,6775,1,8,0:0:0:0:
264,192,6900,1,8,0:0:0:0:
264,192,7025,1,0,0:0:0:0:
264,192,7400,1,8,0:0:0:0:
264,192,7775,1,0,0:0:0:0:
264,192,8025,1,0,0:0:0:0:
264,192,8150,1,8,0:0:0:0:
264,192,8525,1,0,0:0:0:0:
264,192,8900,1,8,0:0:0:0:
264,192,9275,1,0,0:0:0:0:
264,192,9525,1,0,0:0:0:0:
260,188,9650,1,8,0:0:0:0:
260,188,10025,1,0,0:0:0:0:
260,188,10400,1,8,0:0:0:0:
260,188,10775,1,0,0:0:0:0:
260,188,11025,1,0,0:0:0:0:
260,188,11150,1,8,0:0:0:0:
260,188,11525,1,12,0:0:0:0:
260,188,11900,1,4,0:0:0:0:
260,188,12275,1,12,0:0:0:0:
260,188,13025,1,0,0:0:0:0:
260,188,13275,1,0,0:0:0:0:
221,179,13400,1,8,0:0:0:0:
260,188,13650,1,8,0:0:0:0:
260,188,13775,1,0,0:0:0:0:
260,188,14025,1,0,0:0:0:0:
124,116,14150,1,8,0:0:0:0:
260,188,14525,1,0,0:0:0:0:
260,188,14775,1,0,0:0:0:0:
260,188,15025,1,8,0:0:0:0:
252,188,15150,1,8,0:0:0:0:
260,188,15275,1,8,0:0:0:0:
260,188,15650,1,8,0:0:0:0:
260,188,15900,1,8,0:0:0:0:
260,188,16025,1,0,0:0:0:0:
260,188,16400,1,8,0:0:0:0:
260,188,16650,1,8,0:0:0:0:
260,188,16775,1,0,0:0:0:0:
260,188,17150,1,0,0:0:0:0:
260,188,17400,1,0,0:0:0:0:
260,188,17525,1,8,0:0:0:0:
260,188,17900,1,0,0:0:0:0:
260,188,18150,1,0,0:0:0:0:
260,188,18275,1,8,0:0:0:0:
260,188,18650,1,8,0:0:0:0:
260,188,19025,1,0,0:0:0:0:
260,188,19275,1,0,0:0:0:0:
260,188,19400,1,8,0:0:0:0:
260,188,19650,1,8,0:0:0:0:
260,188,19775,1,0,0:0:0:0:
260,188,20025,1,0,0:0:0:0:
260,204,20150,1,8,0:0:0:0:
256,192,20525,1,0,0:0:0:0:
256,192,20775,1,0,0:0:0:0:
256,192,21025,1,8,0:0:0:0:
258,182,21150,1,8,0:0:0:0:
256,192,21275,1,8,0:0:0:0:
256,192,21650,1,8,0:0:0:0:
256,192,21900,1,8,0:0:0:0:
256,192,22025,1,0,0:0:0:0:
256,192,22400,1,8,0:0:0:0:
256,192,22650,1,8,0:0:0:0:
256,192,22775,1,0,0:0:0:0:
256,192,23150,1,0,0:0:0:0:
256,192,23400,1,0,0:0:0:0:
256,192,23525,1,8,0:0:0:0:
256,192,23775,1,8,0:0:0:0:
256,192,23900,1,0,0:0:0:0:
272,184,24150,1,0,0:0:0:0:
256,192,24275,1,8,0:0:0:0:
264,192,24650,1,0,0:0:0:0:
264,200,25025,1,0,0:0:0:0:
264,200,25150,1,0,0:0:0:0:
248,184,25275,1,0,0:0:0:0:
264,192,25400,1,8,0:0:0:0:
264,192,25775,1,0,0:0:0:0:
256,196,25900,1,0,0:0:0:0:
264,192,26025,1,0,0:0:0:0:
264,192,26150,1,8,0:0:0:0:
264,192,26525,1,0,0:0:0:0:
264,192,26650,1,0,0:0:0:0:
264,192,26775,1,0,0:0:0:0:
264,192,26900,1,8,0:0:0:0:
264,192,27150,1,0,0:0:0:0:
264,192,27275,1,8,0:0:0:0:
264,192,28025,1,0,0:0:0:0:
248,188,28150,1,0,0:0:0:0:
264,192,28275,1,0,0:0:0:0:
264,192,28400,1,8,0:0:0:0:
236,184,28775,1,0,0:0:0:0:
236,184,28900,1,0,0:0:0:0:
236,184,29025,1,0,0:0:0:0:
264,192,29150,1,8,0:0:0:0:
264,192,29525,1,0,0:0:0:0:
256,184,29650,1,0,0:0:0:0:
264,192,29775,1,0,0:0:0:0:
264,192,29900,1,8,0:0:0:0:
264,192,30275,1,0,0:0:0:0:
264,192,30650,1,8,0:0:0:0:
264,192,31025,1,0,0:0:0:0:
240,192,31150,1,0,0:0:0:0:
252,176,31275,1,0,0:0:0:0:
252,172,31400,1,8,0:0:0:0:
260,180,31775,1,0,0:0:0:0:
260,180,31900,1,0,0:0:0:0:
260,180,32025,1,0,0:0:0:0:
260,180,32150,1,8,0:0:0:0:
260,180,32525,1,0,0:0:0:0:
260,180,32650,1,0,0:0:0:0:
260,180,32775,1,0,0:0:0:0:
260,180,32900,1,8,0:0:0:0:
260,180,33150,1,0,0:0:0:0:
260,180,33275,1,8,0:0:0:0:
236,168,34025,1,0,0:0:0:0:
240,192,34150,1,0,0:0:0:0:
236,168,34275,1,0,0:0:0:0:
236,168,34400,1,8,0:0:0:0:
216,160,34775,1,0,0:0:0:0:
216,160,34900,1,0,0:0:0:0:
216,160,35025,1,0,0:0:0:0:
216,160,35150,1,8,0:0:0:0:
216,160,35400,1,0,0:0:0:0:
216,160,35525,1,8,0:0:0:0:
216,160,35775,1,0,0:0:0:0:
216,160,35900,1,8,0:0:0:0:
216,160,36150,1,8,0:0:0:0:
216,160,36275,1,0,0:0:0:0:
216,160,37025,1,8,0:0:0:0:
216,160,37400,1,8,0:0:0:0:
216,160,37650,1,8,0:0:0:0:
216,160,37775,1,0,0:0:0:0:
204,160,38150,1,0,0:0:0:0:
216,160,38400,1,0,0:0:0:0:
204,148,38525,1,8,0:0:0:0:
204,148,38900,1,0,0:0:0:0:
204,148,39150,1,0,0:0:0:0:
204,148,39275,1,8,0:0:0:0:
204,148,39650,1,0,0:0:0:0:
204,148,39900,1,0,0:0:0:0:
204,148,40025,1,8,0:0:0:0:
204,148,40400,1,8,0:0:0:0:
204,148,40775,1,8,0:0:0:0:
204,148,41025,1,8,0:0:0:0:
204,148,41150,1,0,0:0:0:0:
204,148,41400,1,0,0:0:0:0:
196,152,41525,1,0,0:0:0:0:
216,156,42275,1,12,0:0:0:0:
216,156,42650,1,12,0:0:0:0:
216,156,43025,1,8,0:0:0:0:
216,156,43400,1,8,0:0:0:0:
216,156,43650,1,8,0:0:0:0:
216,156,43775,1,0,0:0:0:0:
196,136,44150,5,0,0:0:0:0:
196,136,44525,1,8,0:0:0:0:
208,144,44900,1,0,0:0:0:0:
208,144,45150,1,0,0:0:0:0:
208,144,45275,1,8,0:0:0:0:
208,144,45650,1,8,0:0:0:0:
208,144,45900,1,0,0:0:0:0:
208,144,46025,1,8,0:0:0:0:
208,144,46400,1,8,0:0:0:0:
208,144,46775,1,8,0:0:0:0:
208,144,47025,1,8,0:0:0:0:
208,144,47150,1,0,0:0:0:0:
208,144,47400,1,0,0:0:0:0:
209,148,47525,1,8,0:0:0:0:
208,144,47900,1,8,0:0:0:0:
209,148,48150,1,0,0:0:0:0:
209,148,48275,1,8,0:0:0:0:
208,144,48650,1,8,0:0:0:0:
204,136,49025,1,0,0:0:0:0:
204,136,49275,1,0,0:0:0:0:
204,136,49400,1,8,0:0:0:0:
201,136,49650,1,8,0:0:0:0:
204,136,49775,1,0,0:0:0:0:
204,136,50150,1,12,0:0:0:0:
204,136,50525,1,12,0:0:0:0:
204,136,50900,1,0,0:0:0:0:
204,136,51275,1,8,0:0:0:0:
204,136,51650,1,0,0:0:0:0:
204,136,52025,1,8,0:0:0:0:
204,136,52275,1,0,0:0:0:0:
204,136,52400,1,8,0:0:0:0:
204,136,52650,1,0,0:0:0:0:
204,136,52775,1,8,0:0:0:0:
208,132,53150,1,0,0:0:0:0:
208,132,53525,1,8,0:0:0:0:
208,132,53900,1,0,0:0:0:0:
208,132,54275,1,8,0:0:0:0:
208,132,54650,1,0,0:0:0:0:
208,132,55025,1,8,0:0:0:0:
208,132,55275,1,0,0:0:0:0:
208,132,55400,1,8,0:0:0:0:
208,132,55650,1,0,0:0:0:0:
208,132,55775,1,8,0:0:0:0:
208,132,56150,1,8,0:0:0:0:
208,132,56525,1,0,0:0:0:0:
208,132,56775,1,0,0:0:0:0:
208,132,56900,1,8,0:0:0:0:
208,132,57150,1,0,0:0:0:0:
208,132,57275,1,0,0:0:0:0:
208,132,57525,1,0,0:0:0:0:
208,132,57650,1,8,0:0:0:0:
208,132,57900,1,0,0:0:0:0:
208,132,58025,1,0,0:0:0:0:
208,132,58400,1,8,0:0:0:0:
208,132,58775,1,0,0:0:0:0:
208,132,59150,1,0,0:0:0:0:
208,132,59525,1,0,0:0:0:0:
208,132,59900,1,8,0:0:0:0:
208,132,60275,1,8,0:0:0:0:
208,132,60525,1,8,0:0:0:0:
208,132,60650,1,0,0:0:0:0:
208,132,60900,1,0,0:0:0:0:
208,132,61025,1,8,0:0:0:0:
196,132,61400,1,8,0:0:0:0:
208,132,61650,1,8,0:0:0:0:
208,132,61775,1,0,0:0:0:0:
201,134,62150,1,0,0:0:0:0:
208,132,62525,1,12,0:0:0:0:
208,132,62900,1,0,0:0:0:0:
208,132,63275,1,8,0:0:0:0:
208,132,63650,1,0,0:0:0:0:
208,132,64025,1,8,0:0:0:0:
208,132,64275,1,0,0:0:0:0:
208,132,64400,1,8,0:0:0:0:
208,132,64650,1,0,0:0:0:0:
208,132,64775,1,8,0:0:0:0:
204,144,65150,1,0,0:0:0:0:
208,132,65525,1,8,0:0:0:0:
208,132,65900,1,0,0:0:0:0:
208,132,66275,1,8,0:0:0:0:
208,132,66650,1,0,0:0:0:0:
208,132,67025,1,8,0:0:0:0:
208,132,67275,1,0,0:0:0:0:
208,132,67400,1,8,0:0:0:0:
208,132,67650,1,0,0:0:0:0:
208,132,67775,1,8,0:0:0:0:
204,144,68150,1,8,0:0:0:0:
204,144,68525,1,0,0:0:0:0:
204,144,68775,1,0,0:0:0:0:
204,144,68900,1,8,0:0:0:0:
204,144,69150,1,0,0:0:0:0:
204,144,69275,1,0,0:0:0:0:
204,144,69525,1,0,0:0:0:0:
204,144,69650,1,8,0:0:0:0:
212,148,69900,1,0,0:0:0:0:
204,144,70025,1,0,0:0:0:0:
212,148,70400,1,8,0:0:0:0:
212,148,70775,1,0,0:0:0:0:
212,148,71150,1,0,0:0:0:0:
212,148,71525,1,0,0:0:0:0:
212,148,71900,1,8,0:0:0:0:
212,148,72275,1,8,0:0:0:0:
212,148,72525,1,8,0:0:0:0:
212,148,72650,1,0,0:0:0:0:
212,148,72900,1,0,0:0:0:0:
208,140,73025,1,8,0:0:0:0:
208,140,73650,1,8,0:0:0:0:
208,140,73775,1,0,0:0:0:0:
208,140,74150,1,0,0:0:0:0:
208,140,74525,1,8,0:0:0:0:
208,140,74900,1,8,0:0:0:0:
208,140,75025,1,8,0:0:0:0:
208,140,75150,1,8,0:0:0:0:
208,140,75275,1,0,0:0:0:0:
208,140,75650,1,0,0:0:0:0:
208,140,76025,1,8,0:0:0:0:
208,140,76400,1,8,0:0:0:0:
208,140,76525,1,8,0:0:0:0:
200,144,76650,1,8,0:0:0:0:
196,144,76775,1,0,0:0:0:0:
200,140,77150,1,0,0:0:0:0:
232,172,77525,1,0,0:0:0:0:
225,170,77775,1,0,0:0:0:0:
225,170,77900,1,0,0:0:0:0:
225,170,78150,1,0,0:0:0:0:
225,170,78275,1,0,0:0:0:0:
225,170,78400,1,0,0:0:0:0:
225,170,78525,1,0,0:0:0:0:
225,170,79025,1,0,0:0:0:0:
225,170,79275,1,0,0:0:0:0:
225,170,79525,1,0,0:0:0:0:
224,140,79650,1,0,0:0:0:0:
225,170,79775,1,8,0:0:0:0:
218,135,80150,1,8,0:0:0:0:
218,135,80400,1,8,0:0:0:0:
218,135,80525,1,0,0:0:0:0:
218,135,80900,1,8,0:0:0:0:
218,135,81150,1,8,0:0:0:0:
218,135,81275,1,0,0:0:0:0:
218,135,81650,1,0,0:0:0:0:
218,135,81900,1,0,0:0:0:0:
218,135,82025,1,8,0:0:0:0:
224,136,82275,1,0,0:0:0:0:
218,135,82400,1,8,0:0:0:0:
218,135,82650,1,0,0:0:0:0:
218,135,82775,1,8,0:0:0:0:
218,135,83150,1,0,0:0:0:0:
260,196,83525,1,8,0:0:0:0:
260,196,83775,1,8,0:0:0:0:
260,196,84150,1,8,0:0:0:0:
260,196,84275,1,0,0:0:0:0:
260,196,84400,1,0,0:0:0:0:
260,196,84525,1,0,0:0:0:0:
260,196,85025,1,8,0:0:0:0:
260,196,85275,1,0,0:0:0:0:
260,196,85650,1,0,0:0:0:0:
260,196,85775,1,8,0:0:0:0:
260,196,86150,1,8,0:0:0:0:
260,196,86525,1,0,0:0:0:0:
253,197,86900,1,8,0:0:0:0:
253,197,87275,1,0,0:0:0:0:
253,197,87650,1,0,0:0:0:0:
253,197,88025,1,8,0:0:0:0:
253,197,88400,1,8,0:0:0:0:
253,197,88650,1,0,0:0:0:0:
253,197,88775,1,8,0:0:0:0:
253,197,89150,1,0,0:0:0:0:
248,184,89525,1,0,0:0:0:0:
276,196,89650,1,0,0:0:0:0:
248,184,89775,1,0,0:0:0:0:
264,192,89900,1,8,0:0:0:0:
264,192,90275,1,0,0:0:0:0:
256,196,90400,1,0,0:0:0:0:
264,192,90525,1,0,0:0:0:0:
264,192,90650,1,8,0:0:0:0:
264,192,91025,1,0,0:0:0:0:
264,192,91150,1,0,0:0:0:0:
264,192,91275,1,0,0:0:0:0:
264,192,91400,1,8,0:0:0:0:
264,192,91650,1,0,0:0:0:0:
264,192,91775,1,8,0:0:0:0:
264,192,92525,1,0,0:0:0:0:
264,192,92650,1,0,0:0:0:0:
264,192,92775,1,0,0:0:0:0:
264,192,92900,1,8,0:0:0:0:
236,184,93275,1,0,0:0:0:0:
236,184,93400,1,0,0:0:0:0:
236,184,93525,1,0,0:0:0:0:
264,192,93650,1,8,0:0:0:0:
264,192,94025,1,0,0:0:0:0:
256,184,94150,1,0,0:0:0:0:
264,192,94275,1,0,0:0:0:0:
264,192,94400,1,8,0:0:0:0:
264,192,94775,1,0,0:0:0:0:
256,184,95150,1,8,0:0:0:0:
264,192,95525,1,0,0:0:0:0:
256,188,95650,1,0,0:0:0:0:
252,176,95775,1,0,0:0:0:0:
252,172,95900,1,8,0:0:0:0:
260,180,96275,1,0,0:0:0:0:
260,180,96400,1,0,0:0:0:0:
260,180,96525,1,0,0:0:0:0:
260,180,96650,1,8,0:0:0:0:
260,180,97025,1,0,0:0:0:0:
260,180,97150,1,0,0:0:0:0:
260,180,97275,1,0,0:0:0:0:
260,180,97400,1,8,0:0:0:0:
260,180,97650,1,0,0:0:0:0:
260,180,97775,1,8,0:0:0:0:
236,168,98525,1,0,0:0:0:0:
256,188,98650,1,0,0:0:0:0:
236,168,98775,1,0,0:0:0:0:
236,168,98900,1,8,0:0:0:0:
216,160,99275,1,0,0:0:0:0:
216,160,99400,1,0,0:0:0:0:
216,160,99525,1,0,0:0:0:0:
216,160,99650,1,8,0:0:0:0:
216,160,99900,1,0,0:0:0:0:
216,160,100025,1,8,0:0:0:0:
216,160,100275,1,0,0:0:0:0:
216,160,100400,1,8,0:0:0:0:
216,160,100650,1,8,0:0:0:0:
216,160,100775,1,0,0:0:0:0:
216,160,101525,1,8,0:0:0:0:
216,160,101900,1,8,0:0:0:0:
212,164,102025,1,8,0:0:0:0:
216,160,102150,1,8,0:0:0:0:
216,160,102275,1,0,0:0:0:0:
204,160,102650,1,0,0:0:0:0:
204,148,103025,1,8,0:0:0:0:
204,148,103400,1,0,0:0:0:0:
200,144,103525,1,0,0:0:0:0:
204,148,103650,1,0,0:0:0:0:
204,148,103775,1,8,0:0:0:0:
204,148,104150,1,0,0:0:0:0:
204,148,104400,1,0,0:0:0:0:
204,148,104525,1,8,0:0:0:0:
204,148,104900,1,8,0:0:0:0:
204,148,105275,1,8,0:0:0:0:
220,160,105400,1,8,0:0:0:0:
204,148,105525,1,8,0:0:0:0:
204,148,105650,1,0,0:0:0:0:
204,148,105900,1,0,0:0:0:0:
196,152,106025,1,0,0:0:0:0:
216,156,106775,1,12,0:0:0:0:
216,156,107150,1,12,0:0:0:0:
216,156,107525,1,8,0:0:0:0:
216,156,107900,1,8,0:0:0:0:
216,160,108025,1,8,0:0:0:0:
216,156,108150,1,8,0:0:0:0:
216,156,108275,1,0,0:0:0:0:
196,136,108650,5,0,0:0:0:0:
223,187,108900,1,0,0:0:0:0:
196,136,109025,1,8,0:0:0:0:
208,144,109400,1,0,0:0:0:0:
204,144,109525,1,0,0:0:0:0:
208,144,109650,1,0,0:0:0:0:
208,144,109775,1,8,0:0:0:0:
208,144,110150,1,8,0:0:0:0:
208,144,110400,1,0,0:0:0:0:
208,144,110525,1,8,0:0:0:0:
208,144,110900,1,8,0:0:0:0:
208,144,111275,1,8,0:0:0:0:
224,144,111400,1,8,0:0:0:0:
208,144,111525,1,8,0:0:0:0:
208,144,111650,1,0,0:0:0:0:
208,144,111900,1,8,0:0:0:0:
203,148,112025,1,8,0:0:0:0:
208,144,112400,1,8,0:0:0:0:
203,148,112650,1,0,0:0:0:0:
203,148,112775,1,8,0:0:0:0:
208,144,113150,1,8,0:0:0:0:
204,136,113525,1,0,0:0:0:0:
204,136,113775,1,0,0:0:0:0:
204,136,113900,1,8,0:0:0:0:
201,136,114150,1,8,0:0:0:0:
204,136,114275,1,0,0:0:0:0:
204,136,114650,1,12,0:0:0:0:
204,136,115025,1,12,0:0:0:0:
204,136,115400,1,0,0:0:0:0:
200,132,115650,1,0,0:0:0:0:
204,136,115775,1,8,0:0:0:0:
204,136,116150,1,0,0:0:0:0:
204,136,116525,1,8,0:0:0:0:
204,136,116775,1,0,0:0:0:0:
204,136,116900,1,8,0:0:0:0:
204,136,117150,1,0,0:0:0:0:
212,128,117275,1,8,0:0:0:0:
208,132,117650,1,0,0:0:0:0:
208,132,118025,1,8,0:0:0:0:
213,142,118400,1,0,0:0:0:0:
200,132,118650,1,0,0:0:0:0:
208,132,118775,1,8,0:0:0:0:
208,132,119150,1,0,0:0:0:0:
208,132,119525,1,8,0:0:0:0:
208,132,119775,1,0,0:0:0:0:
208,132,119900,1,8,0:0:0:0:
208,132,120150,1,0,0:0:0:0:
208,132,120275,1,8,0:0:0:0:
208,132,120650,1,8,0:0:0:0:
204,144,121025,1,0,0:0:0:0:
208,132,121275,1,0,0:0:0:0:
208,132,121400,1,8,0:0:0:0:
208,132,121650,1,0,0:0:0:0:
208,132,121775,1,0,0:0:0:0:
208,132,122025,1,0,0:0:0:0:
208,132,122150,1,8,0:0:0:0:
208,132,122400,1,0,0:0:0:0:
208,132,122525,1,0,0:0:0:0:
208,132,122900,1,8,0:0:0:0:
208,132,123275,1,0,0:0:0:0:
200,128,123525,1,0,0:0:0:0:
208,132,123650,1,0,0:0:0:0:
208,132,123775,1,0,0:0:0:0:
208,132,123900,1,0,0:0:0:0:
208,132,124025,1,0,0:0:0:0:
208,132,124400,1,8,0:0:0:0:
208,132,124775,1,0,0:0:0:0:
208,132,125025,1,0,0:0:0:0:
208,132,125150,1,8,0:0:0:0:
208,132,125400,1,0,0:0:0:0:
208,132,125525,1,8,0:0:0:0:
206,124,125900,1,8,0:0:0:0:
208,132,126150,1,8,0:0:0:0:
208,132,126275,1,0,0:0:0:0:
206,124,126650,1,0,0:0:0:0:
208,132,127025,1,12,0:0:0:0:
208,132,127400,1,0,0:0:0:0:
208,132,127775,1,8,0:0:0:0:
208,132,128150,1,0,0:0:0:0:
208,132,128525,1,8,0:0:0:0:
208,132,128775,1,0,0:0:0:0:
208,132,128900,1,8,0:0:0:0:
208,132,129150,1,0,0:0:0:0:
208,132,129275,1,8,0:0:0:0:
204,144,129650,1,0,0:0:0:0:
204,144,129900,1,0,0:0:0:0:
208,132,130025,1,8,0:0:0:0:
208,132,130400,1,0,0:0:0:0:
208,132,130775,1,8,0:0:0:0:
208,132,131150,1,0,0:0:0:0:
208,132,131525,1,8,0:0:0:0:
208,132,131775,1,0,0:0:0:0:
208,132,131900,1,8,0:0:0:0:
208,132,132150,1,0,0:0:0:0:
208,132,132275,1,8,0:0:0:0:
204,144,132650,1,0,0:0:0:0:
204,144,133025,1,0,0:0:0:0:
204,144,133275,1,0,0:0:0:0:
204,144,133400,1,8,0:0:0:0:
204,144,133650,1,0,0:0:0:0:
204,144,133775,1,0,0:0:0:0:
204,144,134025,1,0,0:0:0:0:
204,144,134150,1,8,0:0:0:0:
212,148,134400,1,0,0:0:0:0:
204,144,134525,1,0,0:0:0:0:
212,148,134900,1,8,0:0:0:0:
212,148,135275,1,0,0:0:0:0:
200,124,135525,1,0,0:0:0:0:
212,148,135650,1,0,0:0:0:0:
208,180,135775,1,0,0:0:0:0:
208,180,135900,1,0,0:0:0:0:
212,148,136025,1,0,0:0:0:0:
212,148,136400,1,8,0:0:0:0:
212,148,136775,1,8,0:0:0:0:
212,148,137025,1,8,0:0:0:0:
212,148,137150,1,0,0:0:0:0:
212,148,137400,1,0,0:0:0:0:
208,140,137525,1,8,0:0:0:0:
208,140,138150,1,8,0:0:0:0:
208,140,138275,1,0,0:0:0:0:
208,140,138650,1,0,0:0:0:0:
224,172,139025,1,8,0:0:0:0:
216,168,139400,1,8,0:0:0:0:
216,168,139525,1,0,0:0:0:0:
216,168,139650,1,0,0:0:0:0:
216,168,139775,1,0,0:0:0:0:
216,168,140150,1,0,0:0:0:0:
216,168,140525,1,0,0:0:0:0:
216,168,140900,1,0,0:0:0:0:
216,168,141025,1,0,0:0:0:0:
216,168,141150,1,0,0:0:0:0:
216,168,141275,1,8,0:0:0:0:
216,168,141650,1,8,0:0:0:0:
216,168,142025,1,8,0:0:0:0:
216,168,142400,1,8,0:0:0:0:
216,168,142525,1,0,0:0:0:0:
216,168,142650,1,0,0:0:0:0:
216,168,142775,1,0,0:0:0:0:
216,168,143150,1,0,0:0:0:0:
216,168,143275,1,0,0:0:0:0:
216,168,143400,1,0,0:0:0:0:
226,158,143525,1,12,0:0:0:0:
226,158,143900,1,4,0:0:0:0:
226,158,144275,1,12,0:0:0:0:
276,195,145025,1,0,0:0:0:0:
255,202,145400,1,0,0:0:0:0:
255,202,145525,1,0,0:0:0:0:
255,202,145650,1,0,0:0:0:0:
255,202,145775,1,8,0:0:0:0:
255,202,146150,1,8,0:0:0:0:
255,202,146525,1,0,0:0:0:0:
247,200,146900,1,0,0:0:0:0:
247,200,147275,1,0,0:0:0:0:
247,200,147650,1,8,0:0:0:0:
247,200,148025,1,0,0:0:0:0:
268,210,148400,1,0,0:0:0:0:
268,210,148525,1,0,0:0:0:0:
268,210,148650,1,0,0:0:0:0:
268,210,148775,1,8,0:0:0:0:
268,210,149150,1,0,0:0:0:0:
268,210,149525,1,0,0:0:0:0:
268,210,149900,1,0,0:0:0:0:
268,210,150275,1,8,0:0:0:0:
268,210,150400,1,8,0:0:0:0:
265,204,150525,1,8,0:0:0:0:
268,210,150650,1,8,0:0:0:0:
265,204,151025,1,0,0:0:0:0:
265,204,151400,1,0,0:0:0:0:
265,204,151525,1,0,0:0:0:0:
265,204,151650,1,0,0:0:0:0:
265,204,151775,1,8,0:0:0:0:
265,204,152150,1,8,0:0:0:0:
265,204,152525,1,0,0:0:0:0:
265,204,152900,1,0,0:0:0:0:
265,204,153275,1,0,0:0:0:0:
265,204,153650,1,8,0:0:0:0:
265,204,154025,1,0,0:0:0:0:
265,204,154400,1,0,0:0:0:0:
265,204,154525,1,0,0:0:0:0:
265,204,154650,1,0,0:0:0:0:
265,204,154775,1,8,0:0:0:0:
282,211,155150,1,0,0:0:0:0:
281,212,155525,1,8,0:0:0:0:
267,214,155900,1,8,0:0:0:0:
267,214,156275,1,8,0:0:0:0:
267,214,156650,1,0,0:0:0:0:
275,202,156900,1,0,0:0:0:0:
275,202,157025,1,0,0:0:0:0:
276,200,157275,1,0,0:0:0:0:
275,202,157400,1,8,0:0:0:0:
275,202,157775,1,0,0:0:0:0:
275,202,158025,1,0,0:0:0:0:
275,202,158150,1,8,0:0:0:0:
275,202,158400,1,0,0:0:0:0:
275,202,158525,1,0,0:0:0:0:
275,202,158775,1,0,0:0:0:0:
275,202,158900,1,8,0:0:0:0:
275,202,159150,1,0,0:0:0:0:
244,202,159275,1,8,0:0:0:0:
266,222,159650,1,8,0:0:0:0:
284,197,159900,1,0,0:0:0:0:
263,206,160025,1,0,0:0:0:0:
284,197,160400,1,8,0:0:0:0:
284,197,160650,1,0,0:0:0:0:
284,197,160775,1,0,0:0:0:0:
284,197,161025,1,0,0:0:0:0:
284,197,161150,1,8,0:0:0:0:
284,197,161400,1,0,0:0:0:0:
284,197,161525,1,0,0:0:0:0:
284,197,161775,1,0,0:0:0:0:
284,197,161900,1,8,0:0:0:0:
284,197,162150,1,8,0:0:0:0:
284,197,162275,1,8,0:0:0:0:
284,197,162650,1,0,0:0:0:0:
284,197,163025,1,0,0:0:0:0:
284,197,163400,1,8,0:0:0:0:
284,197,163650,1,0,0:0:0:0:
284,197,163775,1,0,0:0:0:0:
284,197,164025,1,0,0:0:0:0:
284,197,164150,1,8,0:0:0:0:
284,197,164400,1,0,0:0:0:0:
284,197,164525,1,0,0:0:0:0:
284,197,164775,1,0,0:0:0:0:
284,197,164900,1,8,0:0:0:0:
284,197,165150,1,8,0:0:0:0:
284,197,165275,1,8,0:0:0:0:
284,197,165650,1,0,0:0:0:0:
284,197,166025,1,0,0:0:0:0:
284,197,166400,1,0,0:0:0:0:
284,197,166525,1,0,0:0:0:0:
284,197,166650,1,0,0:0:0:0:
284,197,166775,1,0,0:0:0:0:
284,197,167150,1,0,0:0:0:0:
284,197,167275,1,0,0:0:0:0:
284,197,167400,1,0,0:0:0:0:
284,197,167525,1,0,0:0:0:0:
284,197,167900,1,0,0:0:0:0:
284,197,168025,1,0,0:0:0:0:
284,197,168150,1,0,0:0:0:0:
284,197,168275,1,0,0:0:0:0:
298,202,168525,1,8,0:0:0:0:
284,197,168650,1,8,0:0:0:0:
284,197,169025,1,0,0:0:0:0:
284,197,169400,1,0,0:0:0:0:
284,197,169525,1,0,0:0:0:0:
284,197,169650,1,0,0:0:0:0:
284,197,169775,1,0,0:0:0:0:
299,203,170150,1,0,0:0:0:0:
298,203,170275,1,0,0:0:0:0:
298,203,170400,1,0,0:0:0:0:
298,203,170525,1,8,0:0:0:0:
298,202,170775,1,8,0:0:0:0:
299,203,170900,1,8,0:0:0:0:
299,203,171150,1,0,0:0:0:0:
298,203,171275,1,0,0:0:0:0:
298,202,171650,1,8,0:0:0:0:
299,203,172025,1,0,0:0:0:0:
298,202,172400,1,0,0:0:0:0:
298,202,172525,1,0,0:0:0:0:
299,203,172650,1,0,0:0:0:0:
299,203,172775,1,0,0:0:0:0:
291,206,173150,1,0,0:0:0:0:
291,206,173275,1,0,0:0:0:0:
291,206,173400,1,0,0:0:0:0:
291,206,173525,1,0,0:0:0:0:
291,206,173775,1,0,0:0:0:0:
291,206,173900,1,0,0:0:0:0:
291,206,174150,1,0,0:0:0:0:
291,206,174275,1,8,0:0:0:0:
287,195,174525,1,8,0:0:0:0:
287,195,174650,1,8,0:0:0:0:
287,195,175025,1,0,0:0:0:0:
287,195,175400,1,0,0:0:0:0:
287,195,175525,1,0,0:0:0:0:
287,195,175650,1,0,0:0:0:0:
287,195,175775,1,8,0:0:0:0:
287,195,176025,1,0,0:0:0:0:
287,195,176150,1,0,0:0:0:0:
287,195,176400,1,0,0:0:0:0:
287,195,176525,1,8,0:0:0:0:
287,195,176775,1,0,0:0:0:0:
287,195,176900,1,0,0:0:0:0:
287,195,177150,1,0,0:0:0:0:
287,195,177275,1,8,0:0:0:0:
287,195,177525,1,8,0:0:0:0:
287,195,177650,1,8,0:0:0:0:
288,200,177900,1,8,0:0:0:0:
288,200,178025,1,0,0:0:0:0:
256,192,178150,12,0,179525,0:0:0:0:
287,195,181025,5,0,0:0:0:0:
287,195,181775,1,0,0:0:0:0:
287,195,182525,1,8,0:0:0:0:
287,195,182900,1,8,0:0:0:0:
287,195,183150,1,0,0:0:0:0:
287,195,183275,1,8,0:0:0:0:
287,195,184025,1,0,0:0:0:0:
287,195,187025,1,8,0:0:0:0:
246,184,190025,1,0,0:0:0:0:
246,184,191525,1,8,0:0:0:0:
246,184,192275,1,0,0:0:0:0:
246,184,193025,1,0,0:0:0:0:
246,184,193400,1,8,0:0:0:0:
246,184,193775,1,0,0:0:0:0:
246,184,194025,1,0,0:0:0:0:
246,184,194150,1,8,0:0:0:0:
246,184,194400,1,0,0:0:0:0:
246,184,194525,1,8,0:0:0:0:
246,184,195150,1,8,0:0:0:0:
246,184,195275,1,0,0:0:0:0:
246,184,195525,1,0,0:0:0:0:
246,184,195650,1,0,0:0:0:0:
224,180,195900,1,0,0:0:0:0:
246,184,196025,1,8,0:0:0:0:
240,180,196400,1,0,0:0:0:0:
238,180,196775,1,0,0:0:0:0:
204,136,197150,1,12,0:0:0:0:
204,136,197525,1,8,0:0:0:0:
204,136,197900,1,0,0:0:0:0:
204,136,198275,1,8,0:0:0:0:
204,136,198525,1,0,0:0:0:0:
228,168,198650,1,8,0:0:0:0:
228,168,198900,1,0,0:0:0:0:
204,136,199025,1,8,0:0:0:0:
208,132,199400,1,0,0:0:0:0:
208,132,199775,1,8,0:0:0:0:
208,132,200150,1,0,0:0:0:0:
208,132,200525,1,8,0:0:0:0:
208,132,200900,1,0,0:0:0:0:
208,132,201275,1,8,0:0:0:0:
208,132,201525,1,0,0:0:0:0:
228,168,201650,1,8,0:0:0:0:
228,168,201900,1,0,0:0:0:0:
208,132,202025,1,8,0:0:0:0:
208,132,202400,1,8,0:0:0:0:
208,132,202775,1,0,0:0:0:0:
208,132,203025,1,0,0:0:0:0:
208,132,203150,1,8,0:0:0:0:
208,132,203400,1,0,0:0:0:0:
208,132,203525,1,0,0:0:0:0:
208,132,203775,1,0,0:0:0:0:
208,132,203900,1,8,0:0:0:0:
208,132,204150,1,0,0:0:0:0:
208,132,204275,1,0,0:0:0:0:
208,132,204650,1,8,0:0:0:0:
171,164,204900,1,8,0:0:0:0:
208,132,205025,1,0,0:0:0:0:
208,132,205400,1,0,0:0:0:0:
214,130,205525,1,0,0:0:0:0:
214,130,205650,1,0,0:0:0:0:
208,132,205775,1,0,0:0:0:0:
208,132,206150,1,8,0:0:0:0:
208,132,206525,1,8,0:0:0:0:
208,132,206775,1,8,0:0:0:0:
208,132,206900,1,0,0:0:0:0:
208,132,207150,1,0,0:0:0:0:
208,132,207275,1,8,0:0:0:0:
220,128,207525,1,0,0:0:0:0:
201,134,207650,1,8,0:0:0:0:
216,132,207900,1,0,0:0:0:0:
220,168,208025,1,8,0:0:0:0:
208,152,208275,1,8,0:0:0:0:
201,134,208400,1,8,0:0:0:0:
208,152,208525,1,8,0:0:0:0:
208,152,208650,1,8,0:0:0:0:
208,132,208775,1,8,0:0:0:0:
208,132,209150,1,0,0:0:0:0:
208,132,209525,1,8,0:0:0:0:
208,132,209900,1,0,0:0:0:0:
208,132,210275,1,8,0:0:0:0:
208,132,210525,1,0,0:0:0:0:
208,132,210650,1,8,0:0:0:0:
208,132,210900,1,0,0:0:0:0:
208,132,211025,1,8,0:0:0:0:
201,141,211150,1,8,0:0:0:0:
201,141,211275,1,8,0:0:0:0:
204,144,211400,1,8,0:0:0:0:
208,132,211775,1,8,0:0:0:0:
208,132,212150,1,0,0:0:0:0:
208,132,212525,1,8,0:0:0:0:
208,132,212900,1,0,0:0:0:0:
208,132,213275,1,8,0:0:0:0:
208,132,213525,1,0,0:0:0:0:
208,132,213650,1,8,0:0:0:0:
208,132,213900,1,0,0:0:0:0:
208,132,214025,1,8,0:0:0:0:
215,137,214150,1,8,0:0:0:0:
200,136,214275,1,8,0:0:0:0:
204,144,214400,1,8,0:0:0:0:
204,144,214775,1,0,0:0:0:0:
204,144,215025,1,0,0:0:0:0:
204,144,215150,1,8,0:0:0:0:
204,144,215400,1,0,0:0:0:0:
204,144,215525,1,0,0:0:0:0:
204,144,215775,1,0,0:0:0:0:
204,144,215900,1,8,0:0:0:0:
212,148,216150,1,8,0:0:0:0:
204,144,216275,1,8,0:0:0:0:
204,144,216525,1,8,0:0:0:0:
212,148,216650,1,0,0:0:0:0:
212,148,217025,1,8,0:0:0:0:
212,148,217400,1,0,0:0:0:0:
216,156,217525,1,0,0:0:0:0:
216,156,217650,1,0,0:0:0:0:
212,148,217775,1,0,0:0:0:0:
212,148,218150,1,8,0:0:0:0:
212,148,218525,1,0,0:0:0:0:
212,148,218775,1,8,0:0:0:0:
212,148,218900,1,0,0:0:0:0:
212,148,219150,1,0,0:0:0:0:
208,140,219275,1,8,0:0:0:0:
208,140,219900,1,8,0:0:0:0:
208,140,220025,1,0,0:0:0:0:
208,140,220400,1,0,0:0:0:0:
208,140,220775,1,8,0:0:0:0:
208,140,221150,1,4,0:0:0:0:
208,140,221525,1,4,0:0:0:0:
208,140,221900,1,4,0:0:0:0:
204,136,222275,1,8,0:0:0:0:
204,136,222400,1,0,0:0:0:0:
204,136,222525,1,0,0:0:0:0:
204,136,222650,1,0,0:0:0:0:
205,131,222900,1,0,0:0:0:0:
204,136,223025,1,8,0:0:0:0:
204,136,223400,1,8,0:0:0:0:
205,131,223775,1,8,0:0:0:0:
204,136,223900,1,0,0:0:0:0:
204,136,224025,1,0,0:0:0:0:
204,136,224150,1,0,0:0:0:0:
204,136,224400,1,0,0:0:0:0:
205,131,224525,1,8,0:0:0:0:
187,129,224900,5,8,0:0:0:0:
187,129,225275,1,8,0:0:0:0:
187,129,225400,1,0,0:0:0:0:
187,129,225525,1,0,0:0:0:0:
187,129,225650,1,0,0:0:0:0:
187,129,225900,1,0,0:0:0:0:
187,129,226025,1,8,0:0:0:0:
187,129,226400,1,8,0:0:0:0:
160,138,226775,1,12,0:0:0:0:
173,131,227150,1,4,0:0:0:0:
173,131,227525,1,12,0:0:0:0:
173,131,227900,1,8,0:0:0:0:
173,131,228025,1,8,0:0:0:0:
173,131,228150,1,8,0:0:0:0:
173,131,228275,1,0,0:0:0:0:
154,117,228525,1,0,0:0:0:0:
154,117,228650,1,8,0:0:0:0:
165,130,229025,1,0,0:0:0:0:
165,130,229150,1,0,0:0:0:0:
165,130,229275,1,0,0:0:0:0:
165,130,229400,1,8,0:0:0:0:
165,130,229650,1,8,0:0:0:0:
165,130,229775,1,0,0:0:0:0:
159,141,230025,1,0,0:0:0:0:
159,141,230150,1,8,0:0:0:0:
159,141,230525,1,0,0:0:0:0:
159,141,230650,1,0,0:0:0:0:
159,141,230775,1,0,0:0:0:0:
159,141,230900,1,8,0:0:0:0:
153,143,231150,1,8,0:0:0:0:
153,143,231275,1,0,0:0:0:0:
157,146,231525,1,0,0:0:0:0:
157,146,231650,1,8,0:0:0:0:
157,146,232025,1,0,0:0:0:0:
157,146,232150,1,0,0:0:0:0:
157,146,232275,1,0,0:0:0:0:
157,146,232400,1,8,0:0:0:0:
157,146,232775,1,12,0:0:0:0:
157,146,233150,1,4,0:0:0:0:
157,146,233525,1,12,0:0:0:0:
