osu file format v14

[General]
AudioFilename: audio.mp3
AudioLeadIn: 0
PreviewTime: 50509
Countdown: 0
SampleSet: Normal
StackLeniency: 0.7
Mode: 1
LetterboxInBreaks: 0
WidescreenStoryboard: 0

[Editor]
Bookmarks: 13009
DistanceSpacing: 1.1
BeatDivisor: 3
GridSize: 4
TimelineZoom: 1.9

[Metadata]
Title:Easter Bunny
TitleUnicode:Easter Bunny
Artist:The Idol Formerly Known As LADYBABY
ArtistUnicode:The Idol Formerly Known As LADYBABY
Creator:Karee Pan
Version:Kantan
Source:
Tags:Kawaii, Metal, Rie Kaneko, Rei Kuromniya,
BeatmapID:1236161
BeatmapSetID:584308

[Difficulty]
HPDrainRate:4
CircleSize:5
OverallDifficulty:4
ApproachRate:5
SliderMultiplier:1.4
SliderTickRate:1

[Events]
//Background and Video events
0,0,"ladybaby-breaking-news-rie-rei-04.jpg",0,0
//Break Periods
//Storyboard Layer 0 (Background)
//Storyboard Layer 1 (Fail)
//Storyboard Layer 2 (Pass)
//Storyboard Layer 3 (Foreground)
//Storyboard Sound Samples

[TimingPoints]
1025,375,4,1,0,100,1,0
50525,-100,4,1,0,100,0,1
74525,-100,4,1,0,100,0,0
115025,-100,4,1,0,100,0,1
139025,-100,4,1,0,100,0,0
197150,-100,4,1,0,100,0,1
222275,-100,4,1,0,100,0,0

[HitObjects]
256,191,1025,5,4,0:0:0:0:
244,182,1775,1,12,0:0:0:0:
244,182,2525,1,4,0:0:0:0:
244,182,3275,1,12,0:0:0:0:
244,182,4025,1,4,0:0:0:0:
244,182,4775,1,12,0:0:0:0:
244,182,5525,1,12,0:0:0:0:
244,182,5900,1,4,0:0:0:0:
244,182,6275,1,12,0:0:0:0:
244,182,7025,1,0,0:0:0:0:
244,182,7775,1,8,0:0:0:0:
244,182,8525,1,0,0:0:0:0:
244,182,9275,1,8,0:0:0:0:
244,182,10025,1,0,0:0:0:0:
244,182,10775,1,8,0:0:0:0:
244,182,11525,1,12,0:0:0:0:
244,182,11900,1,4,0:0:0:0:
244,182,12275,1,12,0:0:0:0:
244,182,13025,1,0,0:0:0:0:
244,182,13775,1,8,0:0:0:0:
244,182,14525,1,0,0:0:0:0:
244,182,14900,1,0,0:0:0:0:
244,182,15275,1,8,0:0:0:0:
244,182,16025,1,0,0:0:0:0:
244,182,16775,1,8,0:0:0:0:
244,182,17525,1,0,0:0:0:0:
244,182,18275,1,8,0:0:0:0:
244,182,18650,1,8,0:0:0:0:
244,182,19025,1,0,0:0:0:0:
244,182,19775,1,8,0:0:0:0:
244,182,20525,1,0,0:0:0:0:
244,182,20900,1,0,0:0:0:0:
244,182,21275,1,8,0:0:0:0:
244,182,22025,1,0,0:0:0:0:
244,182,22775,1,8,0:0:0:0:
244,182,23525,1,8,0:0:0:0:
244,182,23900,1,8,0:0:0:0:
244,182,24275,1,0,0:0:0:0:
244,182,25025,1,8,0:0:0:0:
244,182,25775,1,8,0:0:0:0:
244,182,26525,1,0,0:0:0:0:
244,182,26900,1,0,0:0:0:0:
244,182,27275,1,8,0:0:0:0:
244,182,28025,1,8,0:0:0:0:
244,182,28775,1,8,0:0:0:0:
244,182,29525,1,8,0:0:0:0:
244,182,30275,1,0,0:0:0:0:
244,182,30650,1,0,0:0:0:0:
244,182,31025,1,8,0:0:0:0:
244,182,31775,1,8,0:0:0:0:
244,182,32525,1,0,0:0:0:0:
244,182,32900,1,0,0:0:0:0:
244,182,33275,1,8,0:0:0:0:
244,182,34025,1,8,0:0:0:0:
244,182,34775,1,8,0:0:0:0:
244,182,35525,1,8,0:0:0:0:
244,182,35900,1,8,0:0:0:0:
244,182,36275,1,8,0:0:0:0:
244,182,37025,1,0,0:0:0:0:
244,182,37775,1,0,0:0:0:0:
244,182,38525,1,8,0:0:0:0:
244,182,39275,1,0,0:0:0:0:
244,182,40025,1,8,0:0:0:0:
244,182,40775,1,8,0:0:0:0:
244,182,41525,1,0,0:0:0:0:
244,182,42275,1,12,0:0:0:0:
244,182,42650,1,12,0:0:0:0:
244,182,43025,1,0,0:0:0:0:
244,182,43775,1,0,0:0:0:0:
244,182,44525,1,8,0:0:0:0:
244,182,45275,1,0,0:0:0:0:
244,182,46025,1,8,0:0:0:0:
244,182,46775,1,8,0:0:0:0:
244,182,47150,1,0,0:0:0:0:
244,182,47525,1,8,0:0:0:0:
244,182,48275,1,8,0:0:0:0:
244,182,49025,1,4,0:0:0:0:
244,182,49400,1,4,0:0:0:0:
244,182,49775,1,4,0:0:0:0:
244,182,50525,1,0,0:0:0:0:
244,182,51275,1,0,0:0:0:0:
244,182,52025,1,0,0:0:0:0:
244,182,52400,1,8,0:0:0:0:
244,182,52775,1,8,0:0:0:0:
244,182,53525,1,0,0:0:0:0:
244,182,54275,1,0,0:0:0:0:
244,182,55025,1,0,0:0:0:0:
244,182,55400,1,8,0:0:0:0:
244,182,55775,1,8,0:0:0:0:
244,182,56525,1,0,0:0:0:0:
244,182,57275,1,0,0:0:0:0:
244,182,58025,1,8,0:0:0:0:
244,182,58775,1,0,0:0:0:0:
244,182,59150,1,0,0:0:0:0:
244,182,59525,1,0,0:0:0:0:
244,182,60275,1,0,0:0:0:0:
244,182,61025,1,8,0:0:0:0:
244,182,61775,1,8,0:0:0:0:
244,182,62525,1,0,0:0:0:0:
244,182,63275,1,0,0:0:0:0:
244,182,64025,1,0,0:0:0:0:
244,182,64400,1,8,0:0:0:0:
244,182,64775,1,8,0:0:0:0:
244,182,65525,1,0,0:0:0:0:
244,182,66275,1,0,0:0:0:0:
244,182,67025,1,0,0:0:0:0:
244,182,67400,1,8,0:0:0:0:
244,182,67775,1,8,0:0:0:0:
244,182,68525,1,0,0:0:0:0:
244,182,69275,1,8,0:0:0:0:
244,182,70025,1,0,0:0:0:0:
244,182,70775,1,8,0:0:0:0:
244,182,71150,1,8,0:0:0:0:
244,182,71525,1,0,0:0:0:0:
244,182,72275,1,8,0:0:0:0:
244,182,73025,1,8,0:0:0:0:
244,182,73775,1,8,0:0:0:0:
244,182,74150,1,0,0:0:0:0:
244,182,74525,1,8,0:0:0:0:
244,182,75275,1,0,0:0:0:0:
244,182,76025,1,0,0:0:0:0:
244,182,76400,1,0,0:0:0:0:
244,182,76775,1,8,0:0:0:0:
263,194,77525,1,0,0:0:0:0:
263,194,78275,1,0,0:0:0:0:
263,194,79025,1,0,0:0:0:0:
263,194,79775,1,8,0:0:0:0:
263,194,80525,1,0,0:0:0:0:
263,194,81275,1,0,0:0:0:0:
263,194,82025,1,0,0:0:0:0:
263,194,82400,1,0,0:0:0:0:
263,194,82775,1,8,0:0:0:0:
263,194,83525,1,0,0:0:0:0:
263,194,85025,1,0,0:0:0:0:
263,194,85775,1,8,0:0:0:0:
263,194,86525,1,0,0:0:0:0:
263,194,88025,1,0,0:0:0:0:
252,192,88775,1,8,0:0:0:0:
252,192,89150,1,0,0:0:0:0:
244,182,89525,1,8,0:0:0:0:
244,182,90275,1,8,0:0:0:0:
244,182,91025,1,0,0:0:0:0:
244,182,91400,1,0,0:0:0:0:
244,182,91775,1,8,0:0:0:0:
244,182,92525,1,8,0:0:0:0:
244,182,93275,1,8,0:0:0:0:
244,182,94025,1,8,0:0:0:0:
244,182,94775,1,0,0:0:0:0:
244,182,95150,1,0,0:0:0:0:
244,182,95525,1,8,0:0:0:0:
244,182,96275,1,8,0:0:0:0:
244,182,97025,1,0,0:0:0:0:
244,182,97400,1,0,0:0:0:0:
244,182,97775,1,8,0:0:0:0:
244,182,98525,1,8,0:0:0:0:
244,182,99275,1,8,0:0:0:0:
244,182,100025,1,8,0:0:0:0:
244,182,100400,1,8,0:0:0:0:
244,182,100775,1,8,0:0:0:0:
244,182,101525,1,0,0:0:0:0:
244,182,102275,1,0,0:0:0:0:
244,182,103025,1,8,0:0:0:0:
244,182,103775,1,0,0:0:0:0:
244,182,104525,1,8,0:0:0:0:
244,182,105275,1,8,0:0:0:0:
244,182,106025,1,0,0:0:0:0:
244,182,106775,1,12,0:0:0:0:
244,182,107150,1,12,0:0:0:0:
244,182,107525,1,0,0:0:0:0:
244,182,108275,1,0,0:0:0:0:
244,182,109025,1,8,0:0:0:0:
244,182,109775,1,0,0:0:0:0:
244,182,110525,1,8,0:0:0:0:
244,182,111275,1,8,0:0:0:0:
244,182,111650,1,0,0:0:0:0:
244,182,112025,1,8,0:0:0:0:
244,182,112775,5,8,0:0:0:0:
244,182,113525,5,4,0:0:0:0:
244,182,113900,1,4,0:0:0:0:
244,182,114275,1,4,0:0:0:0:
244,182,115025,1,0,0:0:0:0:
244,182,115775,1,0,0:0:0:0:
244,182,116525,1,0,0:0:0:0:
244,182,116900,1,8,0:0:0:0:
244,182,117275,1,8,0:0:0:0:
244,182,118025,1,0,0:0:0:0:
244,182,118775,1,0,0:0:0:0:
244,182,119525,1,0,0:0:0:0:
244,182,119900,1,8,0:0:0:0:
244,182,120275,1,8,0:0:0:0:
244,182,121025,1,0,0:0:0:0:
244,182,121775,1,0,0:0:0:0:
244,182,122525,1,8,0:0:0:0:
244,182,123275,1,0,0:0:0:0:
244,182,123650,1,0,0:0:0:0:
244,182,124025,1,0,0:0:0:0:
244,182,124775,1,0,0:0:0:0:
244,182,125525,1,8,0:0:0:0:
244,182,126275,1,0,0:0:0:0:
244,182,127025,1,0,0:0:0:0:
244,182,127775,1,0,0:0:0:0:
244,182,128525,1,0,0:0:0:0:
244,182,128900,1,8,0:0:0:0:
244,182,129275,1,8,0:0:0:0:
244,182,130025,1,0,0:0:0:0:
244,182,130775,1,0,0:0:0:0:
244,182,131525,1,0,0:0:0:0:
244,182,131900,1,8,0:0:0:0:
244,182,132275,1,8,0:0:0:0:
244,182,133025,1,0,0:0:0:0:
244,182,133775,1,8,0:0:0:0:
244,182,134525,1,0,0:0:0:0:
244,182,135275,1,8,0:0:0:0:
244,182,135650,1,8,0:0:0:0:
244,182,136025,1,0,0:0:0:0:
244,182,136775,1,8,0:0:0:0:
244,182,137525,1,8,0:0:0:0:
244,182,138275,1,8,0:0:0:0:
244,182,138650,1,0,0:0:0:0:
244,182,139025,1,8,0:0:0:0:
244,182,139775,1,0,0:0:0:0:
244,182,140525,1,0,0:0:0:0:
244,182,140900,1,0,0:0:0:0:
244,182,141275,1,8,0:0:0:0:
244,182,142025,1,8,0:0:0:0:
244,182,142775,1,0,0:0:0:0:
244,182,143525,1,12,0:0:0:0:
244,182,143900,1,4,0:0:0:0:
244,182,144275,1,12,0:0:0:0:
254,197,145025,1,0,0:0:0:0:
254,197,145775,1,8,0:0:0:0:
254,197,146150,1,8,0:0:0:0:
254,197,146525,1,0,0:0:0:0:
254,197,147275,1,0,0:0:0:0:
254,197,148025,1,0,0:0:0:0:
254,197,148775,1,8,0:0:0:0:
254,197,149150,1,8,0:0:0:0:
254,197,149525,1,0,0:0:0:0:
254,194,151025,1,0,0:0:0:0:
254,194,151775,1,8,0:0:0:0:
254,194,152150,1,8,0:0:0:0:
254,194,152525,1,0,0:0:0:0:
254,194,153275,1,0,0:0:0:0:
254,194,154025,1,0,0:0:0:0:
254,194,154775,1,0,0:0:0:0:
254,194,155150,1,8,0:0:0:0:
254,194,155525,1,8,0:0:0:0:
254,194,157025,1,0,0:0:0:0:
254,194,157775,1,0,0:0:0:0:
254,194,158525,1,0,0:0:0:0:
254,194,158900,1,8,0:0:0:0:
254,194,159275,1,8,0:0:0:0:
254,194,160025,1,0,0:0:0:0:
254,194,160775,1,0,0:0:0:0:
254,194,161525,1,8,0:0:0:0:
254,194,161900,1,0,0:0:0:0:
254,194,162275,1,8,0:0:0:0:
254,194,163025,1,0,0:0:0:0:
254,194,163775,1,0,0:0:0:0:
254,194,164525,1,8,0:0:0:0:
254,194,164900,1,0,0:0:0:0:
254,194,165275,1,8,0:0:0:0:
254,194,166025,1,0,0:0:0:0:
254,194,166775,1,0,0:0:0:0:
254,194,167525,1,0,0:0:0:0:
254,194,168275,1,0,0:0:0:0:
254,194,168650,1,8,0:0:0:0:
254,194,169025,1,8,0:0:0:0:
254,194,169775,1,8,0:0:0:0:
254,194,170525,1,8,0:0:0:0:
254,194,171275,1,8,0:0:0:0:
254,194,171650,1,0,0:0:0:0:
254,194,172025,1,0,0:0:0:0:
254,194,172775,1,0,0:0:0:0:
254,194,173525,1,0,0:0:0:0:
254,194,174275,1,0,0:0:0:0:
254,194,174650,1,8,0:0:0:0:
254,194,175025,1,8,0:0:0:0:
254,194,175775,1,8,0:0:0:0:
254,194,176525,1,8,0:0:0:0:
254,194,176900,1,8,0:0:0:0:
254,194,177275,1,8,0:0:0:0:
254,194,177650,1,8,0:0:0:0:
256,192,178025,12,0,179525,0:0:0:0:
256,193,181025,5,0,0:0:0:0:
256,193,181775,1,0,0:0:0:0:
256,193,182525,1,8,0:0:0:0:
256,193,182900,1,8,0:0:0:0:
256,193,183275,1,8,0:0:0:0:
256,193,184025,1,0,0:0:0:0:
256,192,187025,1,8,0:0:0:0:
256,192,190025,1,0,0:0:0:0:
256,192,191525,1,0,0:0:0:0:
256,192,193025,1,0,0:0:0:0:
256,192,193775,1,0,0:0:0:0:
256,192,194525,1,8,0:0:0:0:
256,192,194900,1,8,0:0:0:0:
256,192,195275,1,0,0:0:0:0:
256,192,196025,1,0,0:0:0:0:
256,192,196775,1,8,0:0:0:0:
256,192,197150,1,12,0:0:0:0:
256,192,197525,1,8,0:0:0:0:
256,192,198275,1,8,0:0:0:0:
256,192,199025,1,8,0:0:0:0:
256,192,199775,1,8,0:0:0:0:
256,192,200150,1,0,0:0:0:0:
256,192,200525,1,8,0:0:0:0:
256,192,201275,1,8,0:0:0:0:
256,192,202025,1,8,0:0:0:0:
256,192,202775,1,0,0:0:0:0:
256,192,203525,1,0,0:0:0:0:
256,192,204275,1,8,0:0:0:0:
256,192,204650,1,0,0:0:0:0:
256,192,205025,1,0,0:0:0:0:
256,192,205775,1,0,0:0:0:0:
256,192,206525,1,0,0:0:0:0:
256,192,207275,1,8,0:0:0:0:
256,192,208025,1,0,0:0:0:0:
256,192,208775,1,8,0:0:0:0:
256,192,209150,1,0,0:0:0:0:
256,192,209525,1,8,0:0:0:0:
256,192,210275,1,8,0:0:0:0:
256,192,211025,1,8,0:0:0:0:
256,192,211775,1,8,0:0:0:0:
256,192,212150,1,0,0:0:0:0:
256,192,212525,1,8,0:0:0:0:
256,192,213275,1,8,0:0:0:0:
256,192,214025,1,8,0:0:0:0:
256,192,214775,1,0,0:0:0:0:
256,192,215525,1,0,0:0:0:0:
256,192,215900,1,8,0:0:0:0:
256,192,216275,1,8,0:0:0:0:
256,192,217025,1,8,0:0:0:0:
256,192,217775,1,0,0:0:0:0:
256,192,218525,1,8,0:0:0:0:
256,192,219275,1,8,0:0:0:0:
256,192,221150,1,4,0:0:0:0:
256,192,221525,1,4,0:0:0:0:
256,192,221900,1,4,0:0:0:0:
256,192,222275,1,0,0:0:0:0:
256,192,223025,1,8,0:0:0:0:
256,192,223400,1,8,0:0:0:0:
256,192,223775,1,0,0:0:0:0:
256,192,224525,1,8,0:0:0:0:
256,192,225275,1,0,0:0:0:0:
256,192,226025,1,8,0:0:0:0:
256,192,226400,1,8,0:0:0:0:
256,192,226775,1,4,0:0:0:0:
256,192,227525,1,12,0:0:0:0:
256,192,228275,1,0,0:0:0:0:
256,192,229025,1,8,0:0:0:0:
256,192,229400,1,8,0:0:0:0:
256,192,229775,1,0,0:0:0:0:
256,192,230525,1,8,0:0:0:0:
256,192,230900,1,8,0:0:0:0:
256,192,231275,1,0,0:0:0:0:
256,192,232025,1,8,0:0:0:0:
256,192,232775,1,12,0:0:0:0:
256,192,233150,1,4,0:0:0:0:
256,192,233525,1,12,0:0:0:0:
