osu file format v14

[General]
AudioFilename: audio.mp3
AudioLeadIn: 0
PreviewTime: 50509
Countdown: 0
SampleSet: Normal
StackLeniency: 0.7
Mode: 1
LetterboxInBreaks: 0
WidescreenStoryboard: 0

[Editor]
Bookmarks: 13009
DistanceSpacing: 1.1
BeatDivisor: 1
GridSize: 4
TimelineZoom: 1.9

[Metadata]
Title:Easter Bunny
TitleUnicode:Easter Bunny
Artist:The Idol Formerly Known As LADYBABY
ArtistUnicode:The Idol Formerly Known As LADYBABY
Creator:Karee Pan
Version:Futsuu
Source:
Tags:Kawaii, Metal, Rie Kaneko, Rei Kuromniya,
BeatmapID:1236160
BeatmapSetID:584308

[Difficulty]
HPDrainRate:4
CircleSize:5
OverallDifficulty:4
ApproachRate:5
SliderMultiplier:1.4
SliderTickRate:1

[Events]
//Background and Video events
0,0,"ladybaby-breaking-news-rie-rei-04.jpg",0,0
//Break Periods
//Storyboard Layer 0 (Background)
//Storyboard Layer 1 (Fail)
//Storyboard Layer 2 (Pass)
//Storyboard Layer 3 (Foreground)
//Storyboard Sound Samples

[TimingPoints]
1025,375,4,1,0,100,1,0
50525,-100,4,1,0,100,0,1
74525,-100,4,1,0,100,0,0
115025,-100,4,1,0,100,0,1
139025,-100,4,1,0,100,0,0
197150,-100,4,1,0,100,0,1
222275,-100,4,1,0,100,0,0

[HitObjects]
262,187,1025,5,4,0:0:0:0:
264,177,1775,1,12,0:0:0:0:
264,177,2525,1,4,0:0:0:0:
264,177,3275,1,12,0:0:0:0:
264,177,4025,1,4,0:0:0:0:
264,177,4775,1,12,0:0:0:0:
264,177,5525,1,12,0:0:0:0:
264,177,5900,1,4,0:0:0:0:
264,177,6275,1,12,0:0:0:0:
264,177,7025,1,0,0:0:0:0:
255,150,7400,1,8,0:0:0:0:
269,161,7775,1,0,0:0:0:0:
266,161,8150,1,8,0:0:0:0:
269,161,8525,1,0,0:0:0:0:
269,161,9275,1,8,0:0:0:0:
269,161,10025,1,0,0:0:0:0:
269,161,10400,1,8,0:0:0:0:
269,161,10775,1,0,0:0:0:0:
269,161,11150,1,8,0:0:0:0:
269,161,11525,1,12,0:0:0:0:
269,161,11900,1,4,0:0:0:0:
269,161,12275,1,12,0:0:0:0:
269,161,13025,1,0,0:0:0:0:
268,168,13400,1,8,0:0:0:0:
269,161,13775,1,0,0:0:0:0:
269,161,14525,1,0,0:0:0:0:
278,163,14900,1,0,0:0:0:0:
272,147,15275,1,8,0:0:0:0:
272,147,16025,1,0,0:0:0:0:
250,152,16775,1,8,0:0:0:0:
250,152,17525,1,0,0:0:0:0:
250,152,17900,1,0,0:0:0:0:
250,152,18275,1,8,0:0:0:0:
250,152,18650,1,8,0:0:0:0:
250,152,19025,1,0,0:0:0:0:
268,168,19400,1,8,0:0:0:0:
268,168,19775,1,0,0:0:0:0:
268,168,20525,1,0,0:0:0:0:
268,168,20900,1,0,0:0:0:0:
268,168,21275,1,8,0:0:0:0:
268,168,22025,1,0,0:0:0:0:
268,168,22775,1,8,0:0:0:0:
268,168,23525,1,0,0:0:0:0:
268,168,23900,1,0,0:0:0:0:
268,168,24275,1,8,0:0:0:0:
296,164,24650,1,0,0:0:0:0:
268,168,25025,1,8,0:0:0:0:
268,168,25400,1,8,0:0:0:0:
268,168,25775,1,0,0:0:0:0:
268,168,26150,1,8,0:0:0:0:
268,168,26525,1,0,0:0:0:0:
268,168,26900,1,0,0:0:0:0:
268,168,27150,1,8,0:0:0:0:
268,168,27275,1,8,0:0:0:0:
268,168,28025,1,8,0:0:0:0:
268,168,28400,1,8,0:0:0:0:
268,168,28775,1,0,0:0:0:0:
268,168,29150,1,8,0:0:0:0:
268,168,29525,1,8,0:0:0:0:
248,169,30275,1,0,0:0:0:0:
268,168,31025,1,8,0:0:0:0:
268,168,31400,1,8,0:0:0:0:
268,168,31775,1,0,0:0:0:0:
268,168,32150,1,8,0:0:0:0:
268,168,32525,1,0,0:0:0:0:
268,168,32900,1,0,0:0:0:0:
268,168,33150,1,8,0:0:0:0:
268,168,33275,1,8,0:0:0:0:
268,168,34025,1,8,0:0:0:0:
268,168,34400,1,8,0:0:0:0:
268,168,34775,1,0,0:0:0:0:
268,168,35150,1,8,0:0:0:0:
268,168,35525,1,0,0:0:0:0:
268,168,35900,1,0,0:0:0:0:
268,168,36150,1,8,0:0:0:0:
272,169,36275,1,8,0:0:0:0:
272,169,37025,1,8,0:0:0:0:
272,169,37775,1,0,0:0:0:0:
272,169,38150,1,0,0:0:0:0:
272,169,38525,1,8,0:0:0:0:
272,169,39275,1,8,0:0:0:0:
272,169,39650,1,0,0:0:0:0:
281,169,40025,1,8,0:0:0:0:
272,169,40775,1,8,0:0:0:0:
272,169,41150,1,0,0:0:0:0:
228,164,41400,1,0,0:0:0:0:
272,169,41525,1,0,0:0:0:0:
272,169,42275,1,12,0:0:0:0:
272,169,42650,1,12,0:0:0:0:
272,169,43025,1,8,0:0:0:0:
272,169,43775,1,0,0:0:0:0:
272,169,44150,1,0,0:0:0:0:
272,169,44525,1,8,0:0:0:0:
275,173,45275,1,8,0:0:0:0:
275,173,45650,1,8,0:0:0:0:
275,173,46025,1,8,0:0:0:0:
275,173,46775,1,0,0:0:0:0:
275,173,47150,1,0,0:0:0:0:
264,172,47400,1,8,0:0:0:0:
275,173,47525,1,8,0:0:0:0:
275,173,48275,1,4,0:0:0:0:
275,173,48650,1,4,0:0:0:0:
275,173,49025,1,0,0:0:0:0:
275,173,49775,1,0,0:0:0:0:
275,173,50150,1,12,0:0:0:0:
275,173,50525,1,12,0:0:0:0:
257,184,50900,1,0,0:0:0:0:
257,184,51275,1,8,0:0:0:0:
257,184,51650,1,0,0:0:0:0:
257,184,52025,1,8,0:0:0:0:
257,184,52400,1,0,0:0:0:0:
260,176,52650,1,8,0:0:0:0:
257,184,52775,1,8,0:0:0:0:
257,184,53525,1,8,0:0:0:0:
257,184,53900,1,0,0:0:0:0:
257,184,54275,1,8,0:0:0:0:
257,184,54650,1,0,0:0:0:0:
257,184,55025,1,8,0:0:0:0:
257,184,55400,1,0,0:0:0:0:
260,180,55650,1,8,0:0:0:0:
257,184,55775,1,8,0:0:0:0:
257,184,56525,1,0,0:0:0:0:
257,184,56900,1,8,0:0:0:0:
257,184,57275,1,0,0:0:0:0:
257,184,57650,1,8,0:0:0:0:
257,184,58025,1,8,0:0:0:0:
257,184,58775,1,0,0:0:0:0:
257,184,59525,1,0,0:0:0:0:
257,184,59900,1,8,0:0:0:0:
257,184,60275,1,0,0:0:0:0:
257,184,60650,1,8,0:0:0:0:
257,184,61025,1,8,0:0:0:0:
257,184,61775,1,8,0:0:0:0:
257,184,62525,1,8,0:0:0:0:
257,184,62900,1,0,0:0:0:0:
257,184,63275,1,8,0:0:0:0:
257,184,63650,1,0,0:0:0:0:
257,184,64025,1,8,0:0:0:0:
257,184,64400,1,0,0:0:0:0:
257,184,64650,1,8,0:0:0:0:
257,184,64775,1,8,0:0:0:0:
257,184,65525,1,8,0:0:0:0:
257,184,65900,1,0,0:0:0:0:
257,184,66275,1,8,0:0:0:0:
257,184,66650,1,0,0:0:0:0:
257,184,67025,1,8,0:0:0:0:
257,184,67400,1,0,0:0:0:0:
260,188,67650,1,8,0:0:0:0:
257,184,67775,1,8,0:0:0:0:
257,184,68525,1,0,0:0:0:0:
257,184,68900,1,0,0:0:0:0:
257,184,69275,1,0,0:0:0:0:
257,184,69650,1,8,0:0:0:0:
257,184,70025,1,8,0:0:0:0:
257,184,70775,1,0,0:0:0:0:
257,184,71525,1,0,0:0:0:0:
257,184,71900,1,8,0:0:0:0:
257,184,72275,1,0,0:0:0:0:
257,184,72650,1,8,0:0:0:0:
257,184,73025,1,8,0:0:0:0:
257,184,73775,1,8,0:0:0:0:
257,184,74150,1,0,0:0:0:0:
257,184,74525,1,8,0:0:0:0:
257,184,75275,1,0,0:0:0:0:
257,184,76025,1,0,0:0:0:0:
257,184,76400,1,8,0:0:0:0:
257,184,76775,1,0,0:0:0:0:
260,203,77150,1,0,0:0:0:0:
254,189,77525,1,0,0:0:0:0:
248,187,78275,1,8,0:0:0:0:
248,187,79025,1,0,0:0:0:0:
248,187,79775,1,8,0:0:0:0:
248,187,80150,1,8,0:0:0:0:
248,187,80525,1,0,0:0:0:0:
248,187,81275,1,8,0:0:0:0:
248,187,82025,1,0,0:0:0:0:
248,187,82775,1,8,0:0:0:0:
248,187,83150,1,8,0:0:0:0:
236,196,83525,1,0,0:0:0:0:
236,196,84275,1,8,0:0:0:0:
236,196,85025,1,0,0:0:0:0:
236,196,85775,1,8,0:0:0:0:
236,196,86150,1,8,0:0:0:0:
236,196,86525,1,0,0:0:0:0:
236,196,87275,1,0,0:0:0:0:
236,196,88025,1,0,0:0:0:0:
236,196,88775,1,8,0:0:0:0:
236,196,89150,1,0,0:0:0:0:
268,168,89525,1,8,0:0:0:0:
268,168,89900,1,8,0:0:0:0:
268,168,90275,1,0,0:0:0:0:
268,168,90650,1,8,0:0:0:0:
268,168,91025,1,0,0:0:0:0:
268,168,91400,1,0,0:0:0:0:
252,184,91650,1,8,0:0:0:0:
268,168,91775,1,8,0:0:0:0:
268,168,92525,1,8,0:0:0:0:
268,168,92900,1,8,0:0:0:0:
268,168,93275,1,0,0:0:0:0:
268,168,93650,1,8,0:0:0:0:
268,168,94025,1,8,0:0:0:0:
268,168,94775,1,8,0:0:0:0:
268,168,95525,1,8,0:0:0:0:
268,168,95900,1,8,0:0:0:0:
268,168,96275,1,0,0:0:0:0:
268,168,96650,1,8,0:0:0:0:
268,168,97025,1,0,0:0:0:0:
268,168,97400,1,0,0:0:0:0:
268,168,97650,1,8,0:0:0:0:
268,168,97775,1,8,0:0:0:0:
268,168,98525,1,8,0:0:0:0:
268,168,98900,1,0,0:0:0:0:
268,168,99275,1,0,0:0:0:0:
268,168,99650,1,8,0:0:0:0:
268,168,100025,1,0,0:0:0:0:
268,168,100400,1,0,0:0:0:0:
268,168,100650,1,8,0:0:0:0:
272,169,100775,1,8,0:0:0:0:
272,169,101525,1,8,0:0:0:0:
272,169,102275,1,0,0:0:0:0:
272,169,102650,1,0,0:0:0:0:
272,169,103025,1,8,0:0:0:0:
272,169,103775,1,8,0:0:0:0:
272,169,104150,1,0,0:0:0:0:
281,169,104525,1,8,0:0:0:0:
272,169,105275,1,8,0:0:0:0:
272,169,105650,1,0,0:0:0:0:
228,164,105900,1,0,0:0:0:0:
272,169,106025,1,0,0:0:0:0:
272,169,106775,1,12,0:0:0:0:
272,169,107150,1,12,0:0:0:0:
272,169,107525,1,8,0:0:0:0:
272,169,108275,1,0,0:0:0:0:
272,169,108650,1,0,0:0:0:0:
272,169,109025,1,8,0:0:0:0:
275,173,109775,1,8,0:0:0:0:
275,173,110150,1,8,0:0:0:0:
275,173,110525,1,8,0:0:0:0:
275,173,111275,5,0,0:0:0:0:
275,173,111650,1,0,0:0:0:0:
264,172,111900,1,8,0:0:0:0:
275,173,112025,1,8,0:0:0:0:
275,173,112775,1,4,0:0:0:0:
275,173,113150,1,4,0:0:0:0:
275,173,113525,1,0,0:0:0:0:
275,173,114275,1,0,0:0:0:0:
275,173,114650,1,12,0:0:0:0:
275,173,115025,1,12,0:0:0:0:
257,184,115400,1,0,0:0:0:0:
257,184,115775,1,8,0:0:0:0:
257,184,116150,1,0,0:0:0:0:
257,184,116525,1,8,0:0:0:0:
257,184,116900,1,0,0:0:0:0:
244,188,117150,1,8,0:0:0:0:
257,184,117275,1,8,0:0:0:0:
257,184,118025,1,8,0:0:0:0:
257,184,118400,1,0,0:0:0:0:
257,184,118775,1,8,0:0:0:0:
257,184,119150,1,0,0:0:0:0:
257,184,119525,1,8,0:0:0:0:
257,184,119900,1,0,0:0:0:0:
252,184,120150,1,8,0:0:0:0:
257,184,120275,1,8,0:0:0:0:
257,184,121025,1,0,0:0:0:0:
257,184,121400,1,8,0:0:0:0:
257,184,121775,1,0,0:0:0:0:
257,184,122150,1,8,0:0:0:0:
257,184,122525,1,8,0:0:0:0:
257,184,123275,1,0,0:0:0:0:
257,184,124025,1,0,0:0:0:0:
257,184,124400,1,8,0:0:0:0:
257,184,124775,1,0,0:0:0:0:
257,184,125150,1,8,0:0:0:0:
257,184,125525,1,8,0:0:0:0:
257,184,126275,1,8,0:0:0:0:
257,184,127025,1,8,0:0:0:0:
257,184,127400,1,0,0:0:0:0:
257,184,127775,1,8,0:0:0:0:
257,184,128150,1,0,0:0:0:0:
257,184,128525,1,8,0:0:0:0:
257,184,128900,1,0,0:0:0:0:
248,184,129150,1,8,0:0:0:0:
257,184,129275,1,8,0:0:0:0:
257,184,130025,1,8,0:0:0:0:
257,184,130400,1,0,0:0:0:0:
257,184,130775,1,8,0:0:0:0:
257,184,131150,1,0,0:0:0:0:
257,184,131525,1,8,0:0:0:0:
257,184,131900,1,0,0:0:0:0:
257,184,132150,1,8,0:0:0:0:
257,184,132275,1,8,0:0:0:0:
257,184,133025,1,0,0:0:0:0:
257,184,133400,1,0,0:0:0:0:
257,184,133775,1,0,0:0:0:0:
257,184,134150,1,8,0:0:0:0:
257,184,134525,1,8,0:0:0:0:
257,184,135275,1,0,0:0:0:0:
257,184,136025,1,0,0:0:0:0:
257,184,136400,1,8,0:0:0:0:
257,184,136775,1,0,0:0:0:0:
257,184,137150,1,8,0:0:0:0:
257,184,137525,1,8,0:0:0:0:
257,184,138275,1,8,0:0:0:0:
257,184,138650,1,0,0:0:0:0:
257,184,139025,1,8,0:0:0:0:
257,184,139775,1,0,0:0:0:0:
257,184,140525,1,0,0:0:0:0:
257,184,140900,1,0,0:0:0:0:
257,184,141275,1,8,0:0:0:0:
257,184,142025,1,8,0:0:0:0:
257,184,142400,1,8,0:0:0:0:
257,184,142775,1,0,0:0:0:0:
257,184,143525,1,12,0:0:0:0:
257,184,143900,1,4,0:0:0:0:
257,184,144275,1,12,0:0:0:0:
242,175,145025,1,0,0:0:0:0:
242,175,145775,1,0,0:0:0:0:
242,175,146150,1,8,0:0:0:0:
242,175,146525,1,0,0:0:0:0:
242,175,147275,1,0,0:0:0:0:
242,175,147650,1,8,0:0:0:0:
242,175,148025,1,0,0:0:0:0:
242,175,148775,1,0,0:0:0:0:
242,175,149150,1,8,0:0:0:0:
242,175,149525,1,0,0:0:0:0:
242,175,151025,1,0,0:0:0:0:
242,175,151775,1,0,0:0:0:0:
242,175,152150,1,8,0:0:0:0:
242,175,152525,1,0,0:0:0:0:
242,175,153275,1,0,0:0:0:0:
242,175,153650,1,8,0:0:0:0:
242,175,154025,1,0,0:0:0:0:
242,175,154775,1,0,0:0:0:0:
242,175,155150,1,8,0:0:0:0:
242,175,155525,1,8,0:0:0:0:
241,172,157025,1,0,0:0:0:0:
241,172,157400,1,8,0:0:0:0:
241,172,157775,1,0,0:0:0:0:
241,172,158150,1,8,0:0:0:0:
241,172,158525,1,0,0:0:0:0:
241,172,159275,1,8,0:0:0:0:
241,172,160025,1,0,0:0:0:0:
241,172,160400,1,0,0:0:0:0:
241,172,160775,1,8,0:0:0:0:
241,172,161150,1,8,0:0:0:0:
241,172,161525,1,0,0:0:0:0:
241,172,162275,1,8,0:0:0:0:
241,172,163025,1,0,0:0:0:0:
241,172,163400,1,8,0:0:0:0:
241,172,163775,1,8,0:0:0:0:
241,172,164150,1,0,0:0:0:0:
241,172,164525,1,8,0:0:0:0:
241,172,165275,1,8,0:0:0:0:
241,172,165650,1,0,0:0:0:0:
241,172,166025,1,4,0:0:0:0:
235,168,166775,1,0,0:0:0:0:
235,168,167525,1,0,0:0:0:0:
235,168,167900,1,0,0:0:0:0:
235,168,168275,1,8,0:0:0:0:
235,168,168650,1,8,0:0:0:0:
235,168,169025,1,4,0:0:0:0:
235,168,169775,1,8,0:0:0:0:
235,168,170525,1,8,0:0:0:0:
235,168,170900,1,8,0:0:0:0:
235,168,171275,1,0,0:0:0:0:
235,168,171650,1,8,0:0:0:0:
235,168,172025,1,4,0:0:0:0:
235,168,172775,1,0,0:0:0:0:
235,168,173525,1,0,0:0:0:0:
225,164,173900,1,0,0:0:0:0:
225,164,174275,1,8,0:0:0:0:
225,164,174650,1,8,0:0:0:0:
225,164,175025,1,4,0:0:0:0:
225,164,175775,1,8,0:0:0:0:
225,164,176525,1,8,0:0:0:0:
225,164,176900,1,0,0:0:0:0:
224,157,177275,1,8,0:0:0:0:
224,157,177650,1,8,0:0:0:0:
256,192,178025,12,0,179525,0:0:0:0:
245,207,181025,5,0,0:0:0:0:
222,207,181775,1,0,0:0:0:0:
226,203,182525,1,8,0:0:0:0:
226,203,182900,1,8,0:0:0:0:
226,203,183275,1,0,0:0:0:0:
226,203,184025,1,0,0:0:0:0:
227,202,187025,1,8,0:0:0:0:
227,202,190025,1,0,0:0:0:0:
227,202,191525,1,0,0:0:0:0:
227,202,192275,1,8,0:0:0:0:
227,202,193025,1,0,0:0:0:0:
227,202,193400,1,8,0:0:0:0:
227,202,193775,1,0,0:0:0:0:
227,202,194150,1,8,0:0:0:0:
227,202,194525,1,8,0:0:0:0:
227,202,195275,1,0,0:0:0:0:
227,202,196025,1,0,0:0:0:0:
227,202,196400,1,0,0:0:0:0:
227,202,196775,1,0,0:0:0:0:
257,184,197150,1,12,0:0:0:0:
257,184,197525,1,8,0:0:0:0:
257,184,197900,1,0,0:0:0:0:
257,184,198275,1,8,0:0:0:0:
257,184,198650,1,0,0:0:0:0:
264,180,198900,1,8,0:0:0:0:
257,184,199025,1,8,0:0:0:0:
257,184,199775,1,8,0:0:0:0:
257,184,200150,1,0,0:0:0:0:
257,184,200525,1,8,0:0:0:0:
257,184,200900,1,0,0:0:0:0:
257,184,201275,1,8,0:0:0:0:
257,184,201650,1,0,0:0:0:0:
248,184,201900,1,8,0:0:0:0:
257,184,202025,1,8,0:0:0:0:
257,184,202775,1,0,0:0:0:0:
257,184,203150,1,8,0:0:0:0:
257,184,203525,1,0,0:0:0:0:
257,184,203900,1,8,0:0:0:0:
257,184,204275,1,8,0:0:0:0:
257,184,205025,1,0,0:0:0:0:
257,184,205775,1,0,0:0:0:0:
257,184,206150,1,8,0:0:0:0:
257,184,206525,1,0,0:0:0:0:
257,184,206900,1,8,0:0:0:0:
257,184,207275,1,8,0:0:0:0:
257,184,208025,1,8,0:0:0:0:
257,184,208775,1,8,0:0:0:0:
257,184,209150,1,0,0:0:0:0:
257,184,209525,1,8,0:0:0:0:
257,184,209900,1,0,0:0:0:0:
257,184,210275,1,8,0:0:0:0:
257,184,210650,1,0,0:0:0:0:
252,180,210900,1,8,0:0:0:0:
257,184,211025,1,8,0:0:0:0:
257,184,211775,1,8,0:0:0:0:
257,184,212150,1,0,0:0:0:0:
257,184,212525,1,8,0:0:0:0:
257,184,212900,1,0,0:0:0:0:
257,184,213275,1,8,0:0:0:0:
257,184,213650,1,0,0:0:0:0:
264,184,213900,1,8,0:0:0:0:
257,184,214025,1,8,0:0:0:0:
257,184,214775,1,0,0:0:0:0:
257,184,215150,1,0,0:0:0:0:
257,184,215525,1,0,0:0:0:0:
257,184,215900,1,8,0:0:0:0:
257,184,216275,1,8,0:0:0:0:
257,184,217025,1,0,0:0:0:0:
257,184,217775,1,0,0:0:0:0:
257,184,218150,1,8,0:0:0:0:
257,184,218525,1,0,0:0:0:0:
257,184,218900,1,8,0:0:0:0:
257,184,219275,1,8,0:0:0:0:
235,171,221150,1,4,0:0:0:0:
257,184,221525,1,4,0:0:0:0:
235,171,221900,1,4,0:0:0:0:
236,170,222275,1,0,0:0:0:0:
235,171,222650,1,8,0:0:0:0:
236,170,223025,1,0,0:0:0:0:
235,171,223775,1,0,0:0:0:0:
235,171,224150,1,8,0:0:0:0:
235,171,224525,1,0,0:0:0:0:
235,171,225275,1,0,0:0:0:0:
235,171,225650,1,8,0:0:0:0:
235,171,226025,1,0,0:0:0:0:
235,171,226775,1,12,0:0:0:0:
235,171,227150,1,4,0:0:0:0:
235,171,227525,1,12,0:0:0:0:
235,171,228275,1,8,0:0:0:0:
235,171,228650,1,0,0:0:0:0:
235,171,229025,1,8,0:0:0:0:
235,171,229400,1,0,0:0:0:0:
246,160,229775,1,8,0:0:0:0:
235,179,230525,1,8,0:0:0:0:
235,179,231275,1,8,0:0:0:0:
235,179,231650,1,0,0:0:0:0:
235,179,232025,1,8,0:0:0:0:
235,179,232400,1,0,0:0:0:0:
235,179,232775,1,12,0:0:0:0:
235,179,233150,1,4,0:0:0:0:
235,179,233525,1,12,0:0:0:0:
