osu file format v14

[General]
AudioFilename: audio.mp3
AudioLeadIn: 0
PreviewTime: 0
Countdown: 1
SampleSet: Normal
StackLeniency: 0.7
Mode: 0
LetterboxInBreaks: 0
WidescreenStoryboard: 0

[Editor]
Bookmarks: 56535,111241,113006,120065,121826,121885,123815
DistanceSpacing: 1.5
BeatDivisor: 4
GridSize: 8
TimelineZoom: 2.350003

[Metadata]
Title:Elegiac
TitleUnicode:Elegiac
Artist:The Human Abstract
ArtistUnicode:The Human Abstract
Creator:Everything Dust
Version:Hard
Source:
Tags:Digital Veil Classical Guitar Baroque
BeatmapID:1854138
BeatmapSetID:886925

[Difficulty]
HPDrainRate:6
CircleSize:3.7
OverallDifficulty:4
ApproachRate:8.5
SliderMultiplier:1.4
SliderTickRate:1

[Events]
//Background and Video events
0,0,"WelcomeToTheRapeOfTheSabineWomen.png",0,0
//Break Periods
2,54971,55860
//Storyboard Layer 0 (Background)
//Storyboard Layer 1 (Fail)
//Storyboard Layer 2 (Pass)
//Storyboard Layer 3 (Foreground)
//Storyboard Sound Samples

[TimingPoints]
65.1673032042222,882.352941176471,4,1,1,50,1,0
56535,-100,4,1,1,100,0,1
113006,-100,4,1,1,50,0,0
120065,909.090909090909,4,1,1,50,1,0
121883,917.090909090909,4,1,1,50,1,0
122800,1016.09090909091,4,1,1,50,1,0
123823,1078.5,4,1,1,50,1,0
124901,1078.5,4,1,1,50,1,0
126160,1168.5,4,1,1,50,1,0

[Colours]
Combo1 : 249,215,113
Combo2 : 255,36,36
Combo3 : 38,166,147

[HitObjects]
178,320,65,6,0,L|289:335,1,105
362,342,947,1,0,0:0:0:0:
362,342,1829,1,0,0:0:0:0:
363,166,2271,2,0,L|321:125,1,52.5
101,120,2712,6,0,L|151:91,1,52.5
199,68,3153,1,0,0:0:0:0:
199,68,3373,1,0,0:0:0:0:
34,222,3594,1,0,0:0:0:0:
181,148,4035,5,0,0:0:0:0:
53,262,4476,1,0,0:0:0:0:
234,259,4918,1,0,0:0:0:0:
53,262,5359,1,0,0:0:0:0:
189,133,5800,5,0,0:0:0:0:
171,243,6241,1,0,0:0:0:0:
153,359,6682,1,0,0:0:0:0:
345,310,7123,5,0,0:0:0:0:
105,279,7565,1,0,0:0:0:0:
375,204,8006,1,0,0:0:0:0:
203,368,8447,5,0,0:0:0:0:
273,123,8888,1,0,0:0:0:0:
236,251,9329,5,0,0:0:0:0:
434,173,9771,1,0,0:0:0:0:
266,353,10212,1,0,0:0:0:0:
432,277,10653,5,0,0:0:0:0:
292,297,11094,1,0,0:0:0:0:
195,196,11535,1,0,0:0:0:0:
200,77,11976,1,0,0:0:0:0:
298,29,12418,1,0,0:0:0:0:
340,115,12859,1,0,0:0:0:0:
165,227,13300,6,0,L|116:158,1,70
90,113,13962,1,0,0:0:0:0:
90,113,14182,1,0,0:0:0:0:
76,197,14623,5,0,0:0:0:0:
208,95,15065,1,0,0:0:0:0:
308,224,15506,1,0,0:0:0:0:
210,350,15947,5,0,0:0:0:0:
130,233,16388,5,0,0:0:0:0:
387,330,16829,1,0,0:0:0:0:
243,120,17271,1,0,0:0:0:0:
290,230,17712,5,0,0:0:0:0:
356,238,17932,1,0,0:0:0:0:
413,205,18153,1,0,0:0:0:0:
356,238,18373,1,0,0:0:0:0:
290,230,18594,5,0,0:0:0:0:
237,188,18814,1,0,0:0:0:0:
220,125,19035,1,0,0:0:0:0:
237,188,19255,1,0,0:0:0:0:
164,231,19476,5,0,0:0:0:0:
311,157,19697,1,0,0:0:0:0:
153,131,19918,5,0,0:0:0:0:
268,262,20138,1,0,0:0:0:0:
248,166,20359,5,0,0:0:0:0:
163,315,20579,1,0,0:0:0:0:
137,229,20800,5,0,0:0:0:0:
314,312,21021,1,0,0:0:0:0:
390,201,21241,5,0,0:0:0:0:
358,258,21462,1,0,0:0:0:0:
390,201,21682,1,0,0:0:0:0:
367,134,21903,1,0,0:0:0:0:
462,145,22123,5,0,0:0:0:0:
287,74,22344,1,0,0:0:0:0:
299,210,22565,5,0,0:0:0:0:
290,224,22638,1,0,0:0:0:0:
277,234,22712,1,0,0:0:0:0:
262,241,22785,2,0,L|236:240,1,17.5
138,208,23006,5,0,0:0:0:0:
107,144,23226,1,0,0:0:0:0:
135,82,23447,1,0,0:0:0:0:
201,68,23668,1,0,0:0:0:0:
264,218,23888,5,0,0:0:0:0:
238,284,24108,1,0,0:0:0:0:
173,306,24329,1,0,0:0:0:0:
118,267,24550,1,0,0:0:0:0:
272,262,24771,5,0,0:0:0:0:
346,243,24991,1,0,0:0:0:0:
404,193,25212,1,0,0:0:0:0:
346,243,25432,1,0,0:0:0:0:
162,196,25653,5,0,0:0:0:0:
107,132,25873,1,0,0:0:0:0:
96,48,26094,1,0,0:0:0:0:
107,132,26315,1,0,0:0:0:0:
205,300,26535,5,0,0:0:0:0:
293,323,26756,1,0,0:0:0:0:
375,284,26976,1,0,0:0:0:0:
293,323,27197,2,0,L|261:319,1,17.5
179,208,27418,5,0,0:0:0:0:
146,353,27638,1,0,0:0:0:0:
225,260,27859,5,0,0:0:0:0:
91,316,28079,1,0,0:0:0:0:
109,238,28300,5,0,0:0:0:0:
200,352,28741,1,0,0:0:0:0:
109,238,29182,1,0,0:0:0:0:
17,356,29623,1,0,0:0:0:0:
77,138,30065,5,0,0:0:0:0:
96,256,30506,1,0,0:0:0:0:
56,21,30947,1,0,0:0:0:0:
77,138,31388,1,0,0:0:0:0:
19,265,31829,5,0,0:0:0:0:
193,284,32271,1,0,0:0:0:0:
340,189,32712,1,0,0:0:0:0:
431,39,33153,1,0,0:0:0:0:
493,265,33594,5,0,0:0:0:0:
319,284,34036,1,0,0:0:0:0:
81,39,34476,1,0,0:0:0:0:
172,189,34918,1,0,0:0:0:0:
285,126,35359,5,0,0:0:0:0:
76,226,35800,1,0,0:0:0:0:
227,72,36241,1,0,0:0:0:0:
127,352,36682,1,0,0:0:0:0:
415,181,37123,5,0,0:0:0:0:
82,246,37565,1,0,0:0:0:0:
342,292,38006,1,0,0:0:0:0:
195,319,38447,1,0,0:0:0:0:
394,274,38888,5,0,0:0:0:0:
413,201,39109,1,0,0:0:0:0:
388,133,39329,1,0,0:0:0:0:
413,201,39550,1,0,0:0:0:0:
307,226,39771,5,0,0:0:0:0:
239,208,39991,1,0,0:0:0:0:
210,142,40212,1,0,0:0:0:0:
239,208,40432,1,0,0:0:0:0:
285,132,40653,5,0,0:0:0:0:
358,113,40874,1,0,0:0:0:0:
426,138,41094,1,0,0:0:0:0:
358,113,41315,1,0,0:0:0:0:
333,219,41536,5,0,0:0:0:0:
351,287,41756,1,0,0:0:0:0:
417,316,41977,1,0,0:0:0:0:
351,287,42197,1,0,0:0:0:0:
287,329,42418,5,0,0:0:0:0:
214,348,42639,1,0,0:0:0:0:
146,323,42859,1,0,0:0:0:0:
214,348,43080,1,0,0:0:0:0:
287,329,43300,5,0,0:0:0:0:
357,304,43521,1,0,0:0:0:0:
427,324,43741,1,0,0:0:0:0:
357,304,43962,1,0,0:0:0:0:
287,329,44182,5,0,0:0:0:0:
214,348,44403,1,0,0:0:0:0:
146,323,44623,1,0,0:0:0:0:
214,348,44844,1,0,0:0:0:0:
166,221,45065,5,0,0:0:0:0:
189,281,45285,1,0,0:0:0:0:
284,203,45506,5,0,0:0:0:0:
286,219,45579,1,0,0:0:0:0:
282,235,45653,1,0,0:0:0:0:
274,250,45726,2,0,L|253:265,1,17.5
201,285,45947,5,0,0:0:0:0:
116,247,46168,1,0,0:0:0:0:
80,162,46388,1,0,0:0:0:0:
109,47,46609,1,0,0:0:0:0:
274,129,46829,5,0,0:0:0:0:
236,214,47050,1,0,0:0:0:0:
151,250,47270,1,0,0:0:0:0:
36,221,47491,1,0,0:0:0:0:
203,65,47712,5,0,0:0:0:0:
288,103,47933,1,0,0:0:0:0:
324,188,48153,1,0,0:0:0:0:
295,303,48373,2,0,L|268:310,1,17.5
195,257,48594,5,0,0:0:0:0:
306,374,48815,1,0,0:0:0:0:
319,237,49035,5,0,0:0:0:0:
415,360,49256,1,0,0:0:0:0:
440,219,49476,5,0,0:0:0:0:
314,353,49918,1,0,0:0:0:0:
486,331,50359,1,0,0:0:0:0:
155,268,50800,5,0,0:0:0:0:
383,305,51241,1,0,0:0:0:0:
215,320,51682,5,0,0:0:0:0:
359,222,52123,1,0,0:0:0:0:
352,372,52565,1,0,0:0:0:0:
275,277,53006,5,0,0:0:0:0:
465,226,53447,1,0,0:0:0:0:
393,379,53888,1,0,0:0:0:0:
275,277,54329,1,0,0:0:0:0:
372,294,54771,5,0,0:0:0:0:
196,206,56535,5,0,0:0:0:0:
196,206,56756,2,0,L|268:227,1,70
358,265,57418,2,0,L|396:158,1,105
190,284,58300,1,0,0:0:0:0:
442,205,58741,1,0,0:0:0:0:
86,211,59182,5,0,0:0:0:0:
299,182,59623,2,0,L|312:140,1,35
114,268,60065,5,0,0:0:0:0:
368,195,60506,1,0,0:0:0:0:
160,323,60947,5,0,0:0:0:0:
365,147,61388,1,0,0:0:0:0:
223,345,61829,5,0,0:0:0:0:
362,104,62271,2,0,L|306:123,1,52.5
154,170,62712,2,0,L|210:197,1,52.5
368,252,63153,2,0,L|318:271,1,52.5
192,289,63594,6,0,L|164:182,1,105
404,239,64476,1,0,0:0:0:0:
107,251,64918,5,0,0:0:0:0:
365,175,65359,1,0,0:0:0:0:
175,278,65800,5,0,0:0:0:0:
444,97,66241,1,0,0:0:0:0:
246,328,66682,1,0,0:0:0:0:
450,151,67123,6,0,L|367:80,1,105
129,220,68006,2,0,L|175:110,1,105
438,83,68888,1,0,0:0:0:0:
438,83,69109,1,0,0:0:0:0:
375,119,69771,5,0,0:0:0:0:
362,131,69881,1,0,0:0:0:0:
349,143,69991,1,0,0:0:0:0:
337,155,70101,1,0,0:0:0:0:
328,173,70212,5,0,0:0:0:0:
313,181,70322,1,0,0:0:0:0:
298,190,70432,1,0,0:0:0:0:
282,198,70543,1,0,0:0:0:0:
241,215,70653,6,0,L|139:177,1,105
67,155,71535,1,0,0:0:0:0:
260,108,71976,5,0,0:0:0:0:
93,249,72418,1,0,0:0:0:0:
35,43,72859,5,0,0:0:0:0:
208,169,73300,1,0,0:0:0:0:
101,35,73741,5,0,0:0:0:0:
101,35,73962,1,0,0:0:0:0:
34,86,74182,5,0,0:0:0:0:
307,121,74623,1,0,0:0:0:0:
37,297,75065,1,0,0:0:0:0:
379,142,75506,1,0,0:0:0:0:
184,187,75947,5,0,0:0:0:0:
394,226,76388,1,0,0:0:0:0:
100,361,76829,1,0,0:0:0:0:
464,322,77271,1,0,0:0:0:0:
272,110,77712,5,0,0:0:0:0:
483,244,78153,1,0,0:0:0:0:
85,214,78594,1,0,0:0:0:0:
299,210,79035,5,0,0:0:0:0:
290,224,79108,1,0,0:0:0:0:
277,234,79182,1,0,0:0:0:0:
262,241,79255,2,0,L|236:240,1,17.5
186,197,79476,5,0,0:0:0:0:
414,54,79918,1,0,0:0:0:0:
284,368,80359,1,0,0:0:0:0:
119,199,80800,1,0,0:0:0:0:
264,137,81241,6,0,L|303:69,1,70
461,72,81903,1,0,0:0:0:0:
455,167,82123,2,0,L|361:218,1,105
315,356,83006,2,0,L|234:339,1,70
128,313,83668,1,0,0:0:0:0:
65,294,83778,1,0,0:0:0:0:
0,275,83888,5,0,0:0:0:0:
374,198,84329,1,0,0:0:0:0:
97,347,84771,2,0,L|93:226,1,105
298,135,85653,2,0,L|327:178,1,52.5
171,263,86094,6,0,L|148:206,1,52.5
277,230,86535,1,0,0:0:0:0:
31,140,86976,1,0,0:0:0:0:
119,310,87418,1,0,0:0:0:0:
139,51,87859,1,0,0:0:0:0:
135,267,88300,6,0,L|232:219,1,105
309,327,89182,2,0,L|406:279,1,105
399,93,90065,1,0,0:0:0:0:
403,230,90506,5,0,0:0:0:0:
469,143,90947,1,0,0:0:0:0:
377,207,91168,1,0,0:0:0:0:
360,208,91278,1,0,0:0:0:0:
341,216,91389,5,0,0:0:0:0:
324,212,91499,1,0,0:0:0:0:
307,210,91609,1,0,0:0:0:0:
290,206,91720,1,0,0:0:0:0:
255,180,91829,5,0,0:0:0:0:
152,269,92271,1,0,0:0:0:0:
100,102,92712,1,0,0:0:0:0:
170,302,93594,2,0,L|103:210,1,105
314,286,94476,2,0,L|292:247,1,35
346,349,94918,5,0,0:0:0:0:
446,294,95359,5,0,0:0:0:0:
481,217,95579,1,0,0:0:0:0:
460,135,95800,1,0,0:0:0:0:
398,77,96021,1,0,0:0:0:0:
319,106,96241,5,0,0:0:0:0:
334,145,96461,1,0,0:0:0:0:
370,167,96682,1,0,0:0:0:0:
412,165,96903,1,0,0:0:0:0:
393,83,97123,5,0,0:0:0:0:
316,48,97343,1,0,0:0:0:0:
234,69,97564,1,0,0:0:0:0:
176,131,97785,1,0,0:0:0:0:
205,210,98005,5,0,0:0:0:0:
244,195,98225,1,0,0:0:0:0:
266,159,98446,1,0,0:0:0:0:
264,117,98667,1,0,0:0:0:0:
166,148,98888,5,0,0:0:0:0:
358,96,99329,1,0,0:0:0:0:
102,266,99771,1,0,0:0:0:0:
410,195,100212,1,0,0:0:0:0:
296,300,100653,6,0,L|178:267,1,105
84,334,101535,2,0,L|77:288,1,35
58,231,101976,5,0,0:0:0:0:
67,217,102049,1,0,0:0:0:0:
79,207,102123,1,0,0:0:0:0:
94,200,102196,2,0,L|120:200,1,17.5
175,294,102418,6,0,L|281:249,1,105
434,99,103300,2,0,L|344:188,1,105
117,87,104182,2,0,L|198:144,1,70
276,185,104844,5,0,0:0:0:0:
276,185,104954,1,0,0:0:0:0:
276,185,105065,2,0,L|219:218,1,35
91,239,105506,2,0,L|137:275,1,35
309,294,105947,2,0,L|220:333,1,70
105,310,106609,1,0,0:0:0:0:
105,310,106829,2,0,L|135:272,1,35
215,148,107271,5,0,0:0:0:0:
159,337,107712,1,0,0:0:0:0:
283,239,108153,5,0,0:0:0:0:
98,223,108594,1,0,0:0:0:0:
221,338,109035,1,0,0:0:0:0:
101,158,109476,6,0,L|165:217,1,70
344,194,110359,2,0,L|263:244,1,70
168,307,111241,5,0,0:0:0:0:
334,320,113006,6,0,L|223:335,1,105
150,342,113888,1,0,0:0:0:0:
150,342,114770,1,0,0:0:0:0:
149,166,115212,2,0,L|191:125,1,52.5
411,120,115653,6,0,L|361:91,1,52.5
313,68,116094,1,0,0:0:0:0:
313,68,116314,1,0,0:0:0:0:
478,222,116535,1,0,0:0:0:0:
331,148,116976,5,0,0:0:0:0:
459,262,117417,1,0,0:0:0:0:
278,259,117859,1,0,0:0:0:0:
459,262,118300,1,0,0:0:0:0:
323,133,118741,5,0,0:0:0:0:
341,243,119182,1,0,0:0:0:0:
359,359,119623,1,0,0:0:0:0:
167,310,120064,5,0,0:0:0:0:
344,269,120506,1,0,0:0:0:0:
185,217,120947,1,0,0:0:0:0:
309,368,121388,5,0,0:0:0:0:
253,151,121883,1,0,0:0:0:0:
282,264,122341,5,0,0:0:0:0:
99,186,122800,1,0,0:0:0:0:
199,345,123308,1,0,0:0:0:0:
316,136,123816,5,0,0:0:0:0:
299,232,124362,1,0,0:0:0:0:
216,273,124901,1,0,0:0:0:0:
189,209,125440,1,0,0:0:0:0:
246,231,126160,1,0,0:0:0:0:
