osu file format v14

[General]
AudioFilename: sage.mp3
AudioLeadIn: 0
PreviewTime: 95968
Countdown: 0
SampleSet: Soft
StackLeniency: 0.5
Mode: 0
LetterboxInBreaks: 0
WidescreenStoryboard: 0

[Editor]
Bookmarks: 65165,140307,150879,157736,162593,301449,310306
DistanceSpacing: 0.6
BeatDivisor: 4
GridSize: 32
TimelineZoom: 2.072

[Metadata]
Title:Sage
TitleUnicode:Sage
Artist:The Herb Shop
ArtistUnicode:The Herb Shop
Creator:SaltyLucario
Version:Salvia Officinalis
Source:
Tags:saltking salty progressive metal prog folk instrumental herbivora vol. 2 japan ths
BeatmapID:2810443
BeatmapSetID:1358032

[Difficulty]
HPDrainRate:5
CircleSize:4
OverallDifficulty:9
ApproachRate:9.5
SliderMultiplier:1.8
SliderTickRate:1

[Events]
//Background and Video events
0,0,"bg.jpg",0,0
//Break Periods
2,47162,53098
//Storyboard Layer 0 (Background)
//Storyboard Layer 1 (Fail)
//Storyboard Layer 2 (Pass)
//Storyboard Layer 3 (Foreground)
//Storyboard Layer 4 (Overlay)
//Storyboard Sound Samples

[TimingPoints]
754,363.636363636364,4,2,1,27,1,0
754,-200,4,2,1,27,0,0
2935,355.029585798817,4,2,1,27,1,0
2935,-200,4,2,1,27,0,0
3659,357.142857142857,4,2,1,27,1,0
3659,-200,4,2,1,27,0,0
4373,342.857142857143,4,2,1,27,1,0
4373,-200,4,2,1,27,0,0
5099,357.142857142857,4,2,1,27,1,0
5099,-200,4,2,1,27,0,0
6536,368.098159509202,4,2,1,27,1,0
6536,-200,4,2,1,27,0,0
8008,370.37037037037,4,2,1,27,1,0
8008,-200,4,2,1,27,0,0
9492,394.736842105263,4,2,1,27,1,0
9492,-200,4,2,1,27,0,0
10236,365.853658536585,4,2,1,27,1,0
10236,-200,4,2,1,27,0,0
10981,375,4,2,1,27,1,0
10981,-200,4,2,1,27,0,0
11726,363.636363636364,4,2,1,27,1,0
11726,-200,4,2,1,27,0,0
12455,387.096774193548,4,2,1,27,1,0
12455,-200,4,2,1,27,0,0
13184,361.44578313253,4,2,1,27,1,0
13184,-200,4,2,1,27,0,0
13919,361.44578313253,4,2,1,27,1,0
13919,-200,4,2,1,27,0,0
14641,384.615384615385,4,2,1,27,1,0
14641,-200,4,2,1,27,0,0
15410,363.636363636364,4,2,1,27,1,0
15410,-200,4,2,1,27,0,0
16109,377.358490566038,4,2,1,27,1,0
16109,-200,4,2,1,27,0,0
16843,370.37037037037,4,2,1,27,1,0
16843,-200,4,2,1,27,0,0
17555,375,4,2,1,27,1,0
17555,-200,4,2,1,27,0,0
18329,363.636363636364,4,2,1,27,1,0
18329,-200,4,2,1,27,0,0
19797,377.358490566038,4,2,1,27,1,0
19797,-200,4,2,1,27,0,0
20887,363.636363636364,4,2,1,27,1,0
21301,422.535211267606,4,2,1,27,1,0
21301,-200,4,2,1,27,0,0
22065,352.941176470588,4,2,1,27,1,0
22065,-200,4,2,1,27,0,0
22767,396.039603960396,4,2,1,27,1,0
22767,-250,4,2,1,27,0,0
23757,-250,4,2,1,5,0,0
24178,382.165605095541,4,2,1,27,1,0
24178,-200,4,2,1,27,0,0
24900,344.827586206897,4,2,1,27,1,0
24900,-200,4,2,1,27,0,0
25589,337.078651685393,4,2,1,27,1,0
25589,-200,4,2,1,27,0,0
26991,363.636363636364,4,2,1,27,1,0
26991,-200,4,2,1,27,0,0
27684,348.837209302326,4,2,1,27,1,0
27684,-200,4,2,1,27,0,0
28391,359.281437125748,4,2,1,27,1,0
28391,-200,4,2,1,27,0,0
29648,-200,4,2,1,5,0,0
29811,359.281437125748,4,2,1,27,1,0
29811,-200,4,2,1,27,0,0
31234,352.941176470588,4,2,1,27,1,0
31234,-200,4,2,1,27,0,0
32258,326.086956521739,4,2,1,27,1,0
32644,333.333333333333,4,2,1,27,1,0
32644,-200,4,2,1,27,0,0
33386,375,4,2,1,27,1,0
33386,-250,4,2,1,27,0,0
34190,389.61038961039,4,2,1,27,1,0
34190,-285.714285714286,4,2,1,27,0,0
35748,-285.714285714286,4,2,1,5,0,0
36228,315.789473684211,4,2,1,27,1,0
36228,-250,4,2,1,27,0,0
37265,346.820809248555,4,2,1,27,1,0
37265,-200,4,2,1,27,0,0
37968,352.941176470588,4,2,1,27,1,0
37968,-200,4,2,1,27,0,0
39025,285.714285714286,4,2,1,27,1,0
39025,-200,4,2,1,27,0,0
39422,365.853658536585,4,2,1,27,1,0
39422,-200,4,2,1,27,0,0
40153,342.857142857143,4,2,1,27,1,0
40153,-200,4,2,1,27,0,0
40878,342.857142857143,4,2,1,27,1,0
40878,-200,4,2,1,27,0,0
41583,342.857142857143,4,2,1,27,1,0
41583,-200,4,2,1,27,0,0
42097,-200,4,2,1,5,0,0
42298,340.909090909091,4,2,1,27,1,0
42298,-200,4,2,1,27,0,0
42468,363.636363636364,4,2,1,27,1,0
42468,-200,4,2,1,27,0,0
43213,344.827586206897,4,2,1,27,1,0
43213,-200,4,2,1,27,0,0
43936,375,4,2,1,27,1,0
43936,-200,4,2,1,27,0,0
44605,344.827586206897,4,2,1,27,1,0
44605,-200,4,2,1,27,0,0
44719,-200,4,2,1,5,0,0
45149,315.789473684211,4,2,1,27,1,0
45149,-285.714285714286,4,2,1,27,0,0
45464,-285.714285714286,4,2,1,5,0,0
45810,300,4,2,1,27,1,0
45810,-200,4,2,1,27,0,0
46110,340.909090909091,4,2,1,27,1,0
46110,-285.714285714286,4,2,1,27,0,0
46962,-200,4,2,1,5,0,0
54023,287.081339712919,6,2,1,45,1,0
54453,-100,6,2,4,45,0,0
54880,285.714285714286,6,2,2,65,1,0
54951,-100,6,2,1,65,0,0
55022,-100,6,2,3,65,0,0
55094,-100,6,2,1,65,0,0
55165,-100,6,2,3,65,0,0
55237,-100,6,2,1,65,0,0
55308,-100,6,2,3,65,0,0
55380,-100,6,2,1,65,0,0
55451,-100,6,2,3,65,0,0
55522,-100,6,2,1,65,0,0
55594,-100,6,2,3,65,0,0
55665,-100,6,2,1,65,0,0
55737,-100,6,2,3,65,0,0
55808,-100,6,2,1,65,0,0
55880,-100,6,2,3,65,0,0
55951,-100,6,2,1,65,0,0
56022,-100,6,2,3,65,0,0
56094,-100,6,2,1,65,0,0
56165,-100,6,2,3,65,0,0
56237,-100,6,2,1,65,0,0
56308,-100,6,2,3,65,0,0
56380,-100,6,2,1,65,0,0
56451,-100,6,2,3,65,0,0
56522,-100,6,2,1,65,0,0
56594,-100,6,2,3,65,0,0
56665,-100,6,2,1,65,0,0
56737,-100,6,2,3,65,0,0
56808,-100,6,2,1,65,0,0
56880,-100,6,2,3,65,0,0
56951,-100,6,2,1,65,0,0
57022,-100,6,2,3,65,0,0
57094,-100,6,2,1,65,0,0
57165,-100,6,2,3,65,0,0
57237,-100,6,2,1,65,0,0
57308,-100,6,2,3,65,0,0
57380,-100,6,2,1,65,0,0
57451,-100,6,2,3,65,0,0
57522,-100,6,2,1,65,0,0
57594,-100,6,2,3,65,0,0
57665,-100,6,2,1,65,0,0
57737,-100,6,2,3,65,0,0
57808,-100,6,2,1,65,0,0
57880,-100,6,2,3,65,0,0
57951,-100,6,2,1,65,0,0
58022,-100,6,2,3,65,0,0
58094,-100,6,2,1,65,0,0
58165,-100,6,2,3,65,0,0
58237,-100,6,2,1,65,0,0
58308,-100,6,2,4,65,0,0
58380,-100,6,2,1,65,0,0
58451,-100,6,2,3,65,0,0
58522,-100,6,2,1,65,0,0
58594,-100,6,2,3,65,0,0
58665,-100,6,2,1,65,0,0
58737,-100,6,2,3,65,0,0
58808,-100,6,2,1,65,0,0
58880,-100,6,2,3,65,0,0
58951,-100,6,2,1,65,0,0
59022,-100,6,2,3,65,0,0
59094,-100,6,2,1,65,0,0
59165,-100,6,2,3,65,0,0
59237,-100,6,2,1,65,0,0
59308,-100,6,2,3,65,0,0
59380,-100,6,2,1,65,0,0
59451,-100,6,2,3,65,0,0
59522,-100,6,2,1,65,0,0
59594,-100,6,2,3,65,0,0
59665,-100,6,2,1,65,0,0
59737,-100,6,2,3,65,0,0
59808,-100,6,2,1,65,0,0
59880,-100,6,2,3,65,0,0
59951,-100,6,2,1,65,0,0
60022,-100,6,2,4,65,0,0
60094,-100,6,2,1,65,0,0
60165,-100,6,2,3,65,0,0
60237,-100,6,2,1,65,0,0
60308,-100,6,2,3,65,0,0
60380,-100,6,2,1,65,0,0
60451,-100,6,2,3,65,0,0
60522,-100,6,2,1,65,0,0
60594,-100,6,2,3,65,0,0
60665,-100,6,2,1,65,0,0
60737,-100,6,2,3,65,0,0
60808,-100,6,2,1,65,0,0
60880,-100,6,2,2,65,0,0
61451,-142.857142857143,6,2,2,35,0,0
61737,-100,6,2,2,65,0,0
61808,-100,6,2,1,65,0,0
61880,-100,6,2,3,65,0,0
61951,-100,6,2,1,65,0,0
62022,-100,6,2,3,65,0,0
62094,-100,6,2,1,65,0,0
62165,-100,6,2,3,65,0,0
62237,-100,6,2,1,65,0,0
62308,-100,6,2,3,65,0,0
62380,-100,6,2,1,65,0,0
62451,-100,6,2,3,65,0,0
62522,-100,6,2,1,65,0,0
62594,-100,6,2,3,65,0,0
62665,-100,6,2,1,65,0,0
62737,-100,6,2,3,65,0,0
62808,-100,6,2,1,65,0,0
62880,-100,6,2,3,65,0,0
62951,-100,6,2,1,65,0,0
63022,-100,6,2,3,65,0,0
63094,-100,6,2,1,65,0,0
63165,-100,6,2,3,65,0,0
63237,-100,6,2,1,65,0,0
63308,-100,6,2,3,65,0,0
63380,-100,6,2,1,65,0,0
63451,-100,6,2,3,65,0,0
63522,-100,6,2,1,65,0,0
63594,-100,6,2,3,65,0,0
63665,-100,6,2,1,65,0,0
63737,-100,6,2,3,65,0,0
63808,-100,6,2,1,65,0,0
63880,-100,6,2,3,65,0,0
63951,-100,6,2,1,65,0,0
64022,-100,6,2,3,65,0,0
64094,-100,6,2,1,65,0,0
64165,-100,6,2,3,65,0,0
64237,-100,6,2,1,65,0,0
64308,-100,6,2,3,65,0,0
64380,-100,6,2,1,65,0,0
64451,-100,6,2,3,65,0,0
64522,-100,6,2,1,65,0,0
64594,-100,6,2,4,65,0,0
64665,-100,6,2,1,65,0,0
64737,-100,6,2,3,65,0,0
64808,-100,6,2,1,65,0,0
64880,-100,6,2,3,65,0,0
64951,-100,6,2,1,65,0,0
65022,-100,6,2,3,65,0,0
65094,-100,6,2,1,65,0,0
65165,-100,6,2,3,65,0,0
65237,-100,6,2,1,65,0,0
65308,-100,6,2,3,65,0,0
65380,-100,6,2,1,65,0,0
65451,-100,6,2,3,65,0,0
65522,-100,6,2,1,65,0,0
65594,-100,6,2,3,65,0,0
65665,-100,6,2,1,65,0,0
65737,-100,6,2,3,65,0,0
65808,-100,6,2,1,65,0,0
65880,-100,6,2,3,65,0,0
65951,-100,6,2,1,65,0,0
66022,-100,6,2,3,65,0,0
66094,-100,6,2,1,65,0,0
66165,-100,6,2,3,65,0,0
66237,-100,6,2,1,65,0,0
66308,-100,6,2,3,65,0,0
66380,-100,6,2,1,65,0,0
66451,-100,6,2,3,65,0,0
66522,-100,6,2,1,65,0,0
66594,-100,6,2,3,65,0,0
66665,-100,6,2,1,65,0,0
66737,-100,6,2,3,65,0,0
66808,-100,6,2,1,65,0,0
66880,-100,6,2,3,65,0,0
66951,-100,6,2,1,65,0,0
67022,-100,6,2,3,65,0,0
67094,-100,6,2,1,65,0,0
67165,-100,6,2,3,65,0,0
67237,-100,6,2,1,65,0,0
67308,-100,6,2,3,65,0,0
67380,-100,6,2,1,65,0,0
67451,-100,6,2,3,65,0,0
67522,-100,6,2,1,65,0,0
67594,-100,6,2,3,65,0,0
67665,-100,6,2,1,65,0,0
67737,-100,6,2,3,65,0,0
67808,-100,6,2,1,65,0,0
67880,-100,6,2,3,65,0,0
67951,-100,6,2,1,65,0,0
68022,-100,6,2,4,65,0,0
68094,-100,6,2,1,65,0,0
68165,-100,6,2,3,65,0,0
68380,-100,6,2,1,65,0,0
68451,-100,6,2,3,65,0,0
68594,-90.9090909090909,6,2,3,65,0,0
69165,-90.9090909090909,6,2,2,65,0,0
75165,-90.9090909090909,6,2,2,35,0,0
75451,-90.9090909090909,6,2,2,65,0,0
79094,-90.9090909090909,6,2,2,5,0,0
79165,-90.9090909090909,6,2,4,65,0,0
80308,-90.9090909090909,6,2,4,50,0,0
80451,-90.9090909090909,6,2,4,35,0,0
80594,-90.9090909090909,6,2,2,65,0,0
81451,-90.9090909090909,6,2,2,65,0,0
82022,-90.9090909090909,6,2,1,65,0,0
82165,-90.9090909090909,6,2,2,65,0,0
82316,428.571428571429,4,2,2,50,1,0
82316,-71.4285714285714,4,2,2,50,0,0
85173,-71.4285714285714,4,2,4,50,0,0
85316,-71.4285714285714,4,2,1,50,0,0
85458,-71.4285714285714,4,2,4,50,0,0
85744,-71.4285714285714,4,2,2,50,0,0
88601,-71.4285714285714,4,2,4,50,0,0
88744,-71.4285714285714,4,2,1,50,0,0
88887,-71.4285714285714,4,2,4,50,0,0
89173,-71.4285714285714,4,2,2,50,0,0
92030,-71.4285714285714,4,2,4,50,0,0
92173,-71.4285714285714,4,2,1,50,0,0
92316,-71.4285714285714,4,2,4,50,0,0
92601,-71.4285714285714,4,2,2,50,0,0
94530,-71.4285714285714,4,2,2,5,0,0
94601,-71.4285714285714,4,2,2,50,0,0
94816,-71.4285714285714,4,2,2,5,0,0
94887,-71.4285714285714,4,2,2,50,0,0
95101,-71.4285714285714,4,2,2,5,0,0
95173,-71.4285714285714,4,2,2,50,0,0
95744,-58.8235294117647,4,2,2,50,0,0
96030,279.72027972028,6,2,1,27,1,0
96030,-200,6,2,1,27,0,0
97172,285.714285714286,6,2,1,27,1,0
97172,-200,6,2,1,27,0,0
97754,267.857142857143,6,2,1,27,1,0
97754,-200,6,2,1,27,0,0
98611,291.26213592233,6,2,1,27,1,0
98611,-200,6,2,1,27,0,0
99500,357.142857142857,6,2,1,27,1,0
99500,-158.730158730159,6,2,1,27,0,0
100333,277.777777777778,6,2,1,27,1,0
100333,-200,6,2,1,27,0,0
101194,285.714285714286,6,2,1,27,1,0
101194,-200,6,2,1,27,0,0
103336,266.075388026608,6,2,1,27,1,0
103336,-200,6,2,1,27,0,0
103735,297.029702970297,6,2,1,27,1,0
103735,-200,6,2,1,27,0,0
104649,260.869565217391,6,2,1,27,1,0
104649,-200,6,2,1,27,0,0
105733,289.855072463768,6,2,1,27,1,0
105733,-200,6,2,1,27,0,0
106322,260.869565217391,6,2,1,27,1,0
106322,-200,6,2,1,27,0,0
106867,303.030303030303,6,2,1,27,1,0
106867,-200,6,2,1,27,0,0
108022,285.714285714286,6,2,2,55,1,0
108236,-100,6,2,2,5,0,0
108307,-100,6,2,2,55,0,0
108521,-100,6,2,2,5,0,0
108593,-100,6,2,2,55,0,0
109736,-111.111111111111,6,2,2,55,0,0
111164,-111.111111111111,6,2,4,55,0,0
111736,-111.111111111111,6,2,2,55,0,0
112307,-111.111111111111,6,2,4,55,0,0
112879,-111.111111111111,6,2,2,55,0,0
114022,-111.111111111111,6,2,4,55,0,0
114164,-111.111111111111,6,2,5,55,0,0
114450,-111.111111111111,6,2,4,55,0,0
115164,-111.111111111111,6,2,2,55,0,0
115736,-111.111111111111,6,2,4,55,0,0
116593,-111.111111111111,6,2,2,55,0,0
118022,-111.111111111111,6,2,4,55,0,0
118593,-111.111111111111,6,2,2,55,0,0
119164,-111.111111111111,6,2,4,55,0,0
119736,-111.111111111111,6,2,2,55,0,0
120879,-111.111111111111,6,2,4,55,0,0
121022,-111.111111111111,6,2,5,55,0,0
121307,-111.111111111111,6,2,2,55,0,0
122879,-111.111111111111,6,2,1,55,0,0
123164,-111.111111111111,6,2,2,55,0,0
123450,-100,6,2,2,65,0,0
123664,-100,6,2,2,5,0,0
123736,-100,6,2,2,65,0,0
124879,-100,6,2,4,65,0,0
125093,-100,6,2,4,5,0,0
125164,-80,6,2,4,65,0,0
125378,-80,6,2,4,5,0,0
125450,-100,6,2,2,65,0,0
126736,-100,6,2,1,65,0,0
127093,-100,6,2,1,5,0,0
127164,-100,6,2,2,65,0,0
127593,-100,6,2,1,65,0,0
127950,-100,6,2,1,5,0,0
128022,-100,6,2,2,65,0,0
128236,-100,6,2,2,5,0,0
128307,-100,6,2,2,65,0,0
128521,-100,6,2,2,5,0,0
128593,-100,6,2,2,65,0,0
129593,-125,6,2,2,65,0,0
130307,-100,6,2,2,65,0,0
130521,-100,6,2,2,5,0,0
130593,-100,6,2,2,65,0,0
131736,-100,6,2,4,65,0,0
132236,-100,6,2,4,5,0,0
132307,-100,6,2,2,65,0,0
132521,-100,6,2,2,5,0,0
132593,-100,6,2,2,65,0,0
132807,-100,6,2,2,5,0,0
132879,-100,6,2,2,65,0,0
133593,-100,6,2,1,65,0,0
134022,-100,6,2,2,65,0,0
136593,-100,6,2,3,65,0,0
137164,-90.9090909090909,6,2,3,72,0,0
137378,-90.9090909090909,6,2,3,5,0,0
137450,-90.9090909090909,6,2,2,72,0,0
137593,-90.9090909090909,6,2,5,72,0,0
137879,-90.9090909090909,6,2,4,72,0,0
138022,-66.6666666666667,6,2,4,72,0,0
138450,-66.6666666666667,6,2,4,5,0,0
138593,-66.6666666666667,6,2,4,72,0,0
138879,-74.0740740740741,6,2,2,72,0,0
139092,-74.0740740740741,6,2,2,5,0,0
139164,-74.0740740740741,6,2,2,72,0,0
139736,-62.5,6,2,4,72,0,0
139950,-62.5,6,2,4,5,0,0
140022,-62.5,6,2,1,72,0,0
140236,-62.5,6,2,1,5,0,0
140307,-62.5,6,2,2,72,0,0
140521,-62.5,6,2,2,5,0,0
140593,-74.0740740740741,6,2,2,72,0,0
140807,-74.0740740740741,6,2,2,5,0,0
140879,-74.0740740740741,6,2,2,72,0,0
141450,-74.0740740740741,6,2,4,72,0,0
141950,-74.0740740740741,6,2,4,5,0,0
142022,-74.0740740740741,6,2,4,72,0,0
142164,-74.0740740740741,6,2,1,72,0,0
142522,-74.0740740740741,6,2,1,5,0,0
142593,-74.0740740740741,6,2,3,72,0,0
142736,-74.0740740740741,6,2,4,72,0,0
143164,-62.5,6,2,2,72,0,0
143949,-62.5,6,2,2,5,0,0
144022,-74.0740740740741,6,2,2,72,0,0
144450,-74.0740740740741,6,2,1,72,0,0
144879,-74.0740740740741,6,2,2,72,0,0
145164,-74.0740740740741,6,2,2,5,0,0
145260,-74.0740740740741,6,2,2,72,0,0
145950,-74.0740740740741,6,2,2,5,0,0
146022,-74.0740740740741,6,2,2,72,0,0
146164,-74.0740740740741,6,2,5,72,0,0
146307,-74.0740740740741,6,2,1,72,0,0
146593,-62.5,6,2,1,72,0,0
146807,-62.5,6,2,1,5,0,0
146879,-62.5,6,2,4,72,0,0
147450,-74.0740740740741,6,2,2,72,0,0
147664,-74.0740740740741,6,2,2,5,0,0
147736,-74.0740740740741,6,2,2,72,0,0
147879,-74.0740740740741,6,2,5,72,0,0
148022,-74.0740740740741,6,2,4,72,0,0
148307,-68.9655172413793,6,2,4,72,0,0
149164,-74.0740740740741,6,2,2,72,0,0
150879,-80,6,2,2,65,0,0
151093,-80,6,2,2,5,0,0
151164,-80,6,2,2,65,0,0
151307,-80,6,2,4,65,0,0
151736,-80,6,2,2,65,0,0
152521,-80,6,2,2,5,0,0
152593,-80,6,2,4,65,0,0
152736,-80,6,2,1,65,0,0
153022,-80,6,2,4,65,0,0
153307,-80,6,2,4,5,0,0
153379,-80,6,2,4,65,0,0
153450,-80,6,2,2,65,0,0
153593,-80,6,2,1,65,0,0
153736,-80,6,2,2,65,0,0
154736,-80,6,2,4,65,0,0
155021,-80,6,2,4,5,0,0
155164,-80,6,2,4,65,0,0
155950,-80,6,2,4,5,0,0
156022,-80,6,2,2,65,0,0
157807,-80,6,2,1,65,0,0
157879,-80,6,2,3,65,0,0
157950,-80,6,2,1,65,0,0
158022,-80,6,2,3,65,0,0
158093,-80,6,2,1,65,0,0
158164,-80,6,2,3,65,0,0
158236,-80,6,2,1,65,0,0
158307,-80,6,2,3,65,0,0
158379,-80,6,2,1,65,0,0
158450,-80,6,2,3,65,0,0
158522,-80,6,2,1,65,0,0
158593,-80,6,2,3,65,0,0
158664,-80,6,2,1,65,0,0
158736,-80,6,2,3,65,0,0
158807,-80,6,2,1,65,0,0
158879,-80,6,2,3,65,0,0
158950,-80,6,2,1,65,0,0
159022,-80,6,2,3,65,0,0
159093,-80,6,2,1,65,0,0
159164,-80,6,2,3,65,0,0
159236,-80,6,2,1,65,0,0
159307,-80,6,2,3,65,0,0
159379,-80,6,2,1,65,0,0
159593,-80,6,2,3,65,0,0
159664,-80,6,2,1,65,0,0
159736,-80,6,2,3,65,0,0
159807,-80,6,2,1,65,0,0
159879,-80,6,2,3,65,0,0
159950,-80,6,2,1,65,0,0
160022,-80,6,2,3,65,0,0
160093,-80,6,2,1,65,0,0
160164,-80,6,2,3,65,0,0
160236,-80,6,2,1,65,0,0
160307,-80,6,2,3,65,0,0
160379,-80,6,2,1,65,0,0
160450,-80,6,2,3,65,0,0
160522,-80,6,2,1,65,0,0
160593,-80,6,2,3,65,0,0
160664,-80,6,2,1,65,0,0
160736,-80,6,2,3,65,0,0
160807,-80,6,2,1,65,0,0
160879,-80,6,2,3,65,0,0
160950,-80,6,2,1,65,0,0
161022,-80,6,2,3,65,0,0
161093,-80,6,2,1,65,0,0
161307,-80,6,2,3,65,0,0
161379,-80,6,2,1,65,0,0
161450,-80,6,2,3,65,0,0
161522,-80,6,2,1,65,0,0
161593,-80,6,2,3,65,0,0
161664,-80,6,2,1,65,0,0
161736,-80,6,2,3,65,0,0
161807,-80,6,2,1,65,0,0
161879,-80,6,2,3,65,0,0
161950,-80,6,2,1,65,0,0
162022,-80,6,2,3,65,0,0
162093,-80,6,2,1,65,0,0
162164,-80,6,2,3,65,0,0
162236,-80,6,2,1,65,0,0
162307,-80,6,2,3,65,0,0
162379,-80,6,2,1,65,0,0
162450,-80,6,2,3,65,0,0
162522,-80,6,2,1,65,0,0
162593,-80,6,2,3,65,0,0
162664,-80,6,2,1,65,0,0
162736,-80,6,2,3,65,0,0
162807,-80,6,2,1,65,0,0
162879,-80,6,2,4,65,0,0
162950,-80,6,2,2,65,0,0
163164,-80,6,2,1,65,0,0
163450,-117.647058823529,6,2,1,65,0,0
163736,-80,6,2,4,65,0,0
164093,-80,6,2,1,65,0,0
164379,-80,6,2,4,65,0,0
164593,-80,6,2,1,65,0,0
164878,-80,6,2,1,5,0,0
165498,-80,6,2,1,65,0,0
168022,-80,6,2,2,65,0,0
168783,-64.5161290322581,6,2,2,65,0,0
170485,-64.5161290322581,6,2,2,5,0,0
170592,-64.5161290322581,6,2,2,65,0,0
171164,-100,6,2,2,52,0,0
171450,428.571428571429,11,2,2,65,1,0
171450,-66.6666666666667,6,2,2,65,0,0
173974,-66.6666666666667,6,2,2,5,0,0
174022,-66.6666666666667,6,2,2,65,0,0
183164,-66.6666666666667,6,2,4,65,0,0
183879,-66.6666666666667,6,2,5,65,0,0
184022,-66.6666666666667,6,2,3,65,0,0
184736,-166.666666666667,6,2,2,65,0,0
185093,-66.6666666666667,6,2,2,5,0,0
185164,428.571428571429,4,2,2,65,1,0
185164,-71.4285714285714,4,2,2,65,0,0
187306,-71.4285714285714,4,2,4,65,0,0
187735,-71.4285714285714,4,2,2,65,0,0
188164,-52.6315789473684,4,2,4,65,0,0
188521,-52.6315789473684,4,2,4,5,0,0
188592,-71.4285714285714,4,2,2,65,0,0
190164,-71.4285714285714,4,2,4,65,0,0
190306,-71.4285714285714,4,2,2,65,0,0
190735,-71.4285714285714,4,2,4,65,0,0
191164,-71.4285714285714,4,2,2,65,0,0
191592,-71.4285714285714,4,2,4,65,0,0
192021,-71.4285714285714,4,2,2,65,0,0
193592,-71.4285714285714,4,2,4,65,0,0
193735,-71.4285714285714,4,2,2,65,0,0
193878,-71.4285714285714,4,2,4,65,0,0
194592,-71.4285714285714,4,2,2,65,0,0
194878,-71.4285714285714,4,2,1,65,0,0
195021,-52.6315789473684,4,2,4,65,0,0
195378,-52.6315789473684,4,2,4,5,0,0
195449,-71.4285714285714,4,2,2,65,0,0
196735,-71.4285714285714,4,2,4,65,0,0
197164,-71.4285714285714,4,2,2,65,0,0
198878,285.714285714286,6,2,2,65,1,0
198878,-111.111111111111,6,2,2,65,0,0
200306,-111.111111111111,6,2,4,65,0,0
200878,-111.111111111111,6,2,2,65,0,0
201449,-111.111111111111,6,2,4,65,0,0
201735,-111.111111111111,6,2,2,65,0,0
203163,-111.111111111111,6,2,4,65,0,0
203306,-111.111111111111,6,2,5,65,0,0
203592,-111.111111111111,6,2,4,65,0,0
204306,-111.111111111111,6,2,2,65,0,0
204878,-111.111111111111,6,2,4,65,0,0
205735,-111.111111111111,6,2,2,65,0,0
207163,-111.111111111111,6,2,4,65,0,0
207735,-111.111111111111,6,2,2,65,0,0
210020,-111.111111111111,6,2,4,65,0,0
210163,-111.111111111111,6,2,5,65,0,0
210449,-111.111111111111,6,2,2,65,0,0
212592,-100,6,2,2,65,0,0
217735,-100,6,2,4,65,0,0
218020,-100,6,2,2,65,0,0
226520,-100,6,2,2,5,0,0
226592,-100,6,2,2,65,0,0
227163,-133.333333333333,6,2,2,65,0,0
228020,-133.333333333333,6,2,2,40,0,0
228305,-133.333333333333,6,2,2,5,0,0
228449,-133.333333333333,6,2,2,40,0,0
230020,-133.333333333333,6,2,2,5,0,0
230163,-133.333333333333,6,2,2,40,0,0
231734,-133.333333333333,6,2,2,5,0,0
231878,-133.333333333333,6,2,2,40,0,0
233448,-133.333333333333,6,2,2,5,0,0
233592,-133.333333333333,6,2,2,40,0,0
234878,-153.846153846153,6,2,2,30,0,0
235163,-153.846153846153,6,2,2,5,0,0
235306,-153.846153846153,6,2,2,30,0,0
235591,-153.846153846153,6,2,2,5,0,0
235735,-153.846153846153,6,2,2,30,0,0
236877,-153.846153846153,6,2,2,5,0,0
237020,-153.846153846153,6,2,2,30,0,0
237305,-153.846153846153,6,2,2,5,0,0
237449,-153.846153846153,6,2,2,30,0,0
238591,-153.846153846153,6,2,2,5,0,0
238735,-153.846153846153,6,2,2,30,0,0
239020,-153.846153846153,6,2,2,5,0,0
239163,-153.846153846153,6,2,2,30,0,0
240020,-133.333333333333,6,2,4,40,0,0
240378,-133.333333333333,6,2,1,40,0,0
240592,-133.333333333333,6,2,2,50,0,0
241306,-117.647058823529,6,2,2,50,0,0
244806,-117.647058823529,6,2,2,5,0,0
244878,-117.647058823529,6,2,2,50,0,0
245949,-117.647058823529,6,2,2,5,0,0
246020,-117.647058823529,6,2,2,50,0,0
251663,-117.647058823529,6,2,2,5,0,0
251735,-117.647058823529,6,2,2,50,0,0
252806,-117.647058823529,6,2,2,5,0,0
252878,-117.647058823529,6,2,2,50,0,0
254806,-117.647058823529,6,2,2,5,0,0
254878,-117.647058823529,6,2,2,50,0,0
255092,-117.647058823529,6,2,2,5,0,0
255163,-117.647058823529,6,2,2,50,0,0
255449,-105.263157894737,6,2,2,60,0,0
255878,-105.263157894737,6,2,5,60,0,0
256163,-105.263157894737,6,2,2,60,0,0
256520,-105.263157894737,6,2,2,5,0,0
256592,-105.263157894737,6,2,2,60,0,0
256806,-105.263157894737,6,2,2,5,0,0
256878,-105.263157894737,6,2,2,60,0,0
257092,-105.263157894737,6,2,2,5,0,0
257164,-105.263157894737,6,2,2,60,0,0
257592,-105.263157894737,6,2,5,60,0,0
257878,-105.263157894737,6,2,2,60,0,0
259306,-105.263157894737,6,2,5,60,0,0
259592,-105.263157894737,6,2,2,60,0,0
259949,-105.263157894737,6,2,2,5,0,0
260021,-105.263157894737,6,2,2,60,0,0
260235,-105.263157894737,6,2,2,5,0,0
260307,-105.263157894737,6,2,2,60,0,0
260520,-105.263157894737,6,2,2,5,0,0
260592,-105.263157894737,6,2,2,60,0,0
261020,-105.263157894737,6,2,5,60,0,0
261306,-105.263157894737,6,2,2,60,0,0
261663,-105.263157894737,6,2,2,5,0,0
261735,-105.263157894737,6,2,2,60,0,0
261949,-105.263157894737,6,2,2,5,0,0
262020,-105.263157894737,6,2,1,60,0,0
262163,-105.263157894737,6,2,2,60,0,0
262735,-105.263157894737,6,2,5,60,0,0
263020,-105.263157894737,6,2,2,60,0,0
263378,-105.263157894737,6,2,2,5,0,0
263450,-105.263157894737,6,2,2,60,0,0
263663,-105.263157894737,6,2,2,5,0,0
263735,-105.263157894737,6,2,2,60,0,0
263949,-105.263157894737,6,2,2,5,0,0
264021,-105.263157894737,6,2,2,60,0,0
264449,-105.263157894737,6,2,5,60,0,0
264735,-105.263157894737,6,2,2,60,0,0
265378,-105.263157894737,6,2,2,5,0,0
265450,-105.263157894737,6,2,2,60,0,0
266163,-105.263157894737,6,2,5,60,0,0
266449,-105.263157894737,6,2,2,60,0,0
266806,-105.263157894737,6,2,2,5,0,0
266878,-105.263157894737,6,2,2,60,0,0
267092,-105.263157894737,6,2,2,5,0,0
267164,-105.263157894737,6,2,2,60,0,0
267378,-105.263157894737,6,2,2,5,0,0
267450,-105.263157894737,6,2,2,60,0,0
267878,-105.263157894737,6,2,5,60,0,0
268163,-105.263157894737,6,2,2,60,0,0
268520,-105.263157894737,6,2,2,5,0,0
268592,-105.263157894737,6,2,2,60,0,0
268806,-105.263157894737,6,2,2,5,0,0
268878,-105.263157894737,6,2,1,60,0,0
269020,-105.263157894737,6,2,3,60,0,0
270235,-105.263157894737,6,2,3,5,0,0
270306,-105.263157894737,6,2,3,60,0,0
270520,-105.263157894737,6,2,3,5,0,0
270592,-105.263157894737,6,2,3,60,0,0
270806,-105.263157894737,6,2,3,5,0,0
270878,-105.263157894737,6,2,3,60,0,0
271449,-105.263157894737,6,2,6,60,0,0
271592,-105.263157894737,6,2,3,60,0,0
274949,-105.263157894737,6,2,1,60,0,0
275163,-105.263157894737,6,2,2,60,0,0
276306,-105.263157894737,6,2,3,60,0,0
278378,-105.263157894737,6,2,1,60,0,0
278592,-105.263157894737,6,2,3,60,0,0
279020,-86.9565217391306,6,2,3,60,0,0
279735,-86.9565217391306,6,2,2,60,0,0
279949,-86.9565217391306,6,2,2,60,0,0
280020,-105.263157894737,6,2,2,60,0,0
281735,-105.263157894737,6,2,1,60,0,0
282020,-105.263157894737,6,2,2,60,0,0
282449,-250,6,2,4,60,0,0
282806,-250,6,2,2,5,0,0
282878,428.571428571429,4,2,2,50,1,0
282878,-66.6666666666667,4,2,2,50,0,0
285735,-66.6666666666667,4,2,4,50,0,0
286306,-66.6666666666667,4,2,2,50,0,0
288020,-60.6060606060606,4,2,4,50,0,0
289306,-95.2380952380952,4,2,4,50,0,0
289735,-62.5,4,2,2,50,0,0
296592,285.714285714286,6,2,2,63,1,0
296592,-86.9565217391304,6,2,2,63,0,0
297449,-74.0740740740741,6,2,5,63,0,0
297592,-74.0740740740741,6,2,4,63,0,0
297948,-74.0740740740741,6,2,4,5,0,0
298020,-74.0740740740741,6,2,4,63,0,0
298306,-86.9565217391304,6,2,2,63,0,0
299734,-200,6,2,2,63,0,0
299948,-200,6,2,2,5,0,0
300020,-86.9565217391304,6,2,2,63,0,0
300877,-74.0740740740741,6,2,2,63,0,0
301091,-74.0740740740741,6,2,2,5,0,0
301163,-86.9565217391304,6,2,1,63,0,0
301377,-86.9565217391304,6,2,1,5,0,0
301449,-74.0740740740741,6,2,2,63,0,0
301663,-74.0740740740741,6,2,2,5,0,0
301734,-86.9565217391304,6,2,2,63,0,0
302806,-86.9565217391304,6,2,2,5,0,0
302877,-100,6,2,2,63,0,0
303091,-100,6,2,2,5,0,0
303163,-86.9565217391304,6,2,4,63,0,0
303377,-86.9565217391304,6,2,4,5,0,0
303449,-86.9565217391304,6,2,2,63,0,0
304306,-74.0740740740741,6,2,2,63,0,0
305163,-86.9565217391304,6,2,2,63,0,0
306306,-86.9565217391304,6,2,3,63,0,0
307163,-86.9565217391304,6,2,2,63,0,0
307734,-74.0740740740741,6,2,4,63,0,0
308020,-74.0740740740741,6,2,2,63,0,0
308592,-86.9565217391304,6,2,2,63,0,0
309663,-86.9565217391304,6,2,2,5,0,0
309734,-181.818181818182,6,2,2,63,0,0
310306,-100,6,2,3,50,0,0
311948,-100,6,2,3,5,0,0
312020,-100,6,2,3,50,0,0
313592,-100,6,2,2,50,0,0
313734,-100,6,2,3,50,0,0
316592,-100,6,2,1,50,0,0
316877,-100,6,2,3,50,0,0
318806,-100,6,2,3,5,0,0
318877,-100,6,2,3,50,0,0
320449,-100,6,2,2,50,0,0
320592,-100,6,2,3,50,0,0
322234,-100,6,2,3,5,0,0
322306,-100,6,2,3,50,0,0
324020,-90.9090909090909,6,2,3,55,0,0
324449,-90.9090909090909,6,2,4,55,0,0
326306,-90.9090909090909,6,2,1,55,0,0
326449,-90.9090909090909,6,2,4,55,0,0
328877,-76.9230769230769,6,2,4,55,0,0
329163,-90.9090909090909,6,2,4,55,0,0
329734,-90.9090909090909,6,2,1,55,0,0
329877,-90.9090909090909,6,2,4,55,0,0
330520,-90.9090909090909,6,2,4,5,0,0
330592,-90.9090909090909,6,2,4,55,0,0
330877,-90.9090909090909,6,2,1,55,0,0
331306,-90.9090909090909,6,2,4,55,0,0
333449,-90.9090909090909,6,2,2,55,0,0
333663,-90.9090909090909,6,2,2,5,0,0
333734,-90.9090909090909,6,2,1,55,0,0
333877,-90.9090909090909,6,2,4,55,0,0
334020,-90.9090909090909,6,2,1,55,0,0
334734,-90.9090909090909,6,2,4,55,0,0
335019,-90.9090909090909,6,2,4,5,0,0
335092,-90.9090909090909,6,2,4,55,0,0
335948,-90.9090909090909,6,2,4,5,0,0
336020,-90.9090909090909,6,2,1,55,0,0
336449,-90.9090909090909,6,2,4,55,0,0
336592,-90.9090909090909,6,2,1,55,0,0
336877,-90.9090909090909,6,2,4,55,0,0
337734,-90.9090909090909,6,2,1,55,0,0
338163,-90.9090909090909,6,2,4,55,0,0
339449,-90.9090909090909,6,2,1,55,0,0
339877,-90.9090909090909,6,2,4,55,0,0
341163,-90.9090909090909,6,2,2,55,0,0
341734,-90.9090909090909,6,2,1,55,0,0
341877,-90.9090909090909,6,2,2,55,0,0
341949,-90.9090909090909,6,2,1,55,0,0
342020,-90.9090909090909,6,2,2,55,0,0
342163,-90.9090909090909,6,2,1,55,0,0
342449,-133.333333333333,6,2,2,55,0,0
342806,-133.333333333333,6,2,2,5,0,0
342877,434.782608695652,4,2,2,45,1,0
342877,-133.333333333333,4,2,2,45,0,0
344167,419.58041958042,4,2,2,45,1,0
344167,-133.333333333333,4,2,2,45,0,0
344606,437.956204379562,4,2,2,45,1,0
344606,-133.333333333333,4,2,2,45,0,0
345023,437.956204379562,4,2,2,45,1,0
345023,-133.333333333333,4,2,2,45,0,0
345451,413.793103448276,4,2,2,45,1,0
345451,-133.333333333333,4,2,2,45,0,0
345864,437.956204379562,4,2,2,45,1,0
345864,-133.333333333333,4,2,2,45,0,0
346301,-100,4,2,1,45,0,0
346718,422.535211267606,4,2,1,45,1,0
347147,451.127819548872,4,2,1,45,1,0
347574,451.127819548872,4,2,1,45,1,0
348429,444.444444444444,4,2,1,45,1,0
348877,428.571428571429,4,2,1,45,1,0
349305,-100,4,2,2,45,0,0
349736,428.571428571429,4,2,3,45,1,0
349736,-80,4,2,3,45,0,0
356878,-80,4,2,1,45,0,0
359307,-80,4,2,2,45,0,0
360307,-80,4,2,1,45,0,0
362736,-80,4,2,2,45,0,0
363450,-74.0740740740741,4,2,2,45,0,0
363736,-74.0740740740741,4,2,1,45,0,0
366164,-74.0740740740741,4,2,2,45,0,0
367164,-74.0740740740741,4,2,1,45,0,0
369593,-74.0740740740741,4,2,2,45,0,0
370593,-74.0740740740741,4,2,1,45,0,0
373021,-74.0740740740741,4,2,2,45,0,0
374021,-74.0740740740741,4,2,1,45,0,0
376450,-74.0740740740741,4,2,2,45,0,0
377164,472.44094488189,4,2,1,35,1,0
377593,428.571428571429,4,2,1,35,1,0
378031,461.538461538462,4,2,1,35,1,0
378444,447.761194029851,4,2,1,35,1,0
378891,434.782608695652,4,2,1,35,1,0
379325,394.736842105263,4,2,1,35,1,0
379719,468.75,4,2,1,35,1,0
380732,441.176470588235,4,2,3,35,1,0
380952,-100,4,2,3,45,0,0
381026,-100,4,2,3,50,0,0
381099,-100,4,2,3,55,0,0
381173,-250,4,2,1,55,0,0
382937,-250,4,2,1,5,0,0
383367,359.281437125748,4,2,1,27,1,0
383367,-200,4,2,1,27,0,0
385492,315.789473684211,4,2,1,27,1,0
385492,-200,4,2,1,27,0,0
386248,375,4,2,1,27,1,0
386248,-200,4,2,1,27,0,0
386975,355.029585798817,4,2,1,27,1,0
386975,-200,4,2,1,27,0,0
387701,365.853658536585,4,2,1,27,1,0
387701,-200,4,2,1,27,0,0
389144,389.61038961039,4,2,1,27,1,0
389144,-200,4,2,1,27,0,0
389874,363.636363636364,4,2,1,27,1,0
389874,-200,4,2,1,27,0,0
390419,-200,4,2,1,5,0,0
390601,363.636363636364,4,2,1,27,1,0
390601,-200,4,2,1,27,0,0
393520,365.853658536585,4,2,1,27,1,0
393520,-200,4,2,1,27,0,0
395065,392.156862745098,4,2,1,27,1,0
395065,-200,4,2,1,27,0,0
395751,-200,4,2,1,5,0,0
395800,359.281437125748,4,2,1,27,1,0
395800,-200,4,2,1,27,0,0
396538,359.281437125748,4,2,1,27,1,0
396538,-200,4,2,1,27,0,0
398015,389.61038961039,4,2,1,27,1,0
398015,-200,4,2,1,27,0,0
398728,413.793103448276,4,2,1,27,1,0
398728,-200,4,2,1,27,0,0
399625,379.746835443038,4,2,1,27,1,0
399625,-200,4,2,1,27,0,0
399814,-200,4,2,1,5,0,0
399909,415.22491349481,4,2,1,27,1,0
399909,-200,4,2,1,27,0,0
400324,377.358490566038,4,2,1,27,1,0
400324,-200,4,2,1,27,0,0
400701,400,4,2,1,27,1,0
400701,-200,4,2,1,27,0,0
401098,375,4,2,1,27,1,0
401098,-200,4,2,1,27,0,0
402578,370.37037037037,4,2,1,27,1,0
402578,-200,4,2,1,27,0,0
403565,-200,4,2,1,5,0,0
404119,408.163265306122,4,2,1,27,1,0
404119,-200,4,2,1,27,0,0
404883,333.333333333333,4,2,1,27,1,0
404883,-250,4,2,1,27,0,0
405637,389.61038961039,4,2,1,27,1,0
405637,-222.222222222222,4,2,1,27,0,0
408364,-222.222222222222,4,2,1,5,0,0
408884,437.956204379562,4,2,1,27,1,0
408884,-200,4,2,1,27,0,0
409761,419.58041958042,4,2,1,27,1,0
409761,-200,4,2,1,27,0,0
410612,487.80487804878,4,2,1,27,1,0
410612,-200,4,2,1,27,0,0
411486,410.958904109589,4,2,1,27,1,0
411486,-200,4,2,1,27,0,0
412063,363.636363636364,4,2,1,27,1,0
412341,402.684563758389,4,2,1,27,1,0
412341,-200,4,2,1,27,0,0
413166,444.444444444444,4,2,1,27,1,0
413166,-200,4,2,1,27,0,0
414014,458.015267175573,4,2,1,27,1,0
414014,-200,4,2,1,27,0,0
414900,476.190476190476,4,2,1,27,1,0
414900,-200,4,2,1,27,0,0
415782,422.535211267606,4,2,1,27,1,0
415782,-200,4,2,1,27,0,0
416632,461.538461538462,4,2,1,27,1,0
416632,-200,4,2,1,27,0,0
417475,425.531914893617,4,2,1,27,1,0
417475,-200,4,2,1,27,0,0
419157,453.514739229025,4,2,1,27,1,0
419157,-200,4,2,1,27,0,0
419610,434.782608695652,4,2,1,27,1,0
419610,-200,4,2,1,27,0,0
420959,419.58041958042,4,2,1,27,1,0
420959,-250,4,2,1,27,0,0
422112,-250,4,2,1,5,0,0
422217,-100,4,2,1,27,0,0
422641,410.958904109589,4,2,1,27,1,0
422641,-200,4,2,1,27,0,0
423462,447.761194029851,4,2,1,27,1,0
423462,-200,4,2,1,27,0,0
424348,402.684563758389,4,2,1,27,1,0
424348,-200,4,2,1,27,0,0
425209,447.761194029851,4,2,1,27,1,0
425209,-200,4,2,1,27,0,0
426020,431.654676258993,4,2,1,27,1,0
426020,-200,4,2,1,27,0,0
426897,444.444444444444,4,2,1,27,1,0
426897,-200,4,2,1,27,0,0
427715,431.654676258993,4,2,1,27,1,0
427715,-200,4,2,1,27,0,0
428624,431.654676258993,4,2,1,27,1,0
428624,-200,4,2,1,27,0,0
429477,375,4,2,1,27,1,0
429477,-200,4,2,1,27,0,0
430307,434.782608695652,4,2,1,27,1,0
430307,-200,4,2,1,27,0,0
431146,434.782608695652,4,2,1,27,1,0
431146,-250,4,2,1,27,0,0
432450,-250,4,2,1,5,0,0
432885,461.538461538462,4,2,1,27,1,0
432885,-200,4,2,1,27,0,0
433748,422.535211267606,4,2,1,27,1,0
433748,-200,4,2,1,27,0,0
434613,451.127819548872,4,2,1,27,1,0
434613,-250,4,2,1,27,0,0
435966,-250,4,2,1,5,0,0
436342,-250,4,2,1,27,0,0
436400,400,4,2,1,27,1,0
436400,-250,4,2,1,27,0,0
437200,428.571428571429,4,2,1,27,1,0
437200,-200,4,2,1,27,0,0
438057,419.58041958042,4,2,1,27,1,0
438057,-250,4,2,1,27,0,0
439595,-250,4,2,1,5,0,0
439855,487.80487804878,4,2,1,27,1,0
439855,-200,4,2,1,27,0,0
440911,545.454545454546,4,2,1,27,1,0
440911,-285.714285714286,4,2,1,27,0,0
441365,-285.714285714286,4,2,1,5,0,0
441456,-285.714285714286,4,2,1,27,0,0
441865,-285.714285714286,4,2,1,5,0,0
442313,-285.714285714286,4,2,1,27,0,0
442430,521.739130434783,4,2,1,27,1,0
442430,-200,4,2,1,27,0,0
442889,555.555555555556,4,2,1,27,1,0
442889,-333.333333333333,4,2,1,27,0,0
448235,-333.333333333333,4,2,1,5,0,0

[Colours]
Combo1 : 214,82,82
Combo2 : 72,145,57
Combo3 : 224,181,122
Combo4 : 135,94,73

[HitObjects]
53,105,754,6,0,P|90:111|159:110,1,90,2|0,0:2|0:0,0:0:0:0:
275,74,1481,1,0,0:0:0:0:
278,61,1844,1,0,0:0:0:0:
202,210,2208,2,0,P|247:196|294:171,1,90,2|0,0:2|0:0,0:0:0:0:
415,106,2935,2,0,P|432:141|433:150,3,30,2|0|0|0,0:2|0:0|0:0|0:0,0:0:0:0:
429,301,3659,6,0,B|391:284|391:284|370:297|320:301,1,90,2|0,0:2|0:0,0:0:0:0:
172,229,4373,1,0,0:0:0:0:
178,210,4715,1,0,0:0:0:0:
271,384,5099,2,0,P|260:333|261:268,1,90,2|0,0:2|0:0,0:0:0:0:
189,113,5813,2,0,B|180:114|180:114|168:136,1,22.5,2|0,0:2|0:0,0:0:0:0:
100,252,6170,1,2,0:2:0:0:
291,180,6536,6,0,P|279:132|270:67,1,90,2|0,0:2|0:0,0:0:0:0:
97,34,7272,1,0,0:0:0:0:
78,31,7640,1,0,0:0:0:0:
146,209,8008,2,0,P|157:156|172:119,1,90,2|0,0:2|0:0,0:0:0:0:
378,204,8748,1,2,0:2:0:0:
333,59,9119,1,2,0:2:0:0:
280,245,9492,6,0,B|258:277|181:272|181:272,1,90,2|0,0:2|0:0,0:0:0:0:
101,150,10236,1,0,0:0:0:0:
90,133,10601,1,0,0:0:0:0:
318,141,10981,2,0,P|264:127|218:95,1,90,2|0,0:2|0:0,0:0:0:0:
20,182,11726,1,2,0:2:0:0:
79,28,12089,1,2,0:2:0:0:
152,246,12455,6,0,P|234:229|257:229,1,90,2|0,0:2|0:0,0:0:0:0:
382,340,13184,2,0,L|362:337,1,11.25,2|0,0:2|0:0,0:0:0:0:
240,326,13545,1,2,0:2:0:0:
361,202,13919,5,2,0:0:0:0:
385,189,14280,1,0,0:0:0:0:
386,214,14641,1,0,0:0:0:0:
361,202,15025,1,0,0:0:0:0:
490,60,15410,6,0,P|490:129|494:155,1,90,2|0,0:2|0:0,0:0:0:0:
361,202,16109,2,0,L|357:179,1,15,2|0,0:2|0:0,0:0:0:0:
325,36,16486,1,2,0:2:0:0:
325,36,16843,5,2,0:2:0:0:
291,68,17213,1,0,0:0:0:0:
340,81,17555,1,0,0:0:0:0:
325,36,17930,1,0,0:0:0:0:
267,211,18197,1,0,0:0:0:0:
272,218,18329,6,0,P|321:206|369:201,1,90,2|0,0:2|0:0,0:0:0:0:
505,283,19056,1,0,0:0:0:0:
430,300,19419,1,0,0:0:0:0:
368,115,19797,2,0,P|423:139|463:167,2,90,2|0|0,0:2|0:0|0:0,0:0:0:0:
183,140,20887,1,2,0:2:0:0:
188,91,21069,1,2,0:2:0:0:
285,90,21301,6,0,B|282:118|282:118|290:153|308:194,1,90,2|0,0:2|0:0,0:0:0:0:
409,287,22065,1,0,0:0:0:0:
432,212,22417,1,0,0:0:0:0:
283,324,22767,2,0,B|282:285|257:242|257:242|203:235|162:263,1,180,2|0,0:2|0:0,0:0:0:0:
168,260,24178,6,0,P|171:315|191:366,1,90,2|0,0:2|0:0,0:0:0:0:
300,241,24900,1,0,0:0:0:0:
309,221,25244,1,0,0:0:0:0:
147,173,25589,2,0,P|123:229|116:271,2,90,2|0|0,0:2|0:0|0:0,0:0:0:0:
221,41,26600,1,2,0:2:0:0:
189,31,26768,1,2,0:2:0:0:
107,94,26991,6,0,B|91:93|72:87|72:87|45:114|12:116,1,90,2|0,0:2|0:0,0:0:0:0:
0,261,27684,1,0,0:0:0:0:
22,265,28033,1,0,0:0:0:0:
193,198,28391,2,0,P|145:182|103:174,2,90,2|0|0,0:2|0:0|0:0,0:0:0:0:
320,334,29468,2,0,B|332:350|332:350|369:334,1,45
255,262,29811,6,0,B|244:271|244:271|226:315|226:359,1,90,2|0,0:2|0:0,0:0:0:0:
375,251,30529,1,0,0:0:0:0:
369,229,30888,1,0,0:0:0:0:
203,185,31234,2,0,P|172:217|149:262,2,90,2|0|0,0:2|0:0|0:0,0:0:0:0:
349,125,32258,1,2,0:2:0:0:
381,130,32421,1,2,0:2:0:0:
433,223,32644,6,0,B|413:237|413:237|378:230|350:249,1,90,2|0,0:2|0:0,0:0:0:0:
278,111,33386,2,0,P|321:115|359:130,1,72,2|0,0:2|0:0,0:0:0:0:
512,49,34190,2,0,B|471:58|443:88|443:88|433:128|446:166|446:166|408:211|372:218,1,251.999992309571,2|0,0:2|0:0,0:0:0:0:
371,218,36228,6,0,P|376:237|377:258,2,24,2|0|0,0:2|0:0|0:0,0:0:0:0:
303,189,36543,2,0,P|248:202|217:205,1,72,2|0,0:2|0:0,0:0:0:0:
115,113,37265,2,0,P|128:66|136:16,1,90
31,146,37968,2,0,P|42:193|63:248,2,90,2|0|0,0:2|0:0|0:0,0:0:0:0:
196,82,39025,2,0,B|197:100|196:114|181:135,1,45,2|2,0:2|0:2,0:0:0:0:
232,246,39422,6,0,B|248:230|248:230|278:215|334:225,2,90,2|0|0,0:2|0:0|0:0,0:0:0:0:
322,375,40495,1,0,0:0:0:0:
424,254,40878,2,0,P|443:331|455:350,1,90,2|0,0:2|0:0,0:0:0:0:
512,197,41583,1,0,0:0:0:0:
498,175,41925,2,0,B|485:157|485:157|460:142,1,45
332,181,42298,6,0,L|328:215,2,22.5,2|0|2,0:2|0:0|0:2,0:0:0:0:
362,13,42831,1,0,0:0:0:0:
230,62,43213,2,0,P|239:127|251:164,1,90
128,239,43936,2,0,P|134:188|150:136,1,90,2|0,0:2|0:0,0:0:0:0:
114,51,44605,2,0,B|97:48|97:48|70:59|70:59,1,30
216,220,45149,6,0,P|229:268|231:294,1,62.9999980773926,2|0,0:2|0:0,0:0:0:0:
369,340,45810,2,0,L|374:316,3,22.5
353,295,46110,2,0,P|364:236|399:138,1,157.499995193482,2|0,0:2|0:0,0:0:0:0:
71,200,54023,5,2,0:3:0:0:
78,198,54094,1,2,0:3:0:0:
86,196,54166,1,2,0:3:0:0:
95,194,54238,1,2,0:3:0:0:
103,193,54310,5,0,3:0:0:0:
101,228,54381,1,0,3:0:0:0:
98,262,54453,1,12,0:3:0:0:
441,47,54880,5,4,3:3:0:0:
443,73,54951,1,8,0:3:0:0:
445,99,55022,1,2,3:3:0:0:
447,126,55094,1,8,0:3:0:0:
450,152,55165,1,2,3:3:0:0:
453,179,55237,1,8,0:3:0:0:
456,205,55308,1,2,3:3:0:0:
459,232,55380,1,8,0:3:0:0:
463,258,55451,5,2,3:3:0:0:
437,249,55522,1,8,0:3:0:0:
410,253,55594,1,2,3:3:0:0:
386,265,55665,1,8,0:3:0:0:
367,284,55737,1,2,3:3:0:0:
347,302,55808,1,8,0:3:0:0:
322,312,55880,1,2,3:3:0:0:
295,313,55951,1,8,0:3:0:0:
269,303,56022,6,0,L|275:239,3,45,2|8|2|8,3:3|0:3|3:3|0:3,0:0:0:0:
175,356,56308,2,0,L|167:290,3,45,2|8|2|8,3:3|0:3|3:3|0:3,0:0:0:0:
71,318,56594,5,2,3:3:0:0:
75,291,56666,1,8,0:3:0:0:
83,266,56737,1,2,3:3:0:0:
100,245,56808,1,8,0:3:0:0:
122,229,56880,1,2,3:3:0:0:
148,221,56951,1,8,0:3:0:0:
175,218,57023,1,2,3:3:0:0:
201,222,57094,1,8,0:3:0:0:
227,232,57165,5,2,3:3:0:0:
238,207,57237,1,8,0:3:0:0:
242,180,57308,1,2,3:3:0:0:
235,153,57380,1,8,0:3:0:0:
219,130,57451,1,2,3:3:0:0:
207,105,57522,1,8,0:3:0:0:
205,77,57594,1,2,3:3:0:0:
213,51,57665,1,8,0:3:0:0:
232,31,57737,6,0,L|303:21,3,45,2|8|2|8,3:3|0:3|3:3|0:3,0:0:0:0:
327,122,58022,1,2,3:3:0:0:
327,122,58094,1,8,0:3:0:0:
327,122,58165,2,0,L|392:131,1,45,2|8,3:3|0:3,0:0:0:0:
512,200,58308,5,4,3:3:0:0:
484,203,58380,1,8,0:3:0:0:
460,215,58451,1,2,3:3:0:0:
442,235,58522,1,8,0:3:0:0:
429,259,58594,1,2,3:3:0:0:
424,285,58665,1,8,0:3:0:0:
427,312,58737,1,2,3:3:0:0:
437,336,58808,1,8,0:3:0:0:
455,361,58880,5,2,3:3:0:0:
428,358,58951,1,8,0:3:0:0:
401,353,59022,1,2,3:3:0:0:
373,351,59094,1,8,0:3:0:0:
346,346,59165,1,2,3:3:0:0:
319,342,59237,1,8,0:3:0:0:
292,338,59308,1,2,3:3:0:0:
264,334,59380,1,8,0:3:0:0:
237,329,59451,6,0,L|155:343,3,45,2|8|2|8,3:3|0:3|3:3|0:3,0:0:0:0:
292,233,59737,2,0,L|365:248,3,45,2|8|2|8,3:3|0:3|3:3|0:3,0:0:0:0:
148,157,60022,5,4,3:3:0:0:
122,161,60094,1,8,0:3:0:0:
96,164,60165,1,2,3:3:0:0:
70,168,60237,1,8,0:3:0:0:
44,173,60308,2,0,L|-18:183,1,45,2|8,3:3|0:3,0:0:0:0:
211,77,60451,5,6,3:3:0:0:
230,96,60522,1,8,0:3:0:0:
242,120,60594,1,2,3:3:0:0:
249,145,60665,1,8,0:3:0:0:
250,171,60737,1,2,3:3:0:0:
242,196,60808,1,8,0:3:0:0:
229,220,60880,1,0,3:3:0:0:
229,220,61165,5,8,0:3:0:0:
289,207,61237,1,8,0:3:0:0:
344,235,61308,1,8,0:3:0:0:
360,294,61380,1,8,0:3:0:0:
335,349,61451,2,0,L|276:331,3,31.4999990386963,0|0|0|0,3:0|3:0|3:0|3:0,0:0:0:0:
471,349,61737,5,4,3:3:0:0:
472,322,61808,1,8,0:3:0:0:
473,294,61880,1,2,3:3:0:0:
475,267,61951,1,8,0:3:0:0:
477,240,62022,1,2,3:3:0:0:
479,212,62094,1,8,0:3:0:0:
481,185,62165,1,2,3:3:0:0:
483,157,62237,1,8,0:3:0:0:
485,129,62308,5,2,3:3:0:0:
458,122,62380,1,8,0:3:0:0:
430,122,62451,1,2,3:3:0:0:
404,130,62522,1,8,0:3:0:0:
382,147,62594,1,2,3:3:0:0:
359,161,62665,1,8,0:3:0:0:
332,170,62737,1,2,3:3:0:0:
304,169,62808,1,8,0:3:0:0:
278,157,62880,6,0,L|285:79,3,45,2|8|2|8,3:3|0:3|3:3|0:3,0:0:0:0:
179,198,63165,2,0,L|173:153,3,45,2|8|2|8,3:3|0:3|3:3|0:3,0:0:0:0:
89,97,63451,5,2,3:3:0:0:
75,120,63522,1,8,0:3:0:0:
69,145,63594,1,2,3:3:0:0:
72,171,63665,1,8,0:3:0:0:
83,195,63737,1,2,3:3:0:0:
90,220,63808,1,8,0:3:0:0:
89,247,63880,1,2,3:3:0:0:
76,270,63951,1,8,0:3:0:0:
60,292,64022,5,2,3:3:0:0:
86,295,64094,1,8,0:3:0:0:
112,298,64165,1,2,3:3:0:0:
138,301,64237,1,8,0:3:0:0:
164,305,64308,1,2,3:3:0:0:
190,308,64380,1,8,0:3:0:0:
216,313,64451,2,0,L|202:235,1,45,2|8,3:3|0:3,0:0:0:0:
255,129,64594,5,4,3:3:0:0:
281,125,64666,1,8,0:3:0:0:
306,122,64737,1,2,3:3:0:0:
333,118,64809,1,8,0:3:0:0:
359,116,64880,1,2,3:3:0:0:
386,112,64952,1,8,0:3:0:0:
410,109,65023,2,0,L|399:166,1,45,2|8,3:3|0:3,0:0:0:0:
480,304,65165,5,6,3:3:0:0:
453,300,65237,1,8,0:3:0:0:
428,297,65308,1,2,3:3:0:0:
401,293,65380,1,8,0:3:0:0:
375,291,65451,1,2,3:3:0:0:
349,287,65523,1,8,0:3:0:0:
322,283,65594,1,2,3:3:0:0:
295,280,65665,1,8,0:3:0:0:
268,276,65737,5,2,3:3:0:0:
281,252,65808,1,8,0:3:0:0:
286,225,65880,1,2,3:3:0:0:
283,198,65951,1,8,0:3:0:0:
273,172,66022,1,2,3:3:0:0:
255,151,66094,1,8,0:3:0:0:
232,137,66165,1,2,3:3:0:0:
205,132,66237,1,8,0:3:0:0:
178,135,66308,6,0,L|171:186,3,45,2|8|2|8,3:3|0:3|3:3|0:3,0:0:0:0:
78,220,66594,2,0,L|69:168,3,45,2|8|2|8,3:3|0:3|3:3|0:3,0:0:0:0:
200,257,66880,5,2,3:3:0:0:
223,243,66951,1,8,0:3:0:0:
249,236,67022,1,2,3:3:0:0:
276,236,67094,1,8,0:3:0:0:
301,244,67165,2,0,L|289:299,1,45,2|8,3:3|0:3,0:0:0:0:
428,384,67309,5,4,3:3:0:0:
424,357,67380,1,8,0:3:0:0:
421,330,67451,1,2,3:3:0:0:
417,303,67523,1,8,0:3:0:0:
415,276,67594,1,2,3:3:0:0:
411,247,67666,1,8,0:3:0:0:
407,220,67737,1,2,3:3:0:0:
403,193,67809,1,8,0:3:0:0:
400,166,67880,1,2,3:3:0:0:
396,139,67951,1,8,0:3:0:0:
393,111,68022,5,2,3:3:0:0:
274,179,68165,1,10,3:3:0:0:
274,179,68237,1,8,0:3:0:0:
274,179,68308,2,0,L|276:122,1,45,2|8,3:3|0:3,0:0:0:0:
195,0,68451,1,10,3:3:0:0:
182,54,68522,1,8,0:3:0:0:
169,109,68594,5,12,3:3:0:0:
139,83,68665,1,0,3:0:0:0:
99,79,68737,1,0,3:0:0:0:
63,96,68808,1,0,3:0:0:0:
44,131,68880,1,8,3:3:0:0:
46,170,68951,1,0,3:0:0:0:
72,198,69022,2,0,L|144:205,1,49.5000015106202,0|0,3:0|3:0,0:0:0:0:
244,85,69166,5,10,3:3:0:0:
220,116,69237,1,0,3:0:0:0:
214,156,69309,1,0,3:0:0:0:
228,192,69380,1,0,3:0:0:0:
254,220,69451,1,8,3:3:0:0:
272,257,69523,1,0,3:0:0:0:
271,296,69594,1,0,3:0:0:0:
256,333,69666,1,0,3:0:0:0:
223,355,69737,5,10,3:3:0:0:
262,363,69809,1,0,3:0:0:0:
299,374,69880,2,0,L|381:392,1,49.5000015106202,0|0,3:0|3:0,0:0:0:0:
378,190,70022,5,10,3:3:0:0:
339,198,70094,1,0,3:0:0:0:
302,209,70165,2,0,L|220:227,1,49.5000015106202,0|0,3:0|3:0,0:0:0:0:
125,104,70308,5,12,3:3:0:0:
157,127,70380,1,0,3:0:0:0:
180,158,70451,1,0,3:0:0:0:
183,197,70522,1,0,3:0:0:0:
175,236,70594,1,10,3:3:0:0:
151,267,70665,1,0,3:0:0:0:
116,286,70737,1,0,3:0:0:0:
76,289,70808,1,0,3:0:0:0:
40,271,70880,5,10,3:3:0:0:
77,257,70951,1,0,3:0:0:0:
116,260,71022,1,0,3:0:0:0:
150,280,71094,1,0,3:0:0:0:
176,309,71165,1,10,3:3:0:0:
209,330,71237,1,0,3:0:0:0:
246,340,71308,1,0,3:0:0:0:
285,334,71380,1,0,3:0:0:0:
318,312,71451,6,0,L|326:228,3,49.5000015106202,8|0|0|0,3:3|3:0|3:0|3:0,0:0:0:0:
245,204,71737,2,0,L|236:295,1,49.5000015106202,10|0,3:3|3:0,0:0:0:0:
395,345,71880,2,0,L|402:273,1,49.5000015106202,10|0,3:3|3:0,0:0:0:0:
474,136,72022,5,12,3:3:0:0:
443,162,72094,1,0,3:0:0:0:
405,173,72165,1,0,3:0:0:0:
365,164,72237,1,0,3:0:0:0:
331,143,72308,1,10,3:3:0:0:
302,115,72380,1,0,3:0:0:0:
265,100,72451,1,0,3:0:0:0:
225,99,72522,1,0,3:0:0:0:
188,115,72594,1,8,3:3:0:0:
160,143,72665,1,0,3:0:0:0:
150,181,72737,1,0,3:0:0:0:
154,220,72808,1,0,3:0:0:0:
167,260,72880,5,10,3:3:0:0:
206,254,72951,1,0,3:0:0:0:
244,247,73022,2,0,L|319:233,1,49.5000015106202,0|0,3:0|3:0,0:0:0:0:
169,125,73165,5,10,3:3:0:0:
130,119,73236,1,0,3:0:0:0:
92,112,73308,2,0,L|22:97,1,49.5000015106202,0|0,3:0|3:0,0:0:0:0:
41,282,73451,5,10,3:3:0:0:
80,276,73522,1,0,3:0:0:0:
118,269,73593,2,0,L|193:255,1,49.5000015106202,0|0,3:0|3:0,0:0:0:0:
319,384,73737,5,10,3:3:0:0:
290,357,73808,1,0,3:0:0:0:
274,319,73880,1,0,3:0:0:0:
275,281,73951,1,0,3:0:0:0:
292,246,74022,1,10,3:3:0:0:
322,220,74094,1,0,3:0:0:0:
360,210,74165,1,0,3:0:0:0:
401,214,74237,1,0,3:0:0:0:
432,236,74308,1,8,3:3:0:0:
454,269,74379,1,0,3:0:0:0:
460,308,74451,2,0,L|384:323,1,49.5000015106202,0|0,3:0|3:0,0:0:0:0:
238,244,74594,5,12,3:3:0:0:
238,244,74880,1,8,0:3:0:0:
245,184,74951,1,8,0:3:0:0:
250,126,75022,1,8,0:3:0:0:
257,67,75094,1,8,0:3:0:0:
263,8,75165,1,0,3:0:0:0:
339,116,75308,1,0,3:0:0:0:
113,85,75451,5,10,3:3:0:0:
82,109,75522,1,0,3:0:0:0:
68,146,75594,1,0,3:0:0:0:
74,184,75665,1,0,3:0:0:0:
101,214,75737,1,10,3:3:0:0:
138,225,75808,1,0,3:0:0:0:
176,216,75880,1,0,3:0:0:0:
206,190,75951,1,0,3:0:0:0:
239,168,76022,1,8,3:3:0:0:
276,156,76094,1,0,3:0:0:0:
315,158,76165,1,0,3:0:0:0:
352,171,76237,1,0,3:0:0:0:
387,191,76308,5,10,3:3:0:0:
382,230,76380,1,0,3:0:0:0:
379,269,76451,2,0,L|370:342,1,49.5000015106202,0|0,3:0|3:0,0:0:0:0:
247,247,76594,5,10,3:3:0:0:
242,207,76666,1,0,3:0:0:0:
239,168,76737,2,0,L|230:95,1,49.5000015106202,0|0,3:0|3:0,0:0:0:0:
399,68,76880,5,10,3:3:0:0:
395,107,76952,1,0,3:0:0:0:
391,146,77023,2,0,L|382:220,1,49.5000015106202,0|0,3:0|3:0,0:0:0:0:
216,36,77166,5,10,3:3:0:0:
181,53,77237,1,0,3:0:0:0:
155,83,77309,1,0,3:0:0:0:
144,120,77380,1,0,3:0:0:0:
151,159,77451,1,10,3:3:0:0:
174,191,77523,1,0,3:0:0:0:
208,208,77594,1,0,3:0:0:0:
231,240,77666,1,0,3:0:0:0:
240,278,77737,1,10,3:3:0:0:
225,314,77809,1,0,3:0:0:0:
192,335,77880,1,0,3:0:0:0:
152,334,77951,1,0,3:0:0:0:
124,306,78023,5,10,3:3:0:0:
162,299,78094,1,0,3:0:0:0:
198,290,78165,2,0,L|272:274,1,49.5000015106202,0|0,3:0|3:0,0:0:0:0:
174,191,78308,5,10,3:3:0:0:
136,184,78379,1,0,3:0:0:0:
100,175,78450,2,0,L|26:159,1,49.5000015106202,0|0,3:0|3:0,0:0:0:0:
50,322,78594,5,10,3:3:0:0:
89,315,78665,1,0,3:0:0:0:
124,306,78736,2,0,L|199:290,1,49.5000015106202,0|0,3:0|3:0,0:0:0:0:
299,180,78880,6,0,B|259:216|259:216|286:345,1,148.50000453186,14|0,3:3|0:0,0:0:0:0:
298,384,79165,1,12,3:3:0:0:
472,207,79308,2,0,L|368:182,1,99.0000030212403,12|0,0:3|3:0,0:0:0:0:
198,140,79594,1,12,0:3:0:0:
360,310,79737,1,12,0:3:0:0:
403,75,79880,1,0,3:0:0:0:
403,75,79951,1,0,3:0:0:0:
403,75,80022,1,8,0:3:0:0:
352,86,80094,1,8,0:3:0:0:
299,98,80165,2,0,B|301:70|301:70|287:36|287:36|293:-39,2,99.0000030212403,0|0|0,3:0|3:0|3:0,0:0:0:0:
71,104,80594,6,0,B|134:99|134:99|154:109|154:109|247:101,1,148.50000453186,4|0,3:3|0:0,0:0:0:0:
299,98,80880,1,0,3:0:0:0:
230,287,81022,2,0,B|247:329|247:329|262:178,1,198.000006042481,8|0,0:3|3:0,0:0:0:0:
106,270,81451,1,8,0:3:0:0:
335,375,81594,1,8,0:3:0:0:
341,321,81665,1,8,0:3:0:0:
348,267,81737,1,8,0:3:0:0:
374,46,81880,1,0,3:0:0:0:
488,240,82022,2,0,L|420:221,1,49.5000015106202,8|0,0:3|3:0,0:0:0:0:
275,188,82165,1,8,0:3:0:0:
268,134,82237,1,8,0:3:0:0:
261,80,82316,6,0,L|164:60,1,83.9999974365235,0|0,0:0|3:0,0:0:0:0:
164,72,82530,1,0,3:0:0:0:
149,80,82601,1,0,3:0:0:0:
327,8,82744,2,0,B|353:39|353:39|357:82,1,83.9999974365235,10|0,0:3|0:0,0:0:0:0:
275,188,83030,1,0,3:0:0:0:
463,143,83173,2,0,B|431:116|431:116|389:112,1,83.9999974365235,2|0,3:3|0:0,0:0:0:0:
266,280,83458,2,0,B|308:276|308:276|340:249,1,83.9999974365235,0|10,3:0|0:3,0:0:0:0:
264,79,83744,1,0,3:0:0:0:
407,196,83887,1,0,3:0:0:0:
198,183,84030,6,0,B|160:172|160:172|86:193|86:193|37:164|37:164,1,167.999994873047,2|0,3:3|3:0,0:0:0:0:
47,150,84387,1,0,3:0:0:0:
52,134,84458,1,10,0:3:0:0:
31,244,84601,1,0,3:0:0:0:
12,343,84744,1,0,3:0:0:0:
197,272,84887,6,0,B|166:264|166:264|193:343,1,83.9999974365235,2|0,3:3|0:0,0:0:0:0:
429,271,85173,1,4,3:3:0:0:
238,194,85316,1,8,0:3:0:0:
403,159,85458,1,4,3:3:0:0:
341,322,85601,1,0,0:0:0:0:
244,107,85744,6,0,L|263:-12,1,83.9999974365235,4|0,3:3|3:0,0:0:0:0:
273,17,85958,1,0,3:0:0:0:
289,11,86030,1,0,3:0:0:0:
209,191,86173,2,0,B|245:204|245:204|286:186,1,83.9999974365235,10|0,0:3|0:0,0:0:0:0:
122,67,86458,1,0,3:0:0:0:
165,218,86601,2,0,B|157:256|157:256|121:283,1,83.9999974365235,2|0,3:3|0:0,0:0:0:0:
290,384,86887,2,0,B|254:356|254:356|246:318,1,83.9999974365235,0|10,3:0|0:3,0:0:0:0:
376,152,87173,1,0,3:0:0:0:
339,311,87316,1,0,3:0:0:0:
243,109,87458,6,0,B|279:66|279:66|329:80|329:80|413:59,1,167.999994873047,4|0,3:3|3:0,0:0:0:0:
403,69,87816,1,0,3:0:0:0:
419,73,87887,1,10,0:3:0:0:
292,174,88030,1,0,3:0:0:0:
162,81,88173,1,0,3:0:0:0:
376,152,88316,6,0,L|352:304,1,125.999996154785,2|0,3:3|0:0,0:0:0:0:
355,293,88601,1,4,3:3:0:0:
498,130,88744,1,8,0:3:0:0:
260,67,88887,2,0,L|284:219,1,125.999996154785,4|0,3:3|0:0,0:0:0:0:
261,196,89173,6,0,L|242:312,1,83.9999974365235,4|0,3:3|3:0,0:0:0:0:
232,285,89387,1,0,3:0:0:0:
216,292,89458,1,0,3:0:0:0:
172,131,89601,2,0,B|130:148|130:148|79:134,1,83.9999974365235,10|0,0:3|0:0,0:0:0:0:
21,38,89887,1,0,3:0:0:0:
0,221,90030,2,0,B|40:199|40:199|56:164,1,83.9999974365235,2|0,3:3|0:0,0:0:0:0:
216,292,90316,2,0,B|199:256|199:256|159:235,1,83.9999974365235,0|10,3:0|0:3,0:0:0:0:
0,339,90601,1,0,3:0:0:0:
56,164,90744,1,0,3:0:0:0:
154,361,90887,6,0,B|232:388|232:388|285:360|285:360|320:388,1,167.999994873047,4|0,3:3|3:0,0:0:0:0:
321,372,91244,1,0,3:0:0:0:
337,368,91316,1,10,0:3:0:0:
318,261,91458,1,0,3:0:0:0:
301,158,91601,1,0,3:0:0:0:
457,249,91744,6,0,B|465:191|465:191|401:209,1,83.9999974365235,2|0,3:3|0:0,0:0:0:0:
219,246,92030,1,4,3:3:0:0:
411,316,92173,1,8,0:3:0:0:
377,139,92316,1,4,3:3:0:0:
248,317,92458,1,0,0:0:0:0:
146,117,92601,6,0,B|246:132,1,83.9999974365235,4|0,3:3|3:0,0:0:0:0:
282,0,92887,1,0,3:0:0:0:
89,30,93030,2,0,B|172:17,1,83.9999974365235,2|0,3:3|3:0,0:0:0:0:
311,145,93316,1,0,3:0:0:0:
129,215,93458,5,10,0:3:0:0:
323,244,93601,1,0,3:0:0:0:
266,66,93744,1,0,3:0:0:0:
204,296,93887,5,10,0:3:0:0:
413,235,94030,1,0,3:0:0:0:
255,85,94173,1,0,3:0:0:0:
239,90,94244,1,0,3:0:0:0:
224,96,94316,6,0,L|202:232,1,125.999996154785,12|0,0:3|0:0,0:0:0:0:
357,180,94601,2,0,L|379:316,1,125.999996154785,8|0,0:3|0:0,0:0:0:0:
169,235,94887,2,0,L|147:371,1,125.999996154785,8|0,0:3|0:0,0:0:0:0:
352,331,95172,5,8,0:3:0:0:
315,120,95316,1,0,3:0:0:0:
311,104,95387,1,0,3:0:0:0:
307,89,95458,1,8,0:3:0:0:
496,224,95601,1,0,3:0:0:0:
492,239,95672,1,0,3:0:0:0:
489,254,95744,2,0,B|448:257|448:257|385:232|385:232|330:241|330:241,1,153.000002918243,12|0,0:3|0:0,0:0:0:0:
242,258,96030,5,2,0:2:0:0:
242,258,96169,2,0,P|253:235|251:203,1,45
193,142,96449,2,0,B|125:176|111:113|45:159,1,135
222,17,97172,2,0,P|230:37|244:55,1,45,2|0,0:2|0:0,0:0:0:0:
323,36,97457,2,0,P|363:40|403:29,1,45,2|0,0:2|0:0,0:0:0:0:
393,28,97672,1,0,0:0:0:0:
393,28,97754,6,0,P|412:77|412:133,1,90,2|0,0:2|0:0,0:0:0:0:
383,191,98156,1,0,0:0:0:0:
383,191,98611,2,0,P|426:198|445:192,1,45,2|0,0:2|0:0,0:0:0:0:
339,290,98902,2,0,P|323:253|307:241,1,45,2|0,0:2|0:0,0:0:0:0:
458,308,99193,2,0,P|426:285|403:278,1,45,2|0,0:2|0:0,0:0:0:0:
296,356,99500,5,2,0:2:0:0:
277,342,99619,2,0,L|265:290,1,37.7999988464356
210,216,99857,2,0,P|186:307|189:343,1,113.399996539307
70,266,100333,2,0,P|82:298|91:317,2,45,2|0|0,0:2|0:0|0:0,0:0:0:0:
37,167,100749,2,0,P|83:182|136:179,1,90
179,66,101194,5,2,0:2:0:0:
193,80,101289,2,0,P|199:108|201:154,1,60
303,135,101622,2,0,P|282:218|283:233,1,90
166,294,102051,2,0,B|234:263|230:339|339:293,1,180,2|0,0:2|0:0,0:0:0:0:
484,206,102908,5,2,0:2:0:0:
484,206,103051,2,0,P|453:195|432:193,1,45
445,113,103336,2,0,P|389:122|317:159,1,135
349,6,104032,2,0,P|351:36|343:65,1,45,2|0,0:2|0:0,0:0:0:0:
263,60,104329,2,0,P|251:75|218:79,1,45,2|0,0:2|0:0,0:0:0:0:
196,70,104551,1,0,0:0:0:0:
196,70,104649,6,0,B|141:129|198:142|170:199,1,135,2|0,0:2|0:0,0:0:0:0:
31,174,105301,1,0,0:0:0:0:
31,174,105431,2,0,P|58:167|78:157,1,45
117,300,105733,2,0,P|102:259|98:239,1,45,2|0,0:2|0:0,0:0:0:0:
26,361,106022,2,0,P|29:318|36:299,1,45,2|0,0:2|0:0,0:0:0:0:
143,372,106322,5,2,0:2:0:0:
160,383,106408,2,0,P|189:367|228:364,1,60
351,284,106867,2,0,P|318:272|294:279,1,45
246,208,107170,1,2,0:2:0:0:
246,208,107321,2,0,P|261:164|336:177,1,135
512,64,108022,6,0,L|361:37,1,135,2|0,3:3|0:0,0:0:0:0:
335,176,108307,2,0,L|184:203,1,135,0|0,3:0|0:0,0:0:0:0:
65,227,108593,1,8,0:3:0:0:
256,347,108736,1,8,0:3:0:0:
214,109,108879,5,0,3:0:0:0:
196,106,108950,1,0,3:0:0:0:
178,103,109022,1,0,3:0:0:0:
294,66,109164,1,0,3:0:0:0:
103,86,109307,6,0,B|91:133|91:133|111:155|123:178,1,90,8|0,0:3|0:0,0:0:0:0:
139,208,109522,1,0,0:0:0:0:
139,208,109593,1,0,3:0:0:0:
253,0,109736,6,0,L|145:17,1,80.9999975280763,4|0,3:3|0:0,0:0:0:0:
373,90,110022,2,0,L|266:69,1,80.9999975280763,2|0,0:3|0:0,0:0:0:0:
444,208,110307,2,0,L|350:152,1,80.9999975280763,2|0,3:3|0:0,0:0:0:0:
133,103,110593,6,0,L|245:83,1,80.9999975280763,10|0,0:3|0:0,0:0:0:0:
416,19,110879,2,0,L|336:3,1,80.9999975280763,2|0,0:3|0:0,0:0:0:0:
181,192,111164,2,0,B|221:192|221:192|260:165|260:165|298:173,1,121.499996292114,4|0,3:3|0:0,0:0:0:0:
381,187,111450,6,0,B|351:230|351:230|391:353,1,161.999995056153,4|2,3:3|0:3,0:0:0:0:
259,362,111879,2,0,B|262:321|262:321|266:316|266:316|269:268,2,80.9999975280763,0|2|0,3:0|0:3|3:0,0:0:0:0:
455,309,112307,6,0,B|439:262|439:262|462:218|462:218|456:163,1,121.499996292114,12|0,0:3|0:0,0:0:0:0:
512,144,112593,1,8,0:3:0:0:
392,347,112736,1,8,0:3:0:0:
293,172,112879,2,0,B|159:189,1,121.499996292114,2|0,3:3|0:0,0:0:0:0:
147,112,113164,6,0,B|193:51|159:15|159:15,1,80.9999975280763,4|0,3:3|0:0,0:0:0:0:
115,240,113450,2,0,B|185:210|174:162|174:162,1,80.9999975280763,2|0,0:3|3:0,0:0:0:0:
24,334,113736,2,0,B|99:343|113:296|113:296,1,80.9999975280763,2|0,0:3|0:0,0:0:0:0:
246,238,114022,5,12,0:3:0:0:
35,177,114164,2,0,L|45:257,1,80.9999975280763,8|2,0:3|0:3,0:0:0:0:
229,155,114450,1,8,0:3:0:0:
193,293,114593,1,0,0:0:0:0:
193,293,114736,1,0,0:0:0:0:
137,104,114879,6,0,B|241:71|241:71|310:106,1,161.999995056153,4|2,3:3|0:3,0:0:0:0:
398,165,115307,2,0,L|415:74,1,80.9999975280763,0|2,3:0|0:3,0:0:0:0:
326,0,115593,1,0,3:0:0:0:
272,187,115736,2,0,B|240:173|240:173|164:194,1,80.9999975280763,12|0,0:3|3:0,0:0:0:0:
85,220,116022,1,2,0:3:0:0:
241,289,116165,2,0,L|354:258,1,80.9999975280763,0|2,3:0|0:3,0:0:0:0:
346,149,116450,1,0,3:0:0:0:
153,263,116593,6,0,B|149:274|149:274|181:373,1,80.9999975280763,4|0,3:3|0:0,0:0:0:0:
108,144,116879,2,0,B|99:151|99:151|77:253,1,80.9999975280763,2|0,0:3|0:0,0:0:0:0:
133,18,117164,2,0,B|121:20|121:20|51:97,1,80.9999975280763,2|0,3:3|0:0,0:0:0:0:
241,267,117450,6,0,B|219:201|219:201|223:190,1,80.9999975280763,10|0,0:3|0:0,0:0:0:0:
26,135,117736,2,0,B|17:142|17:142|-4:244,1,80.9999975280763,2|0,0:3|0:0,0:0:0:0:
201,109,118022,2,0,B|229:94|229:94|277:128|277:128|340:131,1,121.499996292114,4|0,3:3|0:0,0:0:0:0:
390,121,118307,6,0,B|350:216|350:216|378:279,1,161.999995056153,4|2,3:3|0:3,0:0:0:0:
512,229,118736,2,0,B|475:223|475:223|471:219|471:219|415:212,1,80.9999975280763,0|2,3:0|0:3,0:0:0:0:
282,184,119022,1,0,3:0:0:0:
397,339,119164,6,0,B|361:343|361:343|355:348|355:348|296:353,1,80.9999975280763,12|0,0:3|0:0,0:0:0:0:
199,173,119450,1,8,0:3:0:0:
434,213,119593,1,8,0:3:0:0:
238,375,119736,2,0,L|220:233,1,121.499996292114,2|0,3:3|0:0,0:0:0:0:
199,173,120022,6,0,B|149:215|110:199|110:199,1,80.9999975280763,4|0,3:3|0:0,0:0:0:0:
321,136,120307,2,0,B|298:197|256:203|256:203,1,80.9999975280763,2|0,0:3|3:0,0:0:0:0:
403,40,120593,2,0,B|414:104|381:130|381:130,1,80.9999975280763,2|0,0:3|0:0,0:0:0:0:
331,252,120879,5,12,0:3:0:0:
246,73,121022,2,0,L|353:63,1,80.9999975280763,8|2,0:3|0:3,0:0:0:0:
411,227,121307,1,8,0:3:0:0:
265,197,121450,1,0,0:0:0:0:
265,197,121593,1,0,0:0:0:0:
468,129,121736,6,0,B|500:231|500:231|462:306,1,161.999995056153,2|2,3:3|0:3,0:0:0:0:
402,350,122164,2,0,L|302:320,1,80.9999975280763,0|2,3:0|0:3,0:0:0:0:
215,295,122450,1,0,3:0:0:0:
409,226,122593,5,10,0:3:0:0:
271,189,122736,1,0,3:0:0:0:
251,184,122807,1,0,3:0:0:0:
231,177,122879,2,0,B|228:136|228:136|223:131|223:131|221:73,1,80.9999975280763,8|0,0:3|0:0,0:0:0:0:
48,17,123164,1,8,0:3:0:0:
29,233,123307,1,8,0:3:0:0:
176,35,123450,6,0,B|208:17|208:17|340:37,1,135,4|0,3:3|0:0,0:0:0:0:
427,106,123736,1,2,0:3:0:0:
316,121,123879,1,0,0:0:0:0:
338,232,124022,1,2,3:3:0:0:
448,216,124165,1,0,3:0:0:0:
300,113,124307,5,10,0:3:0:0:
325,243,124450,1,0,0:0:0:0:
172,211,124593,1,2,0:3:0:0:
190,195,124688,1,0,0:0:0:0:
220,199,124783,1,0,0:0:0:0:
254,188,124879,2,0,L|241:322,1,135,4|0,3:3|0:0,0:0:0:0:
141,384,125164,6,0,B|127:356|127:356|142:289|142:289|147:175,1,168.75,4|0,3:3|0:0,0:0:0:0:
181,137,125450,1,2,0:3:0:0:
55,178,125593,1,0,0:0:0:0:
14,49,125736,1,2,3:3:0:0:
141,9,125879,1,0,3:0:0:0:
49,193,126022,5,10,0:3:0:0:
0,42,126164,1,0,3:0:0:0:
144,222,126307,1,2,0:3:0:0:
257,0,126449,1,0,0:0:0:0:
241,239,126593,1,2,3:3:0:0:
124,24,126736,1,8,0:3:0:0:
402,28,126879,6,0,L|387:172,1,135,4|0,3:3|0:0,0:0:0:0:
453,215,127164,1,2,3:3:0:0:
484,0,127307,1,8,0:3:0:0:
323,32,127450,1,2,0:3:0:0:
474,102,127593,1,8,0:3:0:0:
253,168,127736,6,0,B|212:190|212:190|251:295,1,135,4|0,3:3|0:0,0:0:0:0:
394,283,128022,2,0,B|395:236|395:236|285:217,1,135,2|0,3:3|0:0,0:0:0:0:
221,347,128307,2,0,B|260:371|260:371|331:285,1,135,10|0,0:3|0:0,0:0:0:0:
165,285,128593,6,0,B|138:323|138:323|85:154,1,180,4|2,3:3|3:3,0:0:0:0:
46,60,129022,1,0,3:0:0:0:
67,67,129093,1,0,3:0:0:0:
88,73,129164,2,0,L|159:57,1,45,0|0,3:0|0:0,0:0:0:0:
215,155,129307,2,0,L|163:143,1,45
13,141,129450,5,8,0:3:0:0:
260,78,129593,2,0,L|350:102,2,72,8|0|0,0:3|3:0|3:0,0:0:0:0:
171,144,130022,1,0,3:0:0:0:
202,14,130164,1,0,3:0:0:0:
268,216,130307,6,0,B|304:194|304:194|342:204|342:204|418:208,1,135,4|0,3:3|0:0,0:0:0:0:
471,236,130593,2,0,L|487:136,1,90,2|0,0:3|0:0,0:0:0:0:
364,282,130879,1,2,3:3:0:0:
338,113,131022,1,0,3:0:0:0:
179,196,131164,6,0,L|296:222,1,90,10|0,0:3|0:0,0:0:0:0:
88,301,131450,2,0,L|175:282,1,90,2|0,0:3|0:0,0:0:0:0:
58,110,131736,2,0,B|96:89|96:89|198:112,1,120,4|0,3:3|0:0,0:0:0:0:
247,144,132022,6,0,B|257:118|257:118|258:82|258:82|324:38,1,135,4|0,3:3|0:0,0:0:0:0:
377,0,132307,2,0,B|394:21|394:21|424:40|424:40|430:119,1,135,2|0,0:3|0:0,0:0:0:0:
437,185,132593,2,0,B|410:189|410:189|378:205|378:205|307:171,1,135,2|0,3:3|0:0,0:0:0:0:
252,218,132879,6,0,L|260:321,1,90,10|0,0:3|3:0,0:0:0:0:
417,384,133164,2,0,L|436:277,1,90,2|0,0:3|0:0,0:0:0:0:
332,129,133450,2,0,L|341:241,1,90,2|8,3:3|0:3,0:0:0:0:
145,263,133736,5,4,3:3:0:0:
121,168,133879,1,0,0:0:0:0:
219,194,134022,1,2,3:3:0:0:
112,360,134164,5,8,0:3:0:0:
140,244,134307,1,2,0:3:0:0:
30,276,134450,1,0,3:0:0:0:
232,323,134593,5,4,3:3:0:0:
212,176,134736,1,0,0:0:0:0:
371,155,134879,1,2,3:3:0:0:
391,302,135022,1,0,0:0:0:0:
193,163,135164,5,10,0:3:0:0:
452,222,135307,1,0,0:0:0:0:
225,340,135450,6,0,B|164:337|164:337|127:350|127:350|35:326,1,180,4|2,3:3|3:3,0:0:0:0:
145,177,135879,1,0,3:0:0:0:
166,169,135950,1,0,3:0:0:0:
187,160,136022,2,0,L|200:92,2,60,0|0|0,3:0|0:0|0:0,0:0:0:0:
110,241,136307,5,8,0:3:0:0:
92,12,136450,1,8,0:3:0:0:
276,181,136593,1,2,3:3:0:0:
266,197,136664,1,2,0:3:0:0:
260,221,136736,1,2,3:3:0:0:
263,249,136807,1,2,0:3:0:0:
282,278,136879,1,2,3:3:0:0:
293,320,136950,1,2,0:3:0:0:
276,357,137022,1,2,3:3:0:0:
230,377,137093,1,2,0:3:0:0:
185,360,137164,6,0,B|152:342|152:342|179:201,1,148.50000453186,4|0,3:3|0:0,0:0:0:0:
187,160,137450,1,2,3:3:0:0:
296,322,137593,2,0,L|280:200,1,99.0000030212403,8|2,0:3|0:3,0:0:0:0:
270,94,137879,1,0,3:0:0:0:
418,289,138022,6,0,B|423:323|423:323|513:249|513:249|409:200|409:200|362:235|362:235|259:220,1,405.000015449525,12|0,0:3|0:0,0:0:0:0:
84,123,138593,1,8,0:3:0:0:
147,359,138736,1,8,0:3:0:0:
239,153,138879,6,0,B|169:171|169:171|135:215|135:215|45:214,1,182.250000695229,2|0,3:3|0:0,0:0:0:0:
14,162,139164,1,0,3:0:0:0:
238,259,139307,2,0,B|319:271|319:271|292:179,1,121.500000463486,10|0,0:3|3:0,0:0:0:0:
276,37,139593,1,0,3:0:0:0:
304,54,139664,1,0,3:0:0:0:
333,71,139736,6,0,B|411:39|411:39|480:42|480:42|406:12,1,216,12|0,0:3|0:0,0:0:0:0:
352,166,140022,2,0,B|274:134|274:134|205:137|205:137|279:107,1,216,8|0,0:3|0:0,0:0:0:0:
345,262,140307,2,0,B|423:230|423:230|492:233|492:233|418:203,1,216,8|0,0:3|0:0,0:0:0:0:
285,326,140593,6,0,B|257:301|257:301|269:225|269:225|175:228,1,182.250000695229,4|0,3:3|0:0,0:0:0:0:
176,300,140879,1,2,3:3:0:0:
351,165,141022,2,0,B|319:133|319:133|274:145|274:145|198:145,1,121.500000463486,8|2,0:3|0:3,0:0:0:0:
128,70,141307,1,0,3:0:0:0:
62,296,141450,5,12,0:3:0:0:
56,265,141522,1,0,0:0:0:0:
51,235,141593,1,0,3:0:0:0:
45,205,141664,1,0,3:0:0:0:
40,174,141736,2,0,B|102:137|102:137|171:166|171:166|101:174,1,182.250000695229,12|0,0:3|0:0,0:0:0:0:
41,64,142022,1,8,0:3:0:0:
102,277,142164,1,8,0:3:0:0:
245,106,142308,6,0,B|279:183|251:210|251:210|257:264|291:292,1,182.250000695229,4|0,3:3|0:0,0:0:0:0:
371,371,142593,1,2,3:0:0:0:
371,371,142664,1,2,3:0:0:0:
371,371,142736,2,0,B|349:337|314:349|314:349|274:379|243:335,1,121.500000463486,12|0,0:3|0:0,0:0:0:0:
332,145,143021,1,0,3:0:0:0:
348,170,143093,1,0,3:0:0:0:
365,196,143164,6,0,B|383:222|383:222|387:164|387:164|405:142|410:85,1,144,12|0,0:3|3:0,0:0:0:0:
294,68,143379,1,0,3:0:0:0:
277,94,143450,2,0,B|259:120|259:120|248:63|248:63|224:32|237:-23,1,144,0|0,3:0|3:0,0:0:0:0:
108,131,143664,1,0,3:0:0:0:
125,157,143735,2,0,B|143:183|143:183|155:119|155:119|175:89|166:59|166:59|81:41,1,216,10|0,0:3|0:0,0:0:0:0:
85,251,144022,5,4,3:3:0:0:
225,194,144164,1,0,3:0:0:0:
35,117,144307,1,0,3:0:0:0:
115,343,144450,2,0,B|145:294|145:294|218:278,1,121.500000463486,12|0,0:3|3:0,0:0:0:0:
331,384,144736,1,0,3:0:0:0:
500,225,144879,6,0,B|463:226|448:264|418:261|418:261|402:230|377:217|377:217|363:228|363:228|335:224|335:224|254:236,1,243.000000926971,10|0,0:3|0:0,0:0:0:0:
251,304,145260,1,8,0:3:0:0:
279,312,145355,1,0,3:0:0:0:
353,337,145450,5,8,0:3:0:0:
282,348,145545,1,8,0:3:0:0:
211,359,145641,1,8,3:3:0:0:
137,372,145736,6,0,B|123:313|123:313|153:271|153:271|158:162,1,182.250000695229,2|0,3:3|0:0,0:0:0:0:
119,133,146022,1,0,3:0:0:0:
27,319,146164,2,0,B|40:281|40:281|19:177,1,121.500000463486,10|0,0:3|3:0,0:0:0:0:
118,26,146450,1,0,3:0:0:0:
145,40,146522,1,0,3:0:0:0:
175,53,146593,6,0,B|263:37|263:37|293:75|293:75|384:94,1,216,12|0,0:3|0:0,0:0:0:0:
456,74,146879,1,12,0:3:0:0:
189,132,147022,1,12,0:3:0:0:
419,174,147164,1,0,3:0:0:0:
365,16,147307,1,8,0:3:0:0:
308,235,147450,6,0,B|330:219|330:219|405:251|405:251|497:237,1,182.250000695229,4|0,3:3|0:0,0:0:0:0:
494,162,147736,1,0,3:0:0:0:
374,343,147879,1,10,0:3:0:0:
242,191,148022,2,0,B|170:169|170:169|79:202,1,121.500000463486,0|0,3:0|3:0,0:0:0:0:
164,384,148307,6,0,B|172:331|172:331|163:308|163:308|178:221,1,130.500003982544,12|0,0:3|3:0,0:0:0:0:
47,211,148522,1,0,3:0:0:0:
61,226,148593,2,0,B|53:173|53:173|62:150|62:150|47:63,1,130.500003982544,12|0,0:3|3:0,0:0:0:0:
200,27,148879,1,8,0:3:0:0:
171,256,149022,1,8,0:3:0:0:
399,181,149164,6,0,B|381:163|357:161|357:161|321:179|264:171,1,121.500000463486,2|0,3:3|3:0,0:0:0:0:
286,149,149379,1,0,3:0:0:0:
284,129,149450,2,0,B|285:94|285:94|310:41,1,60.7500002317429,0|0,3:0|3:0,0:0:0:0:
496,215,149593,6,0,B|467:218|447:246|447:246|467:300|423:272,1,121.500000463486,10|0,0:3|3:0,0:0:0:0:
398,261,149807,1,0,3:0:0:0:
368,253,149879,2,0,B|330:245|330:245|256:267,1,60.7500002317429,0|0,3:0|3:0,0:0:0:0:
144,355,150022,5,12,0:3:0:0:
209,106,150164,1,8,0:3:0:0:
217,165,150236,1,8,0:3:0:0:
226,222,150307,1,10,0:3:0:0:
234,280,150379,1,8,0:3:0:0:
243,337,150450,1,0,3:0:0:0:
18,231,150593,1,10,0:3:0:0:
28,172,150665,1,8,0:3:0:0:
37,115,150736,1,8,0:3:0:0:
47,57,150808,1,8,0:3:0:0:
57,0,150879,6,0,B|118:30|118:30|134:44|134:44|169:20|218:30,1,168.75,4|0,3:3|0:0,0:0:0:0:
283,37,151164,1,0,3:0:0:0:
198,232,151307,2,0,B|209:201|209:201|202:179|183:152|183:152|195:116,2,112.5,12|0|0,0:3|3:0|0:0,0:0:0:0:
408,146,151736,6,0,B|355:152|308:130|308:130|272:147,1,112.5,2|0,3:3|3:0,0:0:0:0:
122,198,152022,1,2,3:3:0:0:
210,25,152164,1,8,0:3:0:0:
293,221,152307,2,0,B|316:231|348:230|348:230|398:279|398:279|421:266|480:256,1,168.75,2|0,3:3|0:0,0:0:0:0:
483,198,152593,5,4,3:3:0:0:
313,336,152736,1,8,0:3:0:0:
299,134,152879,1,0,3:0:0:0:
295,106,152950,1,0,3:0:0:0:
293,77,153022,2,0,B|235:80|194:100|194:100|154:59|154:59|148:80|148:80|119:94|126:145,1,225,12|0,0:3|0:0,0:0:0:0:
15,360,153450,5,2,3:3:0:0:
47,130,153593,1,8,0:3:0:0:
158,362,153736,5,2,3:3:0:0:
125,114,153879,1,8,0:3:0:0:
246,378,154022,5,2,3:3:0:0:
273,152,154165,1,8,0:3:0:0:
402,329,154307,5,2,3:3:0:0:
374,324,154379,1,0,3:0:0:0:
346,319,154450,1,8,0:3:0:0:
273,152,154593,1,0,3:0:0:0:
301,147,154665,1,0,3:0:0:0:
328,141,154736,2,0,B|421:162|421:162|381:176|381:176|362:236|298:227,1,225,12|0,0:3|0:0,0:0:0:0:
240,33,155164,5,4,3:3:0:0:
462,81,155307,1,0,3:0:0:0:
202,191,155450,5,4,3:3:0:0:
420,162,155593,1,8,0:3:0:0:
192,313,155736,6,0,B|233:310|233:310|266:330|266:330|374:339,1,168.75,4|0,3:3|0:0,0:0:0:0:
458,371,156022,5,4,3:3:0:0:
466,343,156093,1,0,0:0:0:0:
474,316,156164,2,0,L|459:223,3,56.25,0|0|0|0,0:0|0:0|3:0|3:0,0:0:0:0:
512,182,156450,5,10,0:3:0:0:
448,171,156522,1,8,0:3:0:0:
388,158,156593,1,8,0:3:0:0:
329,147,156664,1,8,0:3:0:0:
270,137,156736,2,0,L|192:155,1,56.25,0|0,3:0|3:0,0:0:0:0:
422,40,156879,6,0,L|430:104,3,56.25,0|0|0|0,3:0|3:0|3:0|3:0,0:0:0:0:
337,46,157164,2,0,L|253:64,1,56.25,0|0,3:0|3:0,0:0:0:0:
256,227,157307,1,8,0:3:0:0:
315,240,157379,1,8,0:3:0:0:
375,250,157450,2,0,L|390:172,3,56.25,0|0|0|0,3:0|3:0|3:0|3:0,0:0:0:0:
351,345,157736,5,4,3:3:0:0:
307,356,157807,1,8,0:3:0:0:
261,352,157879,1,2,3:3:0:0:
221,330,157950,1,8,0:3:0:0:
177,317,158022,1,2,3:3:0:0:
132,318,158093,1,8,0:3:0:0:
91,336,158164,5,2,3:3:0:0:
95,290,158236,1,8,0:3:0:0:
98,245,158307,1,2,3:3:0:0:
102,199,158379,1,8,0:3:0:0:
106,154,158450,1,2,3:3:0:0:
110,108,158522,1,8,0:3:0:0:
112,63,158593,6,0,L|50:48,3,56.25,2|8|2|8,3:3|0:3|3:3|0:3,0:0:0:0:
245,157,158879,2,0,L|307:142,3,56.25,2|8|2|8,3:3|0:3|3:3|0:3,0:0:0:0:
98,245,159164,2,0,L|36:230,3,56.25,2|8|2|8,3:3|0:3|3:3|0:3,0:0:0:0:
197,80,159450,5,4,3:3:0:0:
241,72,159522,1,8,0:3:0:0:
285,65,159593,1,2,3:3:0:0:
329,58,159664,1,8,0:3:0:0:
373,51,159736,1,2,3:3:0:0:
417,45,159807,1,8,0:3:0:0:
462,40,159879,5,2,3:3:0:0:
435,75,159950,1,8,0:3:0:0:
430,120,160022,1,2,3:3:0:0:
443,162,160093,1,8,0:3:0:0:
469,197,160164,1,2,3:3:0:0:
469,242,160236,1,8,0:3:0:0:
443,278,160307,6,0,L|382:249,3,56.25,2|8|2|8,3:3|0:3|3:3|0:3,0:0:0:0:
323,111,160593,2,0,L|328:178,3,56.25,2|8|2|8,3:3|0:3|3:3|0:3,0:0:0:0:
238,298,160879,2,0,L|293:259,3,56.25,2|8|2|8,3:3|0:3|3:3|0:3,0:0:0:0:
100,126,161164,5,4,3:3:0:0:
140,105,161236,1,8,0:3:0:0:
184,101,161307,1,2,3:3:0:0:
224,120,161379,1,8,0:3:0:0:
249,156,161450,2,0,L|213:238,1,56.25,2|8,3:3|0:3,0:0:0:0:
443,278,161592,5,6,3:3:0:0:
435,233,161664,1,8,0:3:0:0:
428,188,161735,1,2,3:3:0:0:
420,143,161807,1,8,0:3:0:0:
414,98,161879,2,0,L|400:9,1,56.25,2|8,3:3|0:3,0:0:0:0:
180,28,162022,5,6,3:3:0:0:
223,37,162093,1,8,0:3:0:0:
265,49,162164,2,0,L|348:70,1,56.25,2|8,3:3|0:3,0:0:0:0:
428,188,162307,5,6,3:3:0:0:
385,197,162378,1,8,0:3:0:0:
343,209,162450,2,0,L|260:230,1,56.25,2|8,3:3|0:3,0:0:0:0:
173,350,162593,5,2,3:3:0:0:
216,359,162664,1,8,0:3:0:0:
258,371,162735,2,0,L|341:392,1,56.25,2|8,3:3|0:3,0:0:0:0:
251,143,162879,5,4,3:3:0:0:
208,187,162950,1,8,0:3:0:0:
205,249,163022,1,8,0:3:0:0:
244,296,163093,1,8,0:3:0:0:
303,309,163164,1,8,0:3:0:0:
311,276,163236,1,8,0:3:0:0:
320,243,163307,1,8,0:3:0:0:
328,210,163379,1,0,3:0:0:0:
335,177,163450,2,0,L|332:113,3,38.2500007295609,0|0|0|0,3:0|3:0|3:0|3:0,0:0:0:0:
225,56,163736,5,0,3:0:0:0:
255,86,163807,2,0,L|241:190,2,56.25,4|0|0,3:0|3:0|3:0,0:0:0:0:
92,177,164022,5,0,3:0:0:0:
102,136,164093,2,0,L|199:96,2,56.25,4|0|0,3:0|3:0|3:0,0:0:0:0:
262,230,164307,5,0,3:0:0:0:
221,240,164379,2,0,L|137:175,2,56.25,4|0|0,3:0|3:0|3:0,0:0:0:0:
259,47,164593,6,0,B|339:32|339:32|360:75|360:75|490:92,1,225,4|0,3:3|0:0,0:0:0:0:
30,97,165498,6,0,B|25:80|9:78|9:78|-1:58|10:49|5:15|5:15|34:83|126:14|87:-10|86:-1|114:102|166:29|124:28|124:28|124:32|158:76|138:76|138:76|129:76|131:71|156:92|147:105|147:105|131:118|146:155|146:155|105:144|105:144|99:173|99:173|67:158|60:204|40:225|25:208|25:208|31:196|43:193|43:193|87:230|115:230|115:230|122:257|122:257|127:270|146:259|167:254|167:254|188:275|204:250|204:250|234:271|228:247|256:238|256:238|227:206|214:231|214:231|195:208|221:199|219:176|219:176|239:201|282:199,1,1050
488,236,167022,6,0,B|477:194|443:236|430:211|430:211|450:184|396:157|470:170|469:138|469:138|445:136|428:134|422:123|451:110|427:93|427:93|409:94|402:81|402:81|397:90|397:90|370:95|375:77|367:33|367:33|338:53|356:93|300:83|300:83|313:35|300:69|300:69|283:49|243:58|261:45|303:71|266:134,1,600
326,382,168022,6,0,B|352:324|352:324|328:282|328:282|349:168,2,225,4|0|0,3:3|0:0|0:0,0:0:0:0:
239,51,168843,6,0,B|211:14|202:48|202:48|201:55|191:30|176:46|176:46|202:58|155:77|163:17|112:20|112:20|139:62|89:8|62:22|62:22|53:41|53:41|31:52|28:82|28:82|68:77|26:139|73:79|102:107|102:107|82:113|82:113|85:125|85:125|66:130|66:130|68:142|68:142|53:134|79:178|38:184|64:200|64:200|50:224|50:224|57:248|81:248|81:248|97:262|109:257|109:257|141:282|141:282|134:255|153:262|153:262|172:284|171:261|171:261|223:260|190:257|197:237|215:258|215:258|202:283|202:283|223:274|223:274|220:285|201:260|246:249|233:327|215:302|215:302|267:306|221:321|221:321|214:333|224:343|214:350|214:350|235:366|235:366|239:338|251:353|251:353|219:360|219:360|208:392|188:365|188:365|165:379|165:379|160:367|138:375|138:375|165:329|109:380|132:386|132:386|132:353|132:353|120:355|120:355|100:348|95:335|93:290|126:334|126:334|116:321|124:310|124:310|94:309|128:228|128:228|141:213|131:180|131:180|162:205|153:147|193:148|193:148,1,1604.25001223946
271,184,170592,5,8,0:3:0:0:
327,176,170664,1,8,0:3:0:0:
382,170,170735,1,8,0:3:0:0:
438,164,170807,1,8,0:3:0:0:
493,158,170878,1,0,3:0:0:0:
486,185,170950,1,0,3:0:0:0:
479,212,171022,1,0,3:0:0:0:
472,239,171093,1,0,3:0:0:0:
466,265,171164,2,0,L|385:248,3,45,0|0|0|0,3:0|3:0|3:0|3:0,0:0:0:0:
373,338,171450,6,0,B|340:344|340:344|306:340|306:340|171:364,1,180,2|0,3:3|3:0,0:0:0:0:
94,250,171879,5,2,0:3:0:0:
182,231,172022,1,0,0:0:0:0:
275,210,172164,1,0,0:0:0:0:
85,230,172307,5,10,0:3:0:0:
165,239,172450,1,0,0:0:0:0:
89,122,172593,1,0,3:0:0:0:
274,53,172736,6,0,B|285:95|285:95|277:147|277:147|300:242,1,180,2|0,3:3|3:0,0:0:0:0:
453,355,173164,5,2,0:3:0:0:
427,195,173307,1,0,0:0:0:0:
268,219,173450,1,0,0:0:0:0:
294,377,173593,1,2,0:3:0:0:
190,168,173736,6,0,B|166:195|166:195|113:175|113:175|42:195,1,150,0|0,3:0|0:0,0:0:0:0:
44,197,174022,1,10,0:3:0:0:
35,347,174164,5,0,0:0:0:0:
159,324,174307,1,0,0:0:0:0:
290,304,174450,5,2,0:3:0:0:
211,291,174593,1,0,0:0:0:0:
132,277,174736,1,0,0:0:0:0:
279,144,174879,5,2,3:3:0:0:
275,161,174950,1,0,3:0:0:0:
273,178,175021,1,0,3:0:0:0:
269,195,175093,1,0,3:0:0:0:
265,212,175164,1,0,3:0:0:0:
416,311,175307,5,2,0:3:0:0:
393,218,175450,1,0,0:0:0:0:
372,125,175593,1,0,0:0:0:0:
369,345,175736,5,10,0:3:0:0:
401,208,175879,1,0,0:0:0:0:
430,77,176022,1,0,0:0:0:0:
264,232,176164,6,0,B|256:180|256:180|268:106|268:106|210:36,1,180,2|0,3:3|3:0,0:0:0:0:
59,96,176593,5,4,0:3:0:0:
76,186,176736,1,0,0:0:0:0:
93,281,176879,5,0,0:0:0:0:
99,209,177022,1,2,0:3:0:0:
109,138,177164,1,0,0:0:0:0:
180,254,177307,1,0,3:0:0:0:
317,130,177450,6,0,B|356:155|356:155|446:130|446:130|506:133,1,180,10|0,0:3|3:0,0:0:0:0:
325,18,177879,5,2,0:3:0:0:
165,44,178022,1,0,0:0:0:0:
189,203,178164,1,0,0:0:0:0:
347,177,178307,1,2,0:3:0:0:
148,308,178450,6,0,B|140:264|140:264|111:228|111:228|125:123,1,180,0|2,3:0|3:3,0:0:0:0:
249,56,178879,5,0,0:0:0:0:
233,190,179022,1,0,0:0:0:0:
230,24,179165,5,10,0:3:0:0:
243,101,179308,1,0,0:0:0:0:
258,176,179451,1,0,0:0:0:0:
386,45,179593,5,2,3:3:0:0:
369,41,179664,1,0,3:0:0:0:
352,39,179736,1,0,3:0:0:0:
336,35,179807,1,0,3:0:0:0:
318,31,179878,1,0,3:0:0:0:
245,197,180022,5,2,0:3:0:0:
338,174,180165,1,0,0:0:0:0:
431,153,180308,1,0,0:0:0:0:
477,233,180450,5,2,0:3:0:0:
338,199,180592,1,0,0:0:0:0:
199,161,180735,1,0,0:0:0:0:
364,308,180878,6,0,B|319:316|319:316|284:289|284:289|174:334,1,180,10|2,0:3|3:3,0:0:0:0:
44,280,181307,5,0,0:0:0:0:
61,190,181450,1,0,0:0:0:0:
78,95,181593,5,0,0:0:0:0:
84,167,181736,1,2,0:3:0:0:
94,238,181878,1,0,0:0:0:0:
165,122,182021,1,0,3:0:0:0:
235,283,182164,6,0,B|199:261|199:261|165:311|165:311|198:419,1,180,2|0,3:3|3:0,0:0:0:0:
414,329,182593,5,10,0:3:0:0:
440,171,182736,1,0,0:0:0:0:
281,147,182878,1,0,0:0:0:0:
255,307,183021,1,0,0:0:0:0:
222,81,183164,6,0,B|268:50|268:50|348:87|348:87|414:90,1,180,4|4,3:3|3:3,0:0:0:0:
471,222,183593,5,0,0:0:0:0:
334,249,183736,1,0,3:0:0:0:
250,152,183879,5,10,0:3:0:0:
351,239,184022,1,0,3:0:0:0:
301,371,184164,1,0,3:0:0:0:
121,199,184307,5,10,0:3:0:0:
178,191,184379,1,8,0:3:0:0:
235,184,184450,1,10,0:3:0:0:
128,0,184593,1,10,0:3:0:0:
28,258,184736,6,0,B|60:247|60:247|72:262|72:262|122:275|122:275,1,90,2|0,3:3|0:0,0:0:0:0:
157,336,185164,6,0,L|141:164,1,167.999994873047,4|0,3:3|3:0,0:0:0:0:
346,273,185592,2,0,B|228:233|228:233|221:171,1,167.999994873047,10|0,0:3|3:0,0:0:0:0:
397,147,186021,2,0,B|335:159|335:159|317:134,1,83.9999974365235,2|0,3:3|0:0,0:0:0:0:
270,27,186306,1,0,3:0:0:0:
141,168,186449,6,0,B|124:208|124:208|92:233,1,83.9999974365235,10|0,0:3|0:0,0:0:0:0:
157,336,186735,2,0,B|174:296|174:296|206:271,1,83.9999974365235,0|2,3:0|0:3,0:0:0:0:
317,384,187021,5,0,3:0:0:0:
304,379,187164,1,0,3:0:0:0:
431,270,187306,6,0,B|393:254|393:254|350:260,1,83.9999974365235,12|0,0:3|0:0,0:0:0:0:
231,359,187592,1,0,3:0:0:0:
175,151,187735,2,0,B|211:134|211:134|287:167|287:167|350:160,1,167.999994873047,2|0,3:3|3:0,0:0:0:0:
58,147,188164,6,0,B|29:183|29:183|50:221|50:221|95:206|95:206|98:166|98:166|211:115,1,284.999992389679,12|0,0:3|0:0,0:0:0:0:
297,83,188592,6,0,L|284:250,1,167.999994873047,4|0,3:3|3:0,0:0:0:0:
454,327,189021,2,0,B|480:287|480:287|445:172,1,167.999994873047,10|0,0:3|3:0,0:0:0:0:
337,324,189449,2,0,B|358:313|358:313|373:249,1,83.9999974365235,2|0,3:3|0:0,0:0:0:0:
324,129,189735,1,0,3:0:0:0:
171,295,189878,5,10,0:3:0:0:
273,265,190021,1,0,0:0:0:0:
112,167,190164,1,2,3:3:0:0:
212,184,190307,1,2,0:3:0:0:
88,354,190449,5,0,3:0:0:0:
104,350,190592,1,0,3:0:0:0:
112,167,190735,6,0,B|97:123|97:123|128:54,1,83.9999974365235,12|0,0:3|0:0,0:0:0:0:
162,0,191021,1,0,3:0:0:0:
348,122,191164,2,0,B|262:147|262:147|233:128|233:128|167:128,1,167.999994873047,2|0,3:3|3:0,0:0:0:0:
430,70,191592,5,12,0:3:0:0:
409,75,191664,1,0,0:0:0:0:
389,81,191735,1,0,3:0:0:0:
368,86,191806,1,0,3:0:0:0:
349,93,191878,1,0,3:0:0:0:
420,249,192021,6,0,B|430:154,1,83.9999974365235,4|0,3:3|3:0,0:0:0:0:
449,160,192235,1,0,3:0:0:0:
469,155,192306,1,0,3:0:0:0:
479,324,192449,2,0,B|428:352|428:352|372:333,1,83.9999974365235,2|0,0:3|3:0,0:0:0:0:
383,335,192664,1,0,3:0:0:0:
363,327,192735,1,0,3:0:0:0:
475,194,192878,2,0,B|445:243|445:243|387:255,1,83.9999974365235,10|0,0:3|3:0,0:0:0:0:
308,164,193164,1,0,3:0:0:0:
270,377,193306,6,0,B|266:356|266:356|283:288,1,83.9999974365235,2|0,3:3|0:0,0:0:0:0:
186,185,193592,2,0,B|201:246|201:246|197:266,1,83.9999974365235,4|2,3:3|3:3,0:0:0:0:
70,263,193878,5,4,3:3:0:0:
92,259,194021,1,0,3:0:0:0:
157,84,194164,6,0,B|203:77|203:77|261:111,1,83.9999974365235,4|0,3:3|0:0,0:0:0:0:
301,213,194449,1,0,3:0:0:0:
434,38,194592,2,0,B|358:24|358:24|307:46|307:46|252:12,1,167.999994873047,10|8,0:3|0:3,0:0:0:0:
492,60,195021,6,0,B|522:54|522:54|537:92|537:92|506:111|506:111|478:88|478:88|377:69|377:69|309:99,1,284.999992389679,4|0,3:3|0:0,0:0:0:0:
241,120,195449,6,0,B|254:244,1,83.9999974365235,4|0,3:3|3:0,0:0:0:0:
241,227,195664,1,0,3:0:0:0:
231,250,195735,1,0,3:0:0:0:
431,165,195878,2,0,B|373:176|373:176|343:226,1,83.9999974365235,2|0,3:3|3:0,0:0:0:0:
349,220,196092,1,0,3:0:0:0:
338,242,196164,1,0,3:0:0:0:
512,298,196306,2,0,B|456:279|456:279|405:307,1,83.9999974365235,10|0,0:3|0:0,0:0:0:0:
272,367,196592,1,0,3:0:0:0:
254,348,196664,1,0,3:0:0:0:
235,331,196735,6,0,B|223:286|223:286|237:216,1,83.9999974365235,12|0,0:3|3:0,0:0:0:0:
255,239,196949,1,0,3:0:0:0:
255,239,197021,2,0,B|262:202|262:202|251:158,1,83.9999974365235,8|2,0:3|0:3,0:0:0:0:
30,199,197306,5,8,0:3:0:0:
67,187,197449,1,0,3:0:0:0:
235,331,197592,6,0,B|188:328|188:328|134:284|134:284|53:312,1,167.999994873047,10|0,0:3|3:0,0:0:0:0:
323,260,198021,2,0,B|351:292|351:292|344:337,1,83.9999974365235,10|0,0:3|3:0,0:0:0:0:
340,357,198235,1,0,3:0:0:0:
335,381,198306,5,8,0:3:0:0:
390,120,198449,1,8,0:3:0:0:
226,226,198592,1,8,0:3:0:0:
480,278,198735,1,8,0:3:0:0:
299,138,198878,6,0,L|209:120,1,80.9999975280763,4|0,3:3|0:0,0:0:0:0:
399,92,199163,1,2,0:3:0:0:
314,36,199306,2,0,B|348:59|348:59|355:58|355:58|383:78,2,80.9999975280763,0|2|0,0:0|3:3|0:0,0:0:0:0:
166,219,199735,6,0,B|208:213|208:213|214:217|214:217|253:211,1,80.9999975280763,10|0,0:3|0:0,0:0:0:0:
326,378,200020,2,0,B|284:372|284:372|278:376|278:376|239:370,1,80.9999975280763,2|0,0:3|0:0,0:0:0:0:
298,137,200306,2,0,B|343:132|343:132|383:158|383:158|434:153,1,121.499996292114,4|0,3:3|0:0,0:0:0:0:
467,215,200592,6,0,B|425:250|425:250|309:213,1,161.999995056153,4|2,3:3|0:3,0:0:0:0:
169,170,201021,2,0,B|172:206|172:206|179:212|179:212|186:268,1,80.9999975280763,0|2,3:0|0:3,0:0:0:0:
213,361,201306,1,0,3:0:0:0:
74,194,201449,6,0,B|64:261|64:261|71:267|71:267|63:310,1,121.499996292114,12|0,0:3|0:0,0:0:0:0:
52,384,201735,1,10,0:3:0:0:
0,169,201878,1,8,0:3:0:0:
183,247,202021,2,0,B|209:249|209:249|220:243|220:243|334:258,1,121.499996292114,2|0,3:3|0:0,0:0:0:0:
393,275,202306,6,0,B|364:345|406:371|406:371,1,80.9999975280763,4|0,3:3|0:0,0:0:0:0:
416,118,202592,1,2,0:3:0:0:
416,118,202735,1,0,3:0:0:0:
365,196,202878,1,2,0:3:0:0:
365,196,203020,1,0,0:0:0:0:
509,121,203164,5,12,0:3:0:0:
320,38,203306,2,0,L|330:140,1,80.9999975280763,8|2,0:3|0:3,0:0:0:0:
200,205,203592,1,8,0:3:0:0:
221,87,203735,1,0,0:0:0:0:
221,87,203878,1,0,0:0:0:0:
104,265,204021,6,0,B|207:298|207:298|284:258,1,161.999995056153,4|2,3:3|0:3,0:0:0:0:
365,196,204449,2,0,L|376:302,1,80.9999975280763,0|2,3:0|0:3,0:0:0:0:
304,370,204735,1,0,3:0:0:0:
201,206,204878,2,0,B|246:183|246:183|305:197,1,80.9999975280763,12|0,0:3|3:0,0:0:0:0:
372,275,205164,1,2,0:3:0:0:
426,114,205307,2,0,L|325:89,1,80.9999975280763,0|2,3:0|0:3,0:0:0:0:
266,56,205520,1,0,3:0:0:0:
266,56,205592,2,0,B|275:61|275:61|270:74|270:74|250:78,1,40.4999987640381,0|0,3:0|0:0,0:0:0:0:
256,269,205735,6,0,B|263:277|263:277|276:381,1,80.9999975280763,4|0,3:3|0:0,0:0:0:0:
190,166,206020,2,0,B|195:177|195:177|171:278,1,80.9999975280763,2|0,0:3|0:0,0:0:0:0:
172,37,206306,2,0,B|172:49|172:49|117:135,1,80.9999975280763,2|0,3:3|0:0,0:0:0:0:
293,199,206592,6,0,B|298:187|298:187|282:120,1,80.9999975280763,10|0,0:3|0:0,0:0:0:0:
93,188,206878,2,0,B|98:199|98:199|74:300,1,80.9999975280763,2|0,0:3|0:0,0:0:0:0:
261,384,207163,2,0,B|281:351|281:351|263:326|263:326|250:242,1,121.499996292114,4|0,3:3|0:0,0:0:0:0:
293,199,207449,6,0,B|331:237|331:237|466:199,1,161.999995056153,4|2,3:3|0:3,0:0:0:0:
364,64,207878,2,0,B|360:101|360:101|363:107|363:107|355:157,2,80.9999975280763,0|2|0,3:0|0:3|3:0,0:0:0:0:
166,8,208306,6,0,B|179:114,1,80.9999975280763,10|0,0:3|0:0,0:0:0:0:
257,272,208592,1,8,0:3:0:0:
284,60,208735,1,8,0:3:0:0:
99,181,208878,2,0,L|246:200,1,121.499996292114,2|0,3:3|0:0,0:0:0:0:
257,272,209163,6,0,B|191:271|172:309|172:309,1,80.9999975280763,4|0,3:3|0:0,0:0:0:0:
375,214,209449,2,0,B|318:182|282:204|282:204,1,80.9999975280763,2|0,0:3|3:0,0:0:0:0:
506,234,209735,2,0,B|473:177|431:179|431:179,1,80.9999975280763,2|0,0:3|0:0,0:0:0:0:
332,287,210021,5,12,0:3:0:0:
267,103,210164,2,0,L|369:89,1,80.9999975280763,8|2,0:3|0:3,0:0:0:0:
217,231,210449,1,8,0:3:0:0:
372,212,210592,1,0,0:0:0:0:
372,212,210735,1,0,0:0:0:0:
157,162,210878,6,0,B|113:211|113:211|148:328,1,161.999995056153,2|2,3:3|0:3,0:0:0:0:
0,374,211306,2,0,B|8:336|8:336|4:330|4:330|18:271,2,80.9999975280763,0|2|0,3:0|0:3|3:0,0:0:0:0:
202,384,211735,5,10,0:3:0:0:
151,233,211878,1,0,3:0:0:0:
142,210,211949,1,0,3:0:0:0:
135,182,212020,2,0,B|143:184|143:184|154:183|154:183|220:194,1,80.9999975280763,0|0,3:0|0:0,0:0:0:0:
425,143,212306,1,8,0:3:0:0:
370,340,212449,1,8,0:3:0:0:
257,129,212592,6,0,L|270:39,1,90,4|0,3:3|3:0,0:0:0:0:
360,255,212878,2,0,L|347:164,1,90,2|0,3:3|3:0,0:0:0:0:
263,384,213163,2,0,L|275:294,1,90,2|0,3:3|3:0,0:0:0:0:
437,145,213449,5,10,0:3:0:0:
444,179,213592,1,0,3:0:0:0:
257,130,213735,5,2,3:3:0:0:
264,96,213878,1,0,3:0:0:0:
363,267,214020,5,2,3:3:0:0:
370,301,214163,1,0,3:0:0:0:
512,150,214306,6,0,L|407:141,1,90,2|0,3:3|3:0,0:0:0:0:
263,96,214592,2,0,B|298:90|298:90|308:95|308:95|369:88,1,90,2|0,3:3|3:0,0:0:0:0:
137,166,214878,2,0,B|172:172|172:172|182:167|182:167|243:174,1,90,2|0,3:3|3:0,0:0:0:0:
284,9,215163,5,10,0:3:0:0:
248,15,215306,1,0,3:0:0:0:
313,187,215449,5,2,3:3:0:0:
349,193,215592,1,0,3:0:0:0:
175,77,215735,5,2,3:3:0:0:
139,83,215878,1,0,3:0:0:0:
257,245,216020,5,4,3:3:0:0:
341,264,216163,1,0,3:0:0:0:
361,177,216306,1,2,3:3:0:0:
277,158,216449,1,0,3:0:0:0:
257,245,216592,1,2,3:3:0:0:
341,264,216735,1,0,3:0:0:0:
146,298,216878,6,0,P|129:350|145:412,1,90,8|0,0:3|3:0,0:0:0:0:
39,185,217163,2,0,P|56:237|40:299,1,90,2|0,3:3|3:0,0:0:0:0:
136,49,217449,2,0,P|119:101|135:163,1,90,2|0,3:3|3:0,0:0:0:0:
328,106,217735,6,0,B|316:95|316:95|219:105,2,90,4|0|2,3:3|3:0|3:3,0:0:0:0:
407,206,218163,1,0,3:0:0:0:
275,267,218306,2,0,B|282:230|282:230|280:220|280:220|287:178,1,90,2|0,3:3|3:0,0:0:0:0:
400,75,218592,5,8,0:3:0:0:
447,313,218735,1,8,0:3:0:0:
512,243,218878,1,0,3:0:0:0:
467,158,219020,1,0,3:0:0:0:
372,175,219163,1,0,3:0:0:0:
360,270,219305,1,0,3:0:0:0:
318,80,219449,6,0,L|420:94,1,90,4|0,3:3|3:0,0:0:0:0:
194,174,219735,2,0,L|296:160,1,90,2|0,3:3|3:0,0:0:0:0:
57,86,220020,2,0,L|159:100,1,90,2|0,3:3|3:0,0:0:0:0:
246,248,220306,5,10,0:3:0:0:
210,254,220449,1,0,3:0:0:0:
248,62,220592,5,2,3:3:0:0:
284,68,220735,1,0,3:0:0:0:
105,189,220878,5,2,3:3:0:0:
69,195,221021,1,0,3:0:0:0:
236,337,221163,6,0,L|245:247,1,90,2|0,3:3|3:0,0:0:0:0:
314,110,221449,2,0,B|317:146|317:146|337:162|337:162|343:226,1,90,2|0,3:3|3:0,0:0:0:0:
239,0,221735,2,0,B|236:44|236:44|229:50|229:50|224:126,1,90,2|0,3:3|3:0,0:0:0:0:
410,97,222020,5,10,0:3:0:0:
405,61,222163,1,0,3:0:0:0:
245,166,222306,5,2,3:3:0:0:
240,202,222449,1,0,3:0:0:0:
438,266,222592,5,2,3:3:0:0:
433,230,222735,1,0,3:0:0:0:
232,131,222878,5,4,3:3:0:0:
215,220,223020,1,0,3:0:0:0:
125,202,223163,1,2,3:3:0:0:
142,113,223305,1,0,3:0:0:0:
232,131,223449,1,2,3:3:0:0:
215,220,223591,1,0,3:0:0:0:
172,26,223735,6,0,P|107:25|64:63,1,90,12|0,0:3|3:0,0:0:0:0:
322,116,224020,2,0,P|257:117|214:79,1,90,2|0,3:3|3:0,0:0:0:0:
453,31,224306,2,0,P|388:30|345:68,1,90,2|0,3:3|3:0,0:0:0:0:
428,254,224592,6,0,B|439:241|438:241|438:241|429:137,1,90,4|0,3:3|3:0,0:0:0:0:
287,53,224878,1,2,3:3:0:0:
302,171,225020,1,0,3:0:0:0:
163,70,225163,1,2,3:3:0:0:
178,188,225305,1,0,3:0:0:0:
280,63,225449,5,8,0:3:0:0:
129,253,225592,1,8,0:3:0:0:
223,256,225735,1,0,3:0:0:0:
259,167,225877,1,0,3:0:0:0:
186,106,226020,1,0,3:0:0:0:
105,158,226162,1,0,3:0:0:0:
293,40,226306,6,0,B|372:98|372:98|441:83,1,135,4|0,3:3|0:0,0:0:0:0:
389,17,226592,1,8,0:3:0:0:
337,277,226735,1,8,0:3:0:0:
230,122,226877,1,8,0:3:0:0:
493,171,227020,1,8,0:3:0:0:
248,218,227163,6,0,B|211:221|211:221|204:225|204:225|159:238,1,67.5000025749208,0|0,3:0|3:0,0:0:0:0:
351,301,227449,2,0,B|314:298|314:298|307:293|307:293|262:281,1,67.5000025749208,0|0,3:0|3:0,0:0:0:0:
467,230,227735,2,0,B|430:233|430:233|423:237|423:237|378:250,1,67.5000025749208,0|0,3:0|3:0,0:0:0:0:
211,349,228020,6,0,B|192:319|192:319|219:195,1,135.000005149842,4|0,3:3|0:0,0:0:0:0:
110,314,228449,2,0,B|106:305|106:305|128:225,1,67.5000025749208,0|0,3:0|3:0,0:0:0:0:
143,170,228735,1,0,3:0:0:0:
41,258,228878,2,0,B|40:248|40:248|62:171,2,67.5000025749208,8|0|0,0:3|3:0|3:0,0:0:0:0:
143,170,229306,2,0,B|141:159|141:159|164:83,2,67.5000025749208,0|0|0,3:0|3:0|3:0,0:0:0:0:
275,60,229735,6,0,B|269:66|269:66|138:88,1,135.000005149842,0|0,3:0|0:0,0:0:0:0:
295,144,230163,2,0,B|290:149|290:149|228:159,1,67.5000025749208,0|0,3:0|3:0,0:0:0:0:
140,175,230449,1,0,3:0:0:0:
271,234,230592,2,0,B|263:242|263:242|193:252,2,67.5000025749208,8|0|0,0:3|3:0|3:0,0:0:0:0:
358,128,231020,2,0,B|350:136|350:136|280:146,2,67.5000025749208,0|0|0,3:0|3:0|3:0,0:0:0:0:
297,259,231449,6,0,B|288:250|288:250|270:119,1,135.000005149842,0|0,3:0|0:0,0:0:0:0:
370,192,231878,2,0,B|365:187|365:187|356:117,1,67.5000025749208,0|0,3:0|3:0,0:0:0:0:
342,47,232163,1,0,3:0:0:0:
447,140,232306,2,0,B|442:135|442:135|433:65,2,67.5000025749208,8|0|0,0:3|3:0|3:0,0:0:0:0:
382,256,232735,2,0,B|377:251|377:251|368:181,2,67.5000025749208,0|0|0,3:0|3:0|3:0,0:0:0:0:
505,309,233163,6,0,B|495:316|495:316|361:285,1,135.000005149842,0|0,3:0|0:0,0:0:0:0:
488,221,233592,2,0,B|479:223|479:223|413:209,1,67.5000025749208,0|0,3:0|3:0,0:0:0:0:
338,198,233878,1,0,3:0:0:0:
460,135,234020,2,0,B|451:137|451:137|385:123,1,67.5000025749208,8|0,0:3|3:0,0:0:0:0:
338,198,234306,2,0,B|329:200|329:200|263:186,1,67.5000025749208,0|0,3:0|3:0,0:0:0:0:
244,94,234592,1,8,0:3:0:0:
394,125,234735,1,8,0:3:0:0:
250,203,234878,6,0,B|213:199|213:199|113:231,1,116.999994644165,4|0,3:3|0:0,0:0:0:0:
116,321,235306,2,0,L|248:280,1,116.999994644165,0|0,3:0|0:0,0:0:0:0:
176,201,235735,2,0,L|102:225,1,58.4999973220826,8|0,0:3|3:0,0:0:0:0:
96,143,236020,2,0,L|175:117,1,58.4999973220826,0|0,3:0|3:0,0:0:0:0:
12,137,236306,2,0,L|32:212,1,58.4999973220826,0|0,3:0|3:0,0:0:0:0:
112,27,236592,6,0,L|95:143,1,116.999994644165,0|0,3:0|0:0,0:0:0:0:
175,201,237020,2,0,L|195:68,1,116.999994644165,0|0,3:0|0:0,0:0:0:0:
286,41,237449,2,0,L|277:114,1,58.4999973220826,8|0,0:3|3:0,0:0:0:0:
359,112,237735,2,0,L|366:53,1,58.4999973220826,0|0,3:0|3:0,0:0:0:0:
375,192,238020,2,0,L|316:184,1,58.4999973220826,0|0,3:0|3:0,0:0:0:0:
442,267,238306,6,0,L|301:286,1,116.999994644165,0|0,3:0|0:0,0:0:0:0:
259,207,238735,2,0,L|374:191,1,116.999994644165,0|0,3:0|0:0,0:0:0:0:
186,251,239163,2,0,L|174:172,1,58.4999973220826,8|0,0:3|3:0,0:0:0:0:
175,182,239378,1,0,3:0:0:0:
172,170,239449,1,0,3:0:0:0:
262,293,239592,2,0,L|274:214,1,58.4999973220826,8|0,0:3|3:0,0:0:0:0:
283,161,239878,1,0,3:0:0:0:
165,284,240020,6,0,L|87:268,1,67.5000025749208,4|0,3:3|3:0,0:0:0:0:
23,141,240306,2,0,L|69:131,3,33.7500012874604,8|8|8|8,0:3|3:0|3:0|3:0,0:0:0:0:
6,68,240592,5,8,0:3:0:0:
95,199,240735,1,8,0:3:0:0:
152,0,240878,1,8,0:3:0:0:
259,138,241020,5,2,3:3:0:0:
259,138,241306,5,0,0:0:0:0:
331,176,241449,1,0,0:0:0:0:
408,143,241592,1,0,0:0:0:0:
478,303,241735,6,0,B|461:276|461:276|397:258|313:293,1,153.000002918243,4|0,3:3|3:0,0:0:0:0:
238,148,242163,1,0,3:0:0:0:
331,187,242306,1,0,3:0:0:0:
408,118,242449,1,0,3:0:0:0:
248,240,242592,6,0,B|233:249|233:249|141:269,1,76.5000014591217,8|0,0:3|3:0,0:0:0:0:
113,147,242878,2,0,B|130:157|130:157|201:172,1,76.5000014591217,0|0,3:0|3:0,0:0:0:0:
237,55,243163,2,0,B|220:65|220:65|152:80,1,76.5000014591217,0|0,3:0|3:0,0:0:0:0:
0,127,243449,6,0,B|33:141|33:141|54:224|43:278,1,153.000002918243,0|0,3:0|3:0,0:0:0:0:
182,376,243878,1,0,3:0:0:0:
130,291,244020,1,0,3:0:0:0:
26,328,244163,1,0,3:0:0:0:
228,293,244306,5,8,0:3:0:0:
233,279,244378,1,0,0:0:0:0:
216,262,244449,1,0,3:0:0:0:
322,345,244592,2,0,P|332:313|340:219,1,114.750002188683,0|0,3:0|0:0,0:0:0:0:
315,203,244878,1,0,3:0:0:0:
216,262,245020,1,0,3:0:0:0:
119,185,245163,6,0,B|95:123|105:73|105:73|152:61,1,153.000002918243,0|0,3:0|3:0,0:0:0:0:
214,171,245592,1,0,3:0:0:0:
301,46,245735,2,0,P|223:18|182:-3,1,114.750002188683,0|0,3:0|0:0,0:0:0:0:
326,27,246020,2,0,B|314:87|314:87|318:124,1,76.5000014591217,8|0,0:3|3:0,0:0:0:0:
411,183,246306,2,0,B|399:123|399:123|403:86,1,76.5000014591217,0|0,3:0|3:0,0:0:0:0:
490,29,246592,2,0,B|478:89|478:89|482:126,1,76.5000014591217,0|0,3:0|3:0,0:0:0:0:
512,258,246878,6,0,B|500:229|500:229|452:198|369:213,1,153.000002918243,0|0,3:0|3:0,0:0:0:0:
253,336,247306,1,0,3:0:0:0:
302,253,247449,1,0,3:0:0:0:
388,298,247592,1,0,3:0:0:0:
204,255,247735,6,0,B|234:228|241:198|241:198|138:162,1,153.000002918243,8|0,0:3|3:0,0:0:0:0:
22,118,248163,1,0,3:0:0:0:
110,95,248306,1,8,0:3:0:0:
21,208,248449,1,8,0:3:0:0:
51,28,248592,6,0,B|99:-1|99:-1|152:12|218:58,1,153.000002918243,4|0,3:3|3:0,0:0:0:0:
37,217,249020,1,0,3:0:0:0:
6,112,249163,1,0,3:0:0:0:
115,87,249306,1,0,3:0:0:0:
142,265,249449,6,0,B|129:206|129:206|142:161,1,76.5000014591217,8|0,0:3|3:0,0:0:0:0:
235,126,249735,2,0,B|222:185|222:185|235:230,1,76.5000014591217,0|0,3:0|3:0,0:0:0:0:
330,252,250020,2,0,B|317:193|317:193|330:148,1,76.5000014591217,0|0,3:0|3:0,0:0:0:0:
417,38,250306,6,0,B|339:41|305:62|305:62|339:111,1,153.000002918243,0|0,3:0|3:0,0:0:0:0:
438,237,250735,1,0,3:0:0:0:
396,140,250878,1,0,3:0:0:0:
286,169,251020,1,0,3:0:0:0:
499,161,251163,5,8,0:3:0:0:
502,144,251235,1,0,0:0:0:0:
489,119,251306,1,0,3:0:0:0:
451,261,251449,2,0,P|375:230|308:233,1,114.750002188683,0|0,3:0|0:0,0:0:0:0:
316,250,251735,1,0,3:0:0:0:
339,354,251878,1,0,3:0:0:0:
195,276,252020,6,0,B|202:308|202:308|111:296|57:259,1,153.000002918243,4|0,3:3|3:0,0:0:0:0:
162,189,252449,1,0,3:0:0:0:
40,121,252592,2,0,P|32:177|19:233,1,114.750002188683,0|0,3:0|0:0,0:0:0:0:
78,110,252878,6,0,B|94:99|94:99|178:90,1,76.5000014591217,8|0,0:3|3:0,0:0:0:0:
234,206,253163,2,0,B|218:195|218:195|134:186,1,76.5000014591217,0|0,3:0|3:0,0:0:0:0:
101,309,253449,2,0,B|117:298|117:298|201:289,1,76.5000014591217,0|0,3:0|3:0,0:0:0:0:
308,178,253735,6,0,B|312:209|312:209|301:270|256:334,1,153.000002918243,4|2,3:3|3:3,0:0:0:0:
444,371,254163,1,0,3:0:0:0:
380,277,254306,1,0,3:0:0:0:
452,226,254449,1,0,3:0:0:0:
354,375,254592,6,0,B|215:357,1,114.750002188683,12|0,0:3|0:0,0:0:0:0:
186,272,254878,2,0,B|72:257,1,114.750002188683,10|0,0:3|0:0,0:0:0:0:
35,176,255163,1,8,0:3:0:0:
115,361,255306,1,8,0:3:0:0:
222,174,255449,6,0,B|208:146|208:122|208:122|272:110|349:151,1,170.999995433807,4|2,3:3|0:3,0:0:0:0:
462,209,255878,1,8,0:3:0:0:
501,105,256020,1,2,0:3:0:0:
340,152,256163,1,0,3:0:0:0:
459,330,256306,6,0,B|443:304|443:304|441:249|478:170,1,128.249996575356,10|0,0:3|0:0,0:0:0:0:
496,127,256592,2,0,B|481:153|481:153|435:183|348:190,1,128.249996575356,2|0,0:3|0:0,0:0:0:0:
300,204,256878,2,0,B|330:203|330:203|379:228|428:299,1,128.249996575356,2|0,3:3|0:0,0:0:0:0:
345,332,257163,6,0,B|323:299|294:285|294:285|242:328|159:309,1,170.999995433807,2|2,3:3|0:3,0:0:0:0:
45,257,257592,1,8,0:3:0:0:
177,229,257735,1,2,0:3:0:0:
68,377,257878,1,0,3:0:0:0:
81,161,258020,5,10,0:3:0:0:
96,163,258092,1,0,0:0:0:0:
108,180,258163,1,0,3:0:0:0:
40,49,258306,2,0,B|56:55|56:55|98:63|183:46,1,128.249996575356,2|0,0:3|0:0,0:0:0:0:
183,83,258592,1,2,3:3:0:0:
282,0,258735,1,0,3:0:0:0:
375,92,258878,6,0,B|342:139|342:139|341:191|366:257,1,170.999995433807,2|2,3:3|0:3,0:0:0:0:
274,379,259306,1,8,0:3:0:0:
193,252,259449,2,0,B|181:257|213:245|213:245|246:248|264:279,1,85.4999977169037,2|0,0:3|3:0,0:0:0:0:
195,61,259735,6,0,B|142:65|115:75|115:75|82:101|39:84,1,128.249996575356,10|0,0:3|0:0,0:0:0:0:
0,66,260020,2,0,B|29:109|52:128|52:128|91:143|97:189,1,128.249996575356,2|0,0:3|0:0,0:0:0:0:
95,236,260306,2,0,B|118:188|122:159|122:159|116:118|153:89,1,128.249996575356,2|0,3:3|0:0,0:0:0:0:
220,40,260592,6,0,B|236:64|236:64|239:91|243:161,1,85.4999977169037,4|0,3:3|0:0,0:0:0:0:
349,185,260878,2,0,B|365:161|365:161|368:133|369:104,1,85.4999977169037,2|8,0:3|0:3,0:0:0:0:
486,0,261163,1,2,0:3:0:0:
493,13,261258,1,0,0:0:0:0:
474,38,261354,1,0,0:0:0:0:
492,75,261449,6,0,L|473:221,1,128.249996575356,8|0,0:3|0:0,0:0:0:0:
390,253,261735,2,0,L|371:399,1,128.249996575356,8|0,0:3|0:0,0:0:0:0:
276,383,262020,1,8,0:3:0:0:
506,318,262163,1,8,0:3:0:0:
322,174,262306,6,0,B|287:168|262:186|262:186|288:241|281:301,1,170.999995433807,4|2,3:3|0:3,0:0:0:0:
148,332,262735,1,8,0:3:0:0:
195,226,262878,1,2,0:3:0:0:
262,384,263020,1,0,3:0:0:0:
75,254,263163,6,0,B|103:230|165:220|165:220|207:229,1,128.249996575356,10|0,0:3|0:0,0:0:0:0:
262,262,263449,2,0,B|227:249|187:201|187:201|174:160,1,128.249996575356,2|0,0:3|0:0,0:0:0:0:
163,92,263735,2,0,B|169:128|147:186|147:186|118:218,1,128.249996575356,2|0,3:3|0:0,0:0:0:0:
289,185,264020,6,0,B|251:149|251:149|249:93|298:10,1,170.999995433807,2|2,3:3|0:3,0:0:0:0:
453,98,264449,1,8,0:3:0:0:
368,8,264592,1,2,0:3:0:0:
383,193,264735,1,0,3:0:0:0:
502,39,264878,5,10,0:3:0:0:
489,27,264949,1,0,0:0:0:0:
459,23,265020,1,0,3:0:0:0:
512,182,265163,2,0,B|510:180|493:201|493:201|430:158|404:188|380:145,1,128.249996575356,2|0,0:3|0:0,0:0:0:0:
381,187,265449,1,2,0:3:0:0:
442,318,265592,1,0,0:0:0:0:
284,337,265735,6,0,B|248:305|248:305|243:271|288:160,1,170.999995433807,2|2,3:3|0:3,0:0:0:0:
224,39,266163,1,8,0:3:0:0:
377,80,266306,2,0,B|341:110|341:110|305:115|278:94,1,85.4999977169037,2|0,0:3|3:0,0:0:0:0:
144,5,266592,6,0,B|134:49|134:49|140:96|165:141,1,128.249996575356,10|0,0:3|0:0,0:0:0:0:
183,201,266878,2,0,B|149:170|149:170|106:152|54:151,1,128.249996575356,2|0,0:3|0:0,0:0:0:0:
0,124,267163,2,0,B|43:110|43:110|80:81|107:37,1,128.249996575356,2|0,3:3|0:0,0:0:0:0:
254,33,267449,6,0,B|254:13|240:-3|240:-3|197:57|258:125,1,170.999995433807,2|2,3:3|0:3,0:0:0:0:
330,211,267878,1,8,0:3:0:0:
428,109,268020,2,0,B|442:122|442:122|440:168|421:184,1,85.4999977169037,2|0,0:3|3:0,0:0:0:0:
332,369,268306,6,0,L|200:344,1,128.249996575356,8|0,0:3|0:0,0:0:0:0:
198,252,268592,2,0,B|178:251|178:251|159:240|159:240|138:248|138:248|120:234|120:234|106:237|106:237|90:230|90:230|59:229,1,128.249996575356,8|0,0:3|0:0,0:0:0:0:
17,146,268878,1,8,0:3:0:0:
80,346,269020,1,8,0:3:0:0:
224,163,269163,6,0,B|243:111|243:111|227:45,1,85.4999977169037,6|0,3:3|0:0,0:0:0:0:
341,21,269449,2,0,B|334:48|334:48|348:103,1,85.4999977169037,2|0,3:3|3:0,0:0:0:0:
451,192,269735,1,2,0:3:0:0:
480,81,269878,1,0,3:0:0:0:
335,221,270020,6,0,B|352:262|352:262|256:334,1,128.249996575356,10|0,0:3|0:0,0:0:0:0:
154,237,270306,2,0,B|181:200|181:200|291:247,1,128.249996575356,2|0,0:3|0:0,0:0:0:0:
261,382,270592,2,0,B|215:376|215:376|201:257,1,128.249996575356,2|0,0:3|0:0,0:0:0:0:
70,223,270878,6,0,L|65:347,1,85.4999977169037,2|0,3:3|0:0,0:0:0:0:
194,367,271163,1,2,3:3:0:0:
182,202,271306,2,0,L|175:86,1,85.4999977169037,0|10,3:0|0:3,0:0:0:0:
156,109,271520,1,8,0:3:0:0:
135,101,271592,1,0,3:0:0:0:
146,273,271735,6,0,B|187:283|187:283|258:253,1,85.4999977169037,10|0,0:3|0:0,0:0:0:0:
389,203,272020,1,2,3:3:0:0:
268,162,272163,1,0,0:0:0:0:
376,309,272306,1,2,3:3:0:0:
290,354,272449,1,0,0:0:0:0:
400,195,272592,6,0,L|417:69,1,85.4999977169037,2|0,3:3|0:0,0:0:0:0:
272,20,272878,1,2,3:3:0:0:
266,43,272973,1,0,0:0:0:0:
283,73,273068,1,0,0:0:0:0:
265,114,273163,2,0,L|139:131,1,85.4999977169037,2|0,0:3|3:0,0:0:0:0:
66,285,273449,5,12,0:3:0:0:
161,314,273591,1,0,0:0:0:0:
192,217,273735,1,2,3:3:0:0:
97,185,273878,1,0,0:0:0:0:
169,329,274020,5,2,3:3:0:0:
208,218,274163,1,0,0:0:0:0:
90,174,274306,1,2,3:3:0:0:
80,33,274449,1,0,0:0:0:0:
250,91,274592,5,2,0:3:0:0:
70,186,274735,1,0,3:0:0:0:
244,293,274878,1,2,3:3:0:0:
248,272,274949,1,8,0:3:0:0:
252,251,275020,1,0,3:0:0:0:
381,48,275163,6,0,L|403:173,1,85.4999977169037,10|0,0:3|3:0,0:0:0:0:
173,271,275449,2,0,B|191:197|191:197|206:174|206:174|206:123,1,128.249996575356,10|0,0:3|0:0,0:0:0:0:
220,74,275735,6,0,L|257:89,1,28.4999992389679,8|0,0:3|0:0,0:0:0:0:
395,132,275878,1,8,0:3:0:0:
126,154,276020,5,4,3:3:0:0:
112,77,276163,1,0,0:0:0:0:
96,0,276306,1,2,3:3:0:0:
220,74,276449,5,0,3:0:0:0:
206,157,276592,1,2,0:3:0:0:
190,239,276735,1,0,3:0:0:0:
361,209,276878,5,12,0:3:0:0:
302,127,277020,1,0,0:0:0:0:
206,157,277163,1,2,0:3:0:0:
288,287,277306,5,0,0:0:0:0:
353,197,277448,1,2,0:3:0:0:
455,229,277591,1,0,3:0:0:0:
284,369,277735,5,4,3:3:0:0:
271,196,277878,1,0,0:0:0:0:
104,241,278020,1,2,3:3:0:0:
230,81,278163,5,0,3:0:0:0:
202,264,278306,1,2,3:3:0:0:
199,287,278378,1,8,0:3:0:0:
196,308,278449,1,0,0:0:0:0:
37,91,278592,5,12,0:3:0:0:
91,316,278735,1,0,0:0:0:0:
276,163,278878,1,2,3:3:0:0:
11,201,279020,6,0,B|1:224|1:224|3:281|3:281|-5:322,1,103.500001974106,0|2,0:0|3:3,0:0:0:0:
211,380,279306,2,0,B|201:357|201:357|203:300|203:300|195:259,1,103.500001974106,0|12,0:0|0:3,0:0:0:0:
0,113,279592,2,0,B|66:116|66:116|96:155|96:155|194:127,1,207.000003948212,0|0,3:0|0:0,0:0:0:0:
254,93,279973,1,0,0:0:0:0:
225,48,280068,1,2,0:3:0:0:
267,1,280163,1,0,3:0:0:0:
447,32,280306,5,12,0:3:0:0:
402,187,280448,1,0,3:0:0:0:
329,114,280592,1,2,0:3:0:0:
220,183,280735,5,0,3:0:0:0:
259,306,280877,1,2,0:3:0:0:
319,245,281021,1,0,3:0:0:0:
114,273,281163,6,0,L|124:357,1,85.4999977169037,12|0,0:3|3:0,0:0:0:0:
10,169,281449,2,0,L|-1:258,1,85.4999977169037,0|0,0:0|3:0,0:0:0:0:
84,32,281735,2,0,L|95:121,1,85.4999977169037,8|0,0:3|3:0,0:0:0:0:
119,315,282020,5,10,0:3:0:0:
119,315,282449,2,0,B|159:305|159:305|167:319|167:319|208:333,1,90,4|0,3:3|0:0,0:0:0:0:
281,373,282878,6,0,B|311:281|229:254|249:170,1,180.000006866455,4|0,3:3|3:0,0:0:0:0:
469,242,283306,2,0,B|372:238|374:152|289:142,1,180.000006866455,10|0,0:3|0:0,0:0:0:0:
397,357,283735,2,0,B|404:374|435:366|363:295,1,90.0000034332277,2|0,3:3|0:0,0:0:0:0:
213,223,284020,5,0,0:0:0:0:
341,133,284163,1,10,0:3:0:0:
255,120,284306,1,0,0:0:0:0:
291,198,284449,1,0,0:0:0:0:
228,28,284592,6,0,B|191:6|152:33|136:72|194:177,1,180.000006866455,2|0,3:3|3:0,0:0:0:0:
27,5,285020,2,0,B|67:-6|98:29|103:71|20:158,1,180.000006866455,10|0,0:3|0:0,0:0:0:0:
97,318,285449,1,2,3:3:0:0:
98,292,285520,1,0,0:0:0:0:
76,307,285592,1,0,0:0:0:0:
115,168,285735,1,4,3:3:0:0:
0,337,285878,5,8,0:3:0:0:
176,259,286020,1,4,3:3:0:0:
176,259,286306,6,0,B|265:312|281:211|358:251,1,180.000006866455,4|0,3:3|3:0,0:0:0:0:
205,82,286735,2,0,B|306:62|287:163|373:151,1,180.000006866455,10|0,0:3|0:0,0:0:0:0:
511,201,287163,2,0,B|480:181|424:250|405:187|415:191,1,90.0000034332277,2|0,3:3|0:0,0:0:0:0:
176,259,287449,5,0,0:0:0:0:
205,82,287592,1,10,0:3:0:0:
226,166,287735,1,0,0:0:0:0:
146,176,287878,1,0,0:0:0:0:
335,65,288020,6,0,B|357:27|239:22|302:112|377:106|314:227,1,198.000001888275,4|0,3:3|3:0,0:0:0:0:
502,77,288449,2,0,B|441:116|442:85|397:123,1,99.0000009441376,12|0,0:3|3:0,0:0:0:0:
294,155,288735,1,0,3:0:0:0:
443,225,288878,1,12,0:3:0:0:
448,216,288949,1,0,0:0:0:0:
454,228,289020,1,0,3:0:0:0:
402,29,289163,5,8,0:3:0:0:
355,232,289306,2,0,L|370:321,2,62.9999980773926,4|0|0,3:3|3:0|3:0,0:0:0:0:
235,155,289735,6,0,B|197:184|231:264,1,96,4|0,3:3|3:0,0:0:0:0:
232,260,289949,1,0,3:0:0:0:
243,275,290020,1,0,3:0:0:0:
58,259,290163,2,0,B|102:240|154:310,1,96,2|0,3:3|3:0,0:0:0:0:
150,308,290377,1,0,3:0:0:0:
157,325,290448,1,0,3:0:0:0:
109,119,290592,6,0,L|132:156,1,24,10|8,0:3|0:3,0:0:0:0:
123,161,290878,5,0,0:0:0:0:
189,119,291020,1,0,0:0:0:0:
195,193,291163,1,0,0:0:0:0:
123,161,291306,1,0,0:0:0:0:
279,31,291449,6,0,B|326:91|344:89|373:77,1,96,4|0,3:3|3:0,0:0:0:0:
364,68,291663,1,0,3:0:0:0:
370,49,291735,1,0,3:0:0:0:
196,101,291878,2,0,B|246:157|241:175|224:201,1,96,2|0,3:3|3:0,0:0:0:0:
215,190,292092,1,0,3:0:0:0:
195,193,292164,1,0,3:0:0:0:
380,220,292306,6,0,B|408:219|395:253|356:239|335:177,1,108,10|0,0:3|0:0,0:0:0:0:
472,80,292592,1,0,3:0:0:0:
461,99,292663,1,0,3:0:0:0:
452,116,292735,2,0,B|430:155|497:176|477:227,2,96,2|0|0,3:3|3:0|3:0,0:0:0:0:
278,276,293163,6,0,B|341:281|345:200|395:251,1,96,4|0,3:3|3:0,0:0:0:0:
374,249,293378,1,0,3:0:0:0:
388,261,293449,1,0,3:0:0:0:
241,140,293592,2,0,B|293:104|337:172|354:103,1,96,2|0,3:3|3:0,0:0:0:0:
336,115,293807,1,0,3:0:0:0:
342,97,293878,1,0,3:0:0:0:
149,237,294020,5,8,0:3:0:0:
149,237,294306,5,0,0:0:0:0:
62,269,294449,1,2,0:3:0:0:
79,181,294592,1,0,0:0:0:0:
149,237,294735,1,0,0:0:0:0:
180,35,294878,6,0,B|170:108|121:121|162:151,1,96,4|0,3:3|3:0,0:0:0:0:
157,139,295092,1,0,3:0:0:0:
168,154,295163,1,0,3:0:0:0:
326,21,295306,2,0,B|360:86|410:81|382:123,1,96,4|0,3:3|3:0,0:0:0:0:
383,110,295520,1,0,3:0:0:0:
377,128,295591,1,0,3:0:0:0:
273,270,295735,6,0,L|252:155,1,96,10|0,0:3|3:0,0:0:0:0:
251,56,296020,2,0,L|271:166,1,96,10|0,0:3|3:0,0:0:0:0:
305,354,296306,1,8,0:3:0:0:
124,259,296449,1,8,0:3:0:0:
348,161,296592,6,0,B|381:188|381:188|355:252|355:252|387:373,1,207.000003948212,4|2,3:3|0:3,0:0:0:0:
190,384,297020,2,0,B|214:258,1,103.500001974106,8|2,0:3|0:3,0:0:0:0:
237,118,297306,1,0,3:0:0:0:
41,200,297449,6,0,B|79:222|79:222|175:200|175:200,1,121.500000463486,12|0,0:3|3:0,0:0:0:0:
237,118,297663,1,0,3:0:0:0:
218,105,297734,2,0,B|202:96|202:96|94:120|94:120|137:69|137:69,1,182.250000695229,12|0,0:3|0:0,0:0:0:0:
192,0,298020,1,8,0:3:0:0:
251,213,298163,1,8,0:3:0:0:
426,50,298306,6,0,B|316:102|316:102|299:52|299:52|229:33,1,207.000003948212,4|2,3:3|0:3,0:0:0:0:
346,231,298734,2,0,B|351:195|351:195|414:164,1,103.500001974106,8|2,0:3|0:3,0:0:0:0:
504,286,299020,1,0,3:0:0:0:
272,343,299163,5,8,0:3:0:0:
254,271,299258,1,8,0:3:0:0:
240,200,299353,1,8,0:3:0:0:
259,202,299449,1,0,3:0:0:0:
275,205,299544,1,8,0:3:0:0:
262,132,299639,1,8,0:3:0:0:
253,58,299734,6,0,B|223:56|223:56|216:63|216:63|188:53,1,67.5,0|0,3:0|0:0,0:0:0:0:
73,155,300020,6,0,B|136:113|136:113|205:141|205:141|275:129,1,207.000003948212,4|2,3:3|0:3,0:0:0:0:
151,314,300449,2,0,B|158:284|158:284|138:185,1,103.500001974106,8|2,0:3|0:3,0:0:0:0:
190,46,300734,1,0,3:0:0:0:
320,250,300877,6,0,B|348:279|348:279|401:245|401:245|507:274,1,182.250000695229,12|0,0:3|0:0,0:0:0:0:
508,161,301163,2,0,B|488:169|478:185|478:185|458:171|427:156|427:156|372:158|342:188,1,155.250002961159,8|0,0:3|0:0,0:0:0:0:
301,65,301449,2,0,B|329:94|329:94|382:60|382:60|488:89,1,182.250000695229,8|0,0:3|0:0,0:0:0:0:
227,28,301734,6,0,B|218:87|218:87|253:138|253:138|221:231,1,207.000003948212,4|2,3:3|0:3,0:0:0:0:
59,94,302163,2,0,L|76:213,1,103.500001974106,8|2,0:3|0:3,0:0:0:0:
109,374,302449,1,0,3:0:0:0:
93,356,302520,1,0,0:0:0:0:
113,321,302592,6,0,B|147:343|147:343|218:320|218:320|260:318,1,155.250002961159,12|0,0:3|0:0,0:0:0:0:
335,314,302877,2,0,B|333:271|333:271|260:192,1,135,2|0,0:3|0:0,0:0:0:0:
234,133,303163,2,0,B|197:151|197:151|184:217|184:217|160:261,1,155.250002961159,12|0,0:3|0:0,0:0:0:0:
64,221,303449,6,0,B|51:150|51:150|116:168,2,103.500001974106,4|0|2,3:3|0:0|3:3,0:0:0:0:
30,43,303877,2,0,B|106:65|106:65|146:53|146:53,1,103.500001974106,8|2,0:3|0:3,0:0:0:0:
298,0,304163,1,0,3:0:0:0:
181,166,304306,6,0,B|217:137|217:137|291:163,1,121.500000463486,12|0,0:3|3:0,0:0:0:0:
292,282,304520,1,0,3:0:0:0:
276,265,304592,2,0,B|240:236|240:236|166:262,1,121.500000463486,0|0,3:0|3:0,0:0:0:0:
239,59,304877,1,8,0:3:0:0:
262,67,304949,1,8,0:3:0:0:
284,75,305020,1,0,3:0:0:0:
307,83,305092,1,0,3:0:0:0:
331,90,305163,6,0,B|393:108|393:108|450:86|450:86|497:169,1,207.000003948212,4|2,3:3|0:3,0:0:0:0:
366,328,305592,2,0,B|393:289|393:289|368:215,1,103.500001974106,8|2,0:3|0:3,0:0:0:0:
331,90,305877,1,0,3:0:0:0:
177,230,306020,5,12,0:3:0:0:
252,0,306163,1,8,0:3:0:0:
308,6,306235,1,8,0:3:0:0:
363,14,306306,1,10,0:3:0:0:
295,250,306449,1,10,0:3:0:0:
141,93,306592,2,0,L|247:79,1,103.500001974106,10|0,0:3|3:0,0:0:0:0:
469,217,306877,6,0,B|434:256|434:256|386:203|386:203|278:215,1,207.000003948212,4|2,3:3|0:3,0:0:0:0:
156,381,307306,2,0,B|185:356|185:356|292:378,1,103.500001974106,8|2,0:3|0:3,0:0:0:0:
225,146,307592,1,0,3:0:0:0:
215,129,307663,1,0,0:0:0:0:
206,165,307734,6,0,B|218:249|218:249|158:275|158:275,1,121.500000463486,12|0,0:3|3:0,0:0:0:0:
115,184,307949,1,0,3:0:0:0:
118,164,308020,2,0,B|130:80|130:80|75:64|75:64,1,121.500000463486,2|0,0:3|3:0,0:0:0:0:
29,173,308234,1,0,3:0:0:0:
32,193,308306,2,0,B|44:277|44:277|-15:304|-15:304,1,121.500000463486,2|0,0:3|3:0,0:0:0:0:
7,4,308592,5,12,0:3:0:0:
63,15,308663,1,8,0:3:0:0:
118,26,308734,1,8,0:3:0:0:
173,37,308806,1,8,0:3:0:0:
228,49,308877,2,0,L|219:-3,5,51.7500009870529,0|0|0|0|0|0,3:0|3:0|3:0|3:0|3:0|3:0,0:0:0:0:
313,84,309306,1,0,3:0:0:0:
308,107,309377,1,0,3:0:0:0:
303,133,309449,2,0,B|231:154|231:154|187:140|187:140|107:136,1,155.250002961159,10|0,0:3|0:0,0:0:0:0:
115,215,309734,6,0,P|141:256|131:305,1,99.0000030212403
403,260,310306,6,0,B|314:201|309:301|212:231,1,180,6|2,3:3|0:3,0:0:0:0:
250,70,310734,1,8,0:3:0:0:
266,77,310805,1,0,0:0:0:0:
283,84,310877,2,0,L|269:201,1,90,2|0,0:3|0:0,0:0:0:0:
113,213,311163,6,0,L|97:106,1,90,2|0,3:3|0:0,0:0:0:0:
21,7,311449,1,2,0:3:0:0:
0,122,311592,1,8,0:3:0:0:
134,19,311734,2,0,B|188:18|188:18|210:39|210:39|295:52,1,135,2|0,0:3|0:0,0:0:0:0:
298,117,312020,6,0,L|398:104,1,90,2|0,3:3|3:0,0:0:0:0:
443,252,312306,1,2,0:3:0:0:
423,268,312401,1,0,0:0:0:0:
386,260,312496,1,0,0:0:0:0:
362,290,312592,2,0,L|346:187,1,90,2|0,0:3|0:0,0:0:0:0:
207,89,312877,6,0,B|253:174|152:174|202:285,1,180,2|2,3:3|0:3,0:0:0:0:
33,326,313306,1,8,0:3:0:0:
64,221,313449,1,2,0:3:0:0:
64,221,313592,1,2,0:3:0:0:
151,383,313734,6,0,B|168:368|168:368|334:346,1,180,2|2,3:3|0:3,0:0:0:0:
474,254,314163,1,8,0:3:0:0:
372,185,314306,2,0,B|331:210|331:210|281:171,1,90,2|0,0:3|0:0,0:0:0:0:
264,164,314520,1,0,0:0:0:0:
252,174,314592,6,0,B|246:147|246:147|260:143|260:143|259:120|259:120|270:79,1,90,2|0,3:3|0:0,0:0:0:0:
382,14,314877,1,2,0:3:0:0:
415,123,315020,1,8,0:3:0:0:
275,9,315163,2,0,L|176:28,1,90,2|2,0:3|0:3,0:0:0:0:
164,62,315377,1,0,0:0:0:0:
143,68,315449,6,0,B|12:51|12:51|41:120,1,180,2|0,3:3|0:0,0:0:0:0:
91,290,315877,1,12,0:3:0:0:
20,199,316020,2,0,L|130:184,1,90,0|0,3:0|0:0,0:0:0:0:
147,225,316234,1,0,0:0:0:0:
168,210,316306,6,0,B|197:206|197:206|245:223|245:223|294:222|375:200,1,180,0|8,3:0|0:3,0:0:0:0:
343,208,316877,1,8,0:3:0:0:
226,343,317020,1,8,0:3:0:0:
211,127,317163,6,0,B|256:143|256:143|307:137,1,90,6|0,3:3|0:0,0:0:0:0:
455,203,317449,1,2,0:3:0:0:
428,218,317544,1,0,0:0:0:0:
398,201,317639,1,0,0:0:0:0:
363,225,317734,2,0,L|377:130,1,90,2|0,0:3|0:0,0:0:0:0:
235,31,318020,6,0,L|246:123,1,90,2|0,3:3|0:0,0:0:0:0:
158,250,318306,1,2,0:3:0:0:
261,291,318449,1,8,0:3:0:0:
163,150,318592,2,0,B|118:154|118:154|97:167|97:167|32:150,1,135,2|0,0:3|0:0,0:0:0:0:
0,233,318877,6,0,P|70:257|119:252,1,90,2|0,3:3|3:0,0:0:0:0:
228,384,319163,1,2,0:3:0:0:
192,224,319306,1,8,0:3:0:0:
115,345,319449,1,2,0:3:0:0:
139,326,319544,1,0,0:0:0:0:
163,330,319639,1,0,0:0:0:0:
195,311,319734,2,0,B|252:281|281:360|376:304,1,180,2|2,3:3|0:3,0:0:0:0:
392,135,320163,1,8,0:3:0:0:
308,219,320306,1,2,0:3:0:0:
308,219,320449,1,2,0:3:0:0:
485,277,320592,6,0,L|472:181,1,90,2|0,3:3|3:0,0:0:0:0:
321,49,320877,1,2,0:3:0:0:
330,70,320972,1,0,0:0:0:0:
310,97,321068,1,0,0:0:0:0:
320,127,321163,2,0,B|312:216,1,90,2|0,0:3|0:0,0:0:0:0:
253,260,321377,1,0,0:0:0:0:
222,266,321449,6,0,B|231:251|231:251|214:158,1,90,2|0,3:3|0:0,0:0:0:0:
69,108,321734,1,2,0:3:0:0:
97,235,321877,1,8,0:3:0:0:
167,66,322020,2,0,B|225:73|225:73|259:66|259:66|298:81,1,135,2|0,0:3|0:0,0:0:0:0:
368,41,322306,5,2,3:3:0:0:
381,116,322449,1,0,3:0:0:0:
393,192,322592,1,0,3:0:0:0:
512,33,322735,6,0,B|471:9|471:9|455:158,1,180,12|0,0:3|3:0,0:0:0:0:
333,313,323163,5,8,0:3:0:0:
325,259,323235,1,8,0:3:0:0:
318,206,323306,1,8,0:3:0:0:
313,151,323378,1,8,0:3:0:0:
309,97,323450,2,0,L|242:79,3,45,0|0|0|0,3:0|3:0|3:0|3:0,0:0:0:0:
191,134,323735,2,0,L|113:107,1,45,0|0,3:0|3:0,0:0:0:0:
109,12,323878,2,0,L|186:-2,1,45,0|0,3:0|3:0,0:0:0:0:
56,214,324021,6,0,B|89:205|89:205|246:257,1,198.000006042481,4|0,3:3|0:0,0:0:0:0:
300,325,324401,1,0,0:0:0:0:
320,312,324496,1,0,0:0:0:0:
360,326,324592,2,0,L|349:195,1,99.0000030212403,0|0,0:0|3:0,0:0:0:0:
484,112,324877,6,0,L|467:241,1,99.0000030212403,12|0,0:3|0:0,0:0:0:0:
287,130,325163,2,0,P|335:137|378:114,1,99.0000030212403,0|0,3:0|0:3,0:0:0:0:
445,292,325449,1,0,3:0:0:0:
445,292,325592,1,0,3:0:0:0:
270,228,325734,6,0,B|240:225|240:225|211:245|211:245|166:218,1,99.0000030212403,4|0,3:3|0:0,0:0:0:0:
62,157,326020,1,0,0:0:0:0:
72,175,326115,1,0,0:0:0:0:
60,210,326211,1,0,0:0:0:0:
77,249,326306,2,0,L|65:313,2,49.5000015106202,8|8|0,3:0|3:0|3:0,0:0:0:0:
189,81,326592,5,12,0:3:0:0:
235,288,326734,1,0,3:0:0:0:
252,262,326877,2,0,L|396:244,1,99.0000030212403,0|0,3:0|0:3,0:0:0:0:
512,258,327163,1,0,3:0:0:0:
450,347,327306,1,0,3:0:0:0:
411,150,327449,6,0,L|312:137,1,99.0000030212403,4|0,3:3|0:0,0:0:0:0:
192,35,327734,1,0,0:0:0:0:
217,19,327830,1,0,0:0:0:0:
248,37,327925,1,0,0:0:0:0:
287,24,328020,1,0,0:0:0:0:
229,123,328163,1,0,3:0:0:0:
88,0,328306,6,0,L|56:138,1,99.0000030212403,12|0,0:3|0:0,0:0:0:0:
227,214,328592,2,0,L|202:84,1,99.0000030212403,0|0,3:0|0:3,0:0:0:0:
21,182,328877,2,0,B|48:188|48:188|58:204|58:204|84:204|84:204|91:222|91:222|112:221|112:221|131:243|131:243|114:276,1,175.499991966248,0|0,3:0|0:0,0:0:0:0:
72,350,329163,6,0,B|80:354|80:354|183:338,1,99.0000030212403,4|0,3:3|0:0,0:0:0:0:
223,211,329449,2,0,B|231:206|231:206|321:221,1,99.0000030212403,0|0,0:0|3:3,0:0:0:0:
348,349,329734,1,8,3:0:0:0:
344,334,329806,1,8,3:0:0:0:
340,320,329877,1,0,3:0:0:0:
500,169,330020,5,12,0:3:0:0:
465,384,330163,1,0,3:0:0:0:
439,363,330306,2,0,B|429:354|429:354|442:264|442:264|408:222,1,148.50000453186,0|0,3:0|0:0,0:0:0:0:
355,177,330592,1,0,3:0:0:0:
512,130,330734,1,0,3:0:0:0:
384,0,330877,6,0,B|393:36|393:36|379:108,1,99.0000030212403,4|0,3:3|0:0,0:0:0:0:
203,53,331163,1,0,0:0:0:0:
215,40,331258,1,0,0:0:0:0:
250,57,331353,1,0,0:0:0:0:
287,41,331449,2,0,L|307:177,1,99.0000030212403,0|0,0:0|3:0,0:0:0:0:
123,216,331734,6,0,L|137:118,1,99.0000030212403,12|0,0:3|0:0,0:0:0:0:
319,238,332020,2,0,B|294:221|294:221|213:236,1,99.0000030212403,0|0,3:0|0:3,0:0:0:0:
57,269,332306,1,0,3:0:0:0:
57,269,332449,1,0,3:0:0:0:
184,384,332591,6,0,P|185:336|161:275,1,99.0000030212403,4|0,3:3|0:0,0:0:0:0:
234,145,332877,2,0,P|231:95|247:45,1,99.0000030212403,0|0,0:0|3:3,0:0:0:0:
453,190,333163,1,0,0:0:0:0:
433,173,333258,1,0,0:0:0:0:
435,124,333353,1,0,0:0:0:0:
392,107,333449,6,0,B|350:130|350:130|368:265,1,148.50000453186,12|0,0:3|0:0,0:0:0:0:
441,278,333734,2,0,L|454:167,1,99.0000030212403,8|0,0:3|3:3,0:0:0:0:
270,245,334020,1,8,3:0:0:0:
267,229,334092,1,8,3:0:0:0:
263,214,334163,1,8,3:0:0:0:
136,33,334306,5,4,3:3:0:0:
136,33,334449,1,0,0:0:0:0:
255,78,334592,1,0,0:0:0:0:
68,136,334734,2,0,B|109:168|109:168|131:327,1,198.000006042481,4|0,3:3|0:0,0:0:0:0:
180,337,335092,1,0,0:0:0:0:
175,358,335163,6,0,B|223:333|223:333|293:345,1,99.0000030212403,12|0,0:3|0:0,0:0:0:0:
390,260,335449,2,0,B|438:285|438:285|508:273,1,99.0000030212403,0|0,3:0|0:3,0:0:0:0:
345,113,335734,2,0,B|355:170|355:170|308:200|308:200|279:260,1,148.50000453186,0|0,3:0|0:0,0:0:0:0:
209,255,336020,6,0,L|199:140,1,99.0000030212403,4|8,3:3|0:3,0:0:0:0:
211,138,336234,1,8,0:3:0:0:
221,121,336306,1,8,0:3:0:0:
72,201,336449,2,0,L|82:86,1,99.0000030212403,4|8,3:3|0:3,0:0:0:0:
70,85,336663,1,8,0:3:0:0:
60,67,336734,1,0,3:0:0:0:
134,261,336877,5,12,0:3:0:0:
160,48,337020,1,0,3:0:0:0:
189,67,337163,2,0,B|204:71|204:71|296:60,1,99.0000030212403,0|0,3:0|0:3,0:0:0:0:
404,89,337449,2,0,B|370:131|370:131|383:201,1,99.0000030212403,0|0,3:0|3:0,0:0:0:0:
246,275,337734,6,0,B|288:241|288:241|358:254,1,99.0000030212403,4|0,3:3|0:0,0:0:0:0:
372,347,338020,1,0,0:0:0:0:
464,200,338163,2,0,B|422:166|422:166|352:179,1,99.0000030212403,4|0,3:3|0:0,0:0:0:0:
332,249,338449,1,0,3:0:0:0:
307,39,338592,6,0,L|414:60,1,99.0000030212403,12|0,0:3|0:0,0:0:0:0:
251,176,338877,2,0,B|233:163|233:163|221:52,1,99.0000030212403,0|0,3:0|0:3,0:0:0:0:
89,11,339163,1,0,3:0:0:0:
89,11,339306,1,0,0:0:0:0:
110,206,339449,6,0,L|126:95,1,99.0000030212403,4|0,3:3|0:0,0:0:0:0:
9,133,339734,1,0,0:0:0:0:
207,224,339877,2,0,L|223:335,1,99.0000030212403,4|0,3:3|0:0,0:0:0:0:
114,291,340162,1,0,3:0:0:0:
268,129,340306,6,0,B|310:149|310:149|392:129,1,99.0000030212403,12|0,0:3|3:0,0:0:0:0:
483,298,340592,2,0,B|441:278|441:278|359:298,1,99.0000030212403,12|0,0:3|3:0,0:0:0:0:
382,308,340806,1,0,3:0:0:0:
375,326,340877,1,8,0:3:0:0:
480,124,341020,1,8,0:3:0:0:
276,221,341163,6,0,B|266:187|266:187|277:170|277:170|261:96,1,99.0000030212403,4|0,3:3|0:0,0:0:0:0:
68,234,341449,1,8,0:3:0:0:
165,278,341592,2,0,B|175:244|175:244|164:227|164:227|173:184,1,99.0000030212403,0|8,3:0|3:0,0:0:0:0:
154,176,341806,1,8,3:0:0:0:
135,168,341877,1,8,3:3:0:0:
116,161,341949,1,8,3:0:0:0:
97,154,342020,5,2,3:3:0:0:
271,54,342163,1,8,0:3:0:0:
46,0,342306,1,8,0:3:0:0:
270,156,342449,6,0,B|302:161|302:161|340:130|340:130|436:116,1,168.750006437302,2|0,3:3|0:0,0:0:0:0:
465,187,342877,6,0,P|440:197|372:203,1,90.0000034332277,4|0,0:3|0:0,0:0:0:0:
400,306,343311,2,0,P|375:296|307:290,1,90.0000034332277
221,358,343746,2,0,L|188:363,2,22.5000008583069
231,278,344036,1,0,0:0:0:0:
231,278,344167,2,0,P|241:217|239:178,1,90.0000034332277
135,227,344606,2,0,L|171:232,2,27.0000010299683
125,147,344897,1,0,0:0:0:0:
125,147,345023,2,0,P|115:86|117:47,1,90.0000034332277
210,59,345451,1,0,0:0:0:0:
226,84,345588,1,0,0:0:0:0:
269,108,345726,1,0,0:0:0:0:
346,113,345864,2,0,P|392:108|436:90,1,90.0000034332277
465,187,346301,6,0,B|437:198|437:198|437:206|437:206|437:198|437:198|419:204|405:204|405:204|404:211|404:211|405:204|405:204|377:207|348:198,1,120,2|0,0:2|0:0,0:0:0:0:
400,306,346718,2,0,B|372:295|372:295|372:287|372:287|372:295|372:295|354:289|340:289|340:289|339:282|339:282|340:289|340:289|312:286|283:295,1,120,2|0,0:2|0:0,0:0:0:0:
221,358,347147,2,0,B|213:361|213:361|208:357|208:357|205:363|205:363|177:357,2,30,2|0|0,0:2|0:0|0:0,0:0:0:0:
231,278,347447,1,0,0:0:0:0:
231,278,347574,2,0,B|238:248|238:248|248:248|248:248|238:247|238:247|240:220|240:220|247:215|247:215|240:216|240:216|240:177,1,120,2|0,0:2|0:0,0:0:0:0:
135,227,348025,2,0,B|143:230|143:230|148:226|148:226|151:232|151:232|179:226,2,30,2|0|0,0:0|0:0|0:0,0:0:0:0:
125,147,348325,1,0,0:0:0:0:
125,147,348429,2,0,B|118:117|118:117|108:117|108:117|118:116|118:116|116:89|116:89|109:84|109:84|116:85|116:85|116:46,1,120,2|0,0:2|0:0,0:0:0:0:
251,18,348877,5,0,3:0:0:0:
237,89,349019,1,0,3:0:0:0:
221,159,349162,1,0,3:0:0:0:
116,58,349305,5,2,3:3:0:0:
116,58,349736,6,0,B|74:96|74:96|99:149|141:182,1,150,6|2,3:3|0:3,0:0:0:0:
30,258,350164,2,0,B|57:237|57:237|103:250|119:266,1,75,2|0,3:3|0:0,0:0:0:0:
155,318,350450,1,2,0:3:0:0:
205,195,350593,6,0,B|278:253|299:176|351:211,1,150,2|2,3:3|0:3,0:0:0:0:
261,79,351021,2,0,B|347:113|291:169|347:197,1,150,2|2,3:3|0:3,0:0:0:0:
287,307,351450,6,0,B|313:287|313:287|359:288|370:296,1,75,2|0,3:3|0:0,0:0:0:0:
414,356,351736,1,2,0:3:0:0:
503,261,351878,2,0,B|447:247|411:226|411:226|428:162,1,150,2|2,3:3|0:3,0:0:0:0:
484,75,352307,5,2,3:3:0:0:
431,98,352450,1,8,0:3:0:0:
356,62,352593,1,10,0:3:0:0:
293,141,352736,2,0,B|266:141|266:141|197:125,2,75,0|10|10,3:0|0:3|0:3,0:0:0:0:
358,261,353164,6,0,B|328:242|328:242|269:256|221:302,1,150,2|2,3:3|0:3,0:0:0:0:
143,341,353593,2,0,B|125:315|125:315|137:270|153:255,1,75,2|0,3:3|0:0,0:0:0:0:
206,207,353878,1,2,0:3:0:0:
67,179,354021,6,0,B|79:159|137:105|80:92|92:39,1,150,2|2,3:3|0:3,0:0:0:0:
236,119,354450,2,0,B|213:111|134:108|169:61|126:28,1,150,2|2,3:3|0:3,0:0:0:0:
165,190,354878,6,0,B|204:195|204:195|237:216|250:245,1,75,2|0,3:3|0:0,0:0:0:0:
259,310,355164,1,2,0:3:0:0:
324,201,355307,2,0,B|307:174|307:174|303:119|339:62,1,150,2|2,3:3|0:3,0:0:0:0:
445,98,355736,5,2,3:3:0:0:
426,154,355878,1,8,0:3:0:0:
485,217,356021,1,8,0:3:0:0:
444,312,356164,2,0,B|436:332|430:364|430:364|435:396,2,75,0|8|8,3:0|0:3|0:3,0:0:0:0:
324,201,356593,6,0,B|261:220|261:220|254:284|319:347,1,150,4|8,3:3|0:3,0:0:0:0:
203,367,357021,2,0,B|159:377|92:345|92:345|70:317,1,150,0|8,3:0|0:3,0:0:0:0:
32,197,357450,6,0,B|115:264|135:152|187:233,1,150,0|8,3:0|0:3,0:0:0:0:
65,76,357878,2,0,B|109:76|122:93|150:126,1,75,0|0,3:0|3:0,0:0:0:0:
170,212,358164,1,8,0:3:0:0:
267,159,358307,6,0,B|246:135|246:135|244:110|266:65,1,75,0|0,3:0|0:0,0:0:0:0:
303,21,358593,1,8,0:3:0:0:
361,114,358735,2,0,B|385:93|385:93|447:89|502:126,1,150,0|8,3:0|0:3,0:0:0:0:
394,234,359164,5,0,3:0:0:0:
341,208,359307,1,8,0:3:0:0:
259,250,359450,1,8,0:3:0:0:
164,188,359593,2,0,B|146:177|146:177|93:179|53:198,2,75,0|8|8,3:0|0:3|0:3,0:0:0:0:
229,371,360021,6,0,B|214:317|216:277|216:277|269:244,1,150,2|8,3:3|0:3,0:0:0:0:
343,343,360450,2,0,B|384:372|384:372|440:369|478:316,1,150,0|8,3:0|0:3,0:0:0:0:
396,234,360878,6,0,B|371:193|440:199|372:88,1,150,0|8,3:0|0:3,0:0:0:0:
271,208,361307,2,0,B|296:185|275:165|282:147|299:120,1,75,0|0,3:0|3:0,0:0:0:0:
375,93,361593,1,8,0:3:0:0:
257,33,361736,2,0,B|222:67|222:67|188:72|159:62,1,75,0|0,3:0|0:0,0:0:0:0:
123,10,362021,1,8,0:3:0:0:
64,127,362164,2,0,B|120:108|120:108|158:172|146:243,1,150,0|8,3:0|0:3,0:0:0:0:
9,279,362593,5,0,3:0:0:0:
74,239,362736,1,8,0:3:0:0:
63,210,362878,1,8,0:3:0:0:
102,340,363021,5,0,3:0:0:0:
201,286,363164,1,8,0:3:0:0:
230,324,363307,1,8,0:3:0:0:
272,168,363450,6,0,B|258:180|237:185|237:185|209:97|288:23,1,162.000000617981,4|8,3:3|0:3,0:0:0:0:
401,134,363878,2,0,B|382:114|382:114|353:106|315:115,1,81.0000003089905,0|0,3:0|0:0,0:0:0:0:
342,209,364164,1,8,0:3:0:0:
479,173,364307,6,0,B|487:226|378:213|423:341,1,162.000000617981,0|8,3:0|0:3,0:0:0:0:
275,193,364736,2,0,B|276:246|381:214|359:348,1,162.000000617981,0|8,3:0|0:3,0:0:0:0:
245,384,365164,6,0,B|234:367|234:367|249:316|288:295,1,81.0000003089905,0|0,3:0|0:0,0:0:0:0:
205,230,365450,1,8,0:3:0:0:
127,346,365593,2,0,B|135:319|111:273|111:273|3:317,1,162.000000617981,0|8,3:0|0:3,0:0:0:0:
69,148,366021,5,0,3:0:0:0:
149,176,366164,1,8,0:3:0:0:
157,166,366236,1,0,0:0:0:0:
153,154,366307,1,8,0:3:0:0:
33,225,366450,5,0,3:0:0:0:
0,111,366593,1,8,0:3:0:0:
17,82,366736,1,8,0:3:0:0:
153,154,366878,6,0,B|185:178|185:178|236:102|187:28,1,162.000000617981,2|8,3:3|0:3,0:0:0:0:
339,23,367307,2,0,B|299:33|291:52|291:52|309:88,1,81.0000003089905,0|0,3:0|0:0,0:0:0:0:
391,101,367593,1,8,0:3:0:0:
270,201,367735,6,0,B|238:166|304:125|415:207,1,162.000000617981,0|8,3:0|0:3,0:0:0:0:
304,297,368164,2,0,B|301:344|378:333|411:199,1,162.000000617981,0|8,3:0|0:3,0:0:0:0:
204,259,368593,6,0,B|227:271|225:320|225:320|208:332,1,81.0000003089905,0|0,3:0|0:0,0:0:0:0:
146,378,368878,1,8,0:3:0:0:
91,238,369021,2,0,B|106:162|106:162|157:148|195:180,1,162.000000617981,0|8,3:0|0:3,0:0:0:0:
279,59,369450,5,0,3:0:0:0:
197,80,369593,1,8,0:3:0:0:
187,72,369664,1,0,0:0:0:0:
189,59,369736,1,8,0:3:0:0:
265,148,369878,5,0,3:0:0:0:
375,112,370021,1,8,0:3:0:0:
413,138,370164,1,8,0:3:0:0:
300,258,370307,6,0,B|278:242|278:242|222:290|285:381,1,162.000000617981,4|8,3:3|0:3,0:0:0:0:
490,349,370736,2,0,B|462:298|462:298|418:294|358:325,1,162.000000617981,0|8,3:0|0:3,0:0:0:0:
301,160,371164,6,0,B|345:110|373:217|459:203,1,162.000000617981,0|8,3:0|0:3,0:0:0:0:
397,15,371593,2,0,B|380:62|410:54|453:90,1,81.0000003089905,0|0,3:0|3:0,0:0:0:0:
490,136,371878,1,8,0:3:0:0:
316,64,372021,6,0,B|301:31|301:31|255:36|234:60,1,81.0000003089905,0|0,3:0|0:0,0:0:0:0:
221,131,372307,1,8,0:3:0:0:
135,27,372450,2,0,B|153:6|173:4|173:4|162:95|102:132,1,162.000000617981,0|8,3:0|0:3,0:0:0:0:
7,121,372878,5,0,3:0:0:0:
27,221,373021,1,8,0:3:0:0:
43,213,373093,1,0,0:0:0:0:
50,226,373164,1,8,0:3:0:0:
155,183,373307,5,0,3:0:0:0:
119,300,373450,1,8,0:3:0:0:
88,309,373593,1,8,0:3:0:0:
254,301,373736,6,0,B|219:269|219:269|229:186|283:158,1,162.000000617981,2|8,3:3|0:3,0:0:0:0:
407,232,374164,2,0,B|427:248|427:248|383:306|301:239,1,162.000000617981,0|8,3:0|0:3,0:0:0:0:
327,110,374593,6,0,B|443:182|488:146,1,162.000000617981,0|8,3:0|0:3,0:0:0:0:
340,18,375021,2,0,P|394:17|435:23,1,81.0000003089905,0|0,3:0|3:0,0:0:0:0:
495,72,375307,1,8,0:3:0:0:
328,111,375450,6,0,B|295:91|295:91|277:142|212:122,1,81.0000003089905,0|0,3:0|0:0,0:0:0:0:
177,94,375736,1,8,0:3:0:0:
223,230,375878,2,0,B|234:214|234:214|302:201|381:272,1,162.000000617981,0|8,3:0|0:3,0:0:0:0:
284,332,376307,5,0,3:0:0:0:
191,315,376450,1,8,0:3:0:0:
182,337,376593,1,8,0:3:0:0:
223,230,376736,5,0,3:0:0:0:
95,269,376878,1,8,0:3:0:0:
80,240,377021,1,8,0:3:0:0:
172,120,377164,6,0,P|238:127|308:150,1,120,2|0,3:2|0:0,0:0:0:0:
274,46,377593,2,0,P|340:39|410:16,1,120,2|0,0:2|0:0,0:0:0:0:
400,37,377950,1,0,0:0:0:0:
408,48,378031,6,0,P|401:114|378:184,1,120,2|0,0:2|0:0,0:0:0:0:
281,152,378444,2,0,P|307:210|303:270,1,120,2|0,0:2|0:0,0:0:0:0:
371,361,378891,6,0,P|312:370|251:342,1,120,2|0,0:2|0:0,0:0:0:0:
211,249,379325,2,0,P|157:276|94:274,1,120,2|0,0:2|0:0,0:0:0:0:
50,196,379719,5,2,0:2:0:0:
210,159,380031,1,0,0:0:0:0:
210,159,380187,2,0,B|190:145|190:145|176:96|173:41,1,120,2|0,0:2|0:0,0:0:0:0:
344,60,380656,5,0,0:0:0:0:
349,68,380732,2,0,L|311:72,5,30,2|2|2|2|2|2,0:3|0:3|0:3|0:3|0:3|0:3,0:0:0:0:
299,98,381173,2,0,B|345:124|373:275|220:233|250:354,1,288,2|0,0:3|0:0,0:0:0:0:
469,354,383367,6,0,L|367:336,1,90,2|0,0:2|0:0,0:0:0:0:
248,349,384085,1,0,0:0:0:0:
256,364,384444,1,0,0:0:0:0:
390,225,384804,2,0,L|274:244,1,90,2|0,0:2|0:0,0:0:0:0:
132,295,385492,2,0,B|127:274|127:274|127:241,3,30,2|0|0|0,0:2|0:0|0:0|0:0,0:0:0:0:
208,76,386163,5,0,0:0:0:0:
217,71,386248,2,0,L|202:176,1,90,2|0,0:2|0:0,0:0:0:0:
50,214,386975,1,0,0:0:0:0:
40,188,387330,1,0,0:0:0:0:
105,0,387701,2,0,L|122:99,1,90,2|0,0:2|0:0,0:0:0:0:
219,244,388432,1,2,0:2:0:0:
255,71,388798,1,2,0:2:0:0:
411,163,389144,6,0,L|311:178,1,90,2|0,0:2|0:0,0:0:0:0:
243,73,389874,1,0,0:0:0:0:
270,82,390237,2,0,B|282:84|282:84|294:77|294:77|333:70,1,45
268,252,390601,2,0,L|168:237,1,90,2|0,0:2|0:0,0:0:0:0:
15,164,391328,1,2,0:2:0:0:
46,324,391691,1,2,0:2:0:0:
155,139,392055,6,0,L|140:38,1,90,2|0,0:2|0:0,0:0:0:0:
50,180,392782,1,0,0:0:0:0:
60,211,393146,1,0,0:0:0:0:
239,178,393520,2,0,L|265:83,1,90,2|0,0:2|0:0,0:0:0:0:
421,78,394251,1,2,0:2:0:0:
263,0,394617,1,2,0:2:0:0:
335,228,395065,5,2,0:2:0:0:
417,114,395457,2,0,B|400:100|400:100|372:97|349:101,1,67.5
341,122,395800,2,0,L|239:105,1,90
102,37,396538,1,2,0:2:0:0:
145,189,396897,1,0,0:0:0:0:
7,166,397256,1,2,0:2:0:0:
35,278,397615,2,0,B|37:323|37:323|22:312,1,54
176,171,398015,6,0,L|158:265,1,90,2|0,0:2|0:0,0:0:0:0:
319,368,398728,2,0,L|301:266,1,90,2|0,0:0|0:0,0:0:0:0:
394,141,399625,2,0,B|424:134|448:139,1,45,2|0,0:2|0:0,0:0:0:0:
455,157,399909,2,0,B|464:147|464:147|474:63,1,90
288,21,400701,1,0,0:0:0:0:
280,29,400901,2,0,B|279:49|279:49|293:64,1,22.5
306,146,401098,6,0,L|207:130,1,90,2|0,0:2|0:0,0:0:0:0:
73,16,401848,2,0,B|134:8|134:8|149:9,1,67.5
0,185,402578,1,2,0:2:0:0:
13,81,402948,1,0,0:0:0:0:
93,231,403318,2,0,B|119:225|119:225|162:235,1,60
164,248,404119,6,0,L|154:154,1,90,2|0,0:2|0:0,0:0:0:0:
285,316,404883,2,0,L|297:237,1,72
323,61,405637,2,0,B|294:16|228:17|196:94|277:152|294:153|346:139|346:139|424:103|456:129|493:211|426:247|386:237|386:237|366:272|382:317|387:314,1,566.999982696534,2|0,0:2|0:0,0:0:0:0:
234,207,408884,5,2,0:2:0:0:
226,196,408993,2,0,P|187:194|150:205,1,67.5
22,272,409761,1,2,0:2:0:0:
132,365,410180,1,2,0:2:0:0:
274,251,410612,2,0,P|259:298|260:347,1,90,2|0,0:0|0:0,0:0:0:0:
444,315,411486,2,0,P|379:297|344:297,1,90,2|0,0:2|0:0,0:0:0:0:
275,253,412063,2,0,L|243:259,3,30
306,229,412341,6,0,P|283:183|275:137,1,90,2|0,0:2|0:0,0:0:0:0:
431,23,413166,1,2,0:2:0:0:
364,149,413610,1,2,0:2:0:0:
218,49,414014,2,0,L|184:38,1,30,2|0,0:2|0:0,0:0:0:0:
164,63,414268,2,0,L|140:57,1,20
122,70,414472,1,0,0:0:0:0:
288,180,414900,1,2,0:2:0:0:
216,228,415138,1,2,0:2:0:0:
145,181,415376,2,0,B|122:169|122:177|100:184,1,45
38,280,415782,5,2,0:2:0:0:
47,269,415902,2,0,P|66:326|70:341,1,64.2857142857143
224,384,416632,2,0,L|230:365,1,15,2|0,0:2|0:0,0:0:0:0:
264,222,417093,1,2,0:2:0:0:
397,365,417475,2,0,P|453:349|490:342,1,90,2|0,0:2|0:0,0:0:0:0:
512,274,418113,1,0,0:0:0:0:
448,167,418326,2,0,P|392:151|360:147,1,90,2|0,0:2|0:0,0:0:0:0:
210,27,419157,5,2,0:2:0:0:
200,45,419286,2,0,P|208:90|216:114,1,64.2857142857143
378,175,420044,2,0,P|358:230|353:276,1,90,2|0,0:2|0:0,0:0:0:0:
374,342,420696,1,0,0:0:0:0:
248,363,420959,6,0,B|227:318|176:284|176:284|118:308|92:309|83:292,1,198,2|0,0:2|0:0,0:0:0:0:
70,269,422217,2,0,L|80:230,3,30
54,97,422641,6,0,P|91:113|149:116,1,90,2|0,0:2|0:0,0:0:0:0:
276,21,423462,1,2,0:2:0:0:
247,188,423909,1,2,0:2:0:0:
414,116,424282,1,2,0:0:0:0:
425,116,424348,2,0,P|456:169|462:200,1,90
462,278,424952,1,0,0:0:0:0:
329,301,425209,2,0,P|342:254|347:200,1,90,2|0,0:2|0:0,0:0:0:0:
306,134,425746,2,0,L|302:113,1,18
483,90,426020,6,0,P|442:108|398:121,1,90,2|0,0:2|0:0,0:0:0:0:
273,25,426847,1,0,0:0:0:0:
278,30,426897,1,2,0:2:0:0:
185,133,427341,1,2,0:2:0:0:
47,40,427715,2,0,L|5:51,2,30,2|0|0,0:2|0:0|0:0,0:0:0:0:
119,27,428146,1,0,0:0:0:0:
15,188,428624,2,0,B|49:202|49:203|64:191|121:202,1,90,2|0,0:2|0:0,0:0:0:0:
108,365,429477,5,2,0:2:0:0:
95,374,429552,2,0,P|86:319|84:297,1,72
252,165,430307,1,2,0:2:0:0:
199,275,430741,1,2,0:2:0:0:
363,371,431146,2,0,B|411:316|466:321|466:321|493:306|437:284|470:226,1,216,2|0,0:2|0:0,0:0:0:0:
361,56,432885,5,2,0:2:0:0:
371,66,432961,2,0,P|371:140|373:147,1,75
252,263,433748,1,2,0:2:0:0:
178,95,434170,1,2,0:2:0:0:
53,196,434613,2,0,B|58:163|105:165|105:165|126:224|49:225|74:311,1,216,2|0,0:2|0:0,0:0:0:0:
296,284,436342,5,0,0:0:0:0:
281,277,436400,2,0,P|204:288|202:288,1,72,2|0,0:2|0:0,0:0:0:0:
17,214,437200,1,2,0:2:0:0:
84,334,437628,1,2,0:2:0:0:
199,191,438057,2,0,B|245:158|291:180|291:180|351:176|382:146|382:146|350:173|364:216,1,264,2|0,0:2|0:0,0:0:0:0:
228,359,439855,5,2,0:2:0:0:
239,360,439936,2,0,P|247:325|250:281,1,75
440,206,440830,1,0,0:0:0:0:
431,213,440911,2,0,P|420:241|413:271,1,52.4999983978272,2|0,0:2|0:0,0:0:0:0:
401,281,441456,2,0,P|410:310|407:338,1,47.2499985580445,2|0,0:2|0:0,0:0:0:0:
260,166,442313,5,0,0:0:0:0:
270,157,442430,2,0,L|299:154,2,22.5,2|0|0,0:2|0:0|0:0,0:0:0:0:
250,286,442889,1,2,0:2:0:0:
230,268,443027,2,0,B|210:253|210:253|174:252|51:336|51:336|211:354|236:324|236:324|243:286|243:286|282:269|299:241,1,506.249984550477,2|0,0:2|0:0,0:0:0:0:
