osu file format v14

[General]
AudioFilename: audio.mp3
AudioLeadIn: 0
PreviewTime: 80718
Countdown: 0
SampleSet: Normal
StackLeniency: 0.7
Mode: 3
LetterboxInBreaks: 0
SpecialStyle: 0
WidescreenStoryboard: 0

[Editor]
DistanceSpacing: 1.4
BeatDivisor: 4
GridSize: 8
TimelineZoom: 1.350009

[Metadata]
Title:Stay true
TitleUnicode:Стэй тру
Artist:The Hatters
ArtistUnicode:The Hatters
Creator:Mage
Version:Maximum
Source:
Tags:Шляпники russian folk rock OneRing
BeatmapID:1448488
BeatmapSetID:684428

[Difficulty]
HPDrainRate:8
CircleSize:4
OverallDifficulty:8
ApproachRate:5
SliderMultiplier:1.4
SliderTickRate:1

[Events]
//Background and Video events
0,0,"bg.jpg",0,0
//Break Periods
//Storyboard Layer 0 (Background)
//Storyboard Layer 1 (Fail)
//Storyboard Layer 2 (Pass)
//Storyboard Layer 3 (Foreground)
//Storyboard Layer 4 (Overlay)
//Storyboard Sound Samples

[TimingPoints]
335.865967970345,352.941176470588,4,1,1,70,1,0
13041,-100,4,1,1,70,0,1
24335,-100,4,1,1,70,0,0
58218,-100,4,1,1,70,0,1
80100,-100,4,1,1,70,0,0
80806,-100,4,1,1,70,0,1
89277,-100,4,1,1,70,0,0
92100,-100,4,1,1,70,0,1
103394,-100,4,1,1,70,0,0
159865,-100,4,1,1,70,0,1
181747,-100,4,1,1,70,0,0
182453,-100,4,1,1,70,0,1
190924,-100,4,1,1,70,0,0
193747,-100,4,1,1,70,0,1
205041,-100,4,1,1,70,0,0
206453,-100,4,1,1,70,0,1
217747,-100,4,1,1,70,0,0

[HitObjects]
448,192,335,5,0,0:0:0:0:
320,192,335,1,2,0:0:0:0:
320,192,688,1,2,0:0:0:0:
448,192,688,1,0,0:0:0:0:
320,192,1041,1,2,0:0:0:0:
448,192,1041,1,0,0:0:0:0:
320,192,1394,1,2,0:0:0:0:
448,192,1394,1,0,0:0:0:0:
448,192,1747,1,2,0:0:0:0:
64,192,1747,1,8,0:0:0:0:
448,192,1924,1,2,0:0:0:0:
64,192,1924,1,8,0:0:0:0:
64,192,2100,1,2,0:0:0:0:
192,192,2100,1,0,0:0:0:0:
320,192,2188,1,0,0:0:0:0:
192,192,2277,1,0,0:0:0:0:
64,192,2365,1,0,0:0:0:0:
448,192,2453,1,0,0:0:0:0:
192,192,2453,1,2,0:0:0:0:
320,192,2541,1,0,0:0:0:0:
64,192,2629,1,0,0:0:0:0:
192,192,2718,1,0,0:0:0:0:
64,192,2806,1,0,0:0:0:0:
320,192,2806,1,2,0:0:0:0:
448,192,2894,1,0,0:0:0:0:
320,192,2982,1,0,0:0:0:0:
192,192,3071,1,0,0:0:0:0:
64,192,3159,1,2,0:0:0:0:
448,192,3159,1,8,0:0:0:0:
320,192,3247,1,0,0:0:0:0:
64,192,3335,1,2,0:0:0:0:
448,192,3335,1,8,0:0:0:0:
192,192,3424,1,0,0:0:0:0:
320,192,3512,1,2,0:0:0:0:
448,192,3512,1,0,0:0:0:0:
64,192,3600,1,0,0:0:0:0:
192,192,3688,1,0,0:0:0:0:
320,192,3777,1,0,0:0:0:0:
192,192,3865,1,2,0:0:0:0:
448,192,3865,1,0,0:0:0:0:
64,192,3953,1,0,0:0:0:0:
192,192,4041,1,0,0:0:0:0:
320,192,4129,1,0,0:0:0:0:
448,192,4218,1,2,0:0:0:0:
64,192,4218,1,0,0:0:0:0:
320,192,4306,1,0,0:0:0:0:
192,192,4394,1,0,0:0:0:0:
320,192,4482,1,0,0:0:0:0:
64,192,4571,1,8,0:0:0:0:
448,192,4571,1,2,0:0:0:0:
192,192,4659,1,0,0:0:0:0:
448,192,4747,1,2,0:0:0:0:
64,192,4747,1,8,0:0:0:0:
320,192,4835,1,0,0:0:0:0:
64,192,4924,1,0,0:0:0:0:
192,192,4924,1,2,0:0:0:0:
448,192,5012,1,0,0:0:0:0:
320,192,5100,1,0,0:0:0:0:
448,192,5188,1,0,0:0:0:0:
64,192,5277,1,0,0:0:0:0:
320,192,5277,1,2,0:0:0:0:
192,192,5365,1,0,0:0:0:0:
448,192,5453,1,0,0:0:0:0:
64,192,5541,1,0,0:0:0:0:
192,192,5629,1,2,0:0:0:0:
320,192,5629,1,0,0:0:0:0:
448,192,5718,1,0,0:0:0:0:
320,192,5806,1,0,0:0:0:0:
192,192,5894,1,0,0:0:0:0:
448,192,5982,1,8,0:0:0:0:
64,192,5982,1,2,0:0:0:0:
320,192,6071,1,0,0:0:0:0:
64,192,6159,1,2,0:0:0:0:
448,192,6159,1,8,0:0:0:0:
192,192,6247,1,0,0:0:0:0:
320,192,6335,1,2,0:0:0:0:
448,192,6335,1,0,0:0:0:0:
192,192,6424,1,0,0:0:0:0:
320,192,6512,1,0,0:0:0:0:
448,192,6600,1,0,0:0:0:0:
64,192,6688,1,0,0:0:0:0:
192,192,6688,1,2,0:0:0:0:
320,192,6777,1,0,0:0:0:0:
192,192,6865,1,0,0:0:0:0:
64,192,6953,1,0,0:0:0:0:
192,192,7041,1,2,0:0:0:0:
448,192,7041,1,0,0:0:0:0:
320,192,7129,1,0,0:0:0:0:
448,192,7218,1,0,0:0:0:0:
192,192,7306,1,0,0:0:0:0:
64,192,7394,1,2,0:0:0:0:
448,192,7394,1,8,0:0:0:0:
320,192,7394,1,4,0:0:0:0:
192,192,7482,1,0,0:0:0:0:
64,192,7571,1,2,0:0:0:0:
448,192,7571,1,8,0:0:0:0:
320,192,7659,1,0,0:0:0:0:
64,192,7747,1,0,0:0:0:0:
192,192,7747,1,2,0:0:0:0:
320,192,7835,1,0,0:0:0:0:
192,192,7924,1,0,0:0:0:0:
64,192,8012,1,0,0:0:0:0:
448,192,8100,1,0,0:0:0:0:
320,192,8100,1,2,0:0:0:0:
192,192,8188,1,0,0:0:0:0:
320,192,8277,1,0,0:0:0:0:
448,192,8365,1,0,0:0:0:0:
320,192,8453,1,0,0:0:0:0:
192,192,8453,1,2,0:0:0:0:
64,192,8541,1,0,0:0:0:0:
192,192,8629,1,0,0:0:0:0:
320,192,8718,1,0,0:0:0:0:
448,192,8806,1,8,0:0:0:0:
64,192,8806,1,2,0:0:0:0:
320,192,8894,1,0,0:0:0:0:
64,192,8982,1,2,0:0:0:0:
448,192,8982,1,8,0:0:0:0:
192,192,9071,1,0,0:0:0:0:
320,192,9159,1,2,0:0:0:0:
448,192,9159,1,0,0:0:0:0:
192,192,9247,1,0,0:0:0:0:
64,192,9335,1,0,0:0:0:0:
320,192,9424,1,0,0:0:0:0:
192,192,9512,1,2,0:0:0:0:
448,192,9512,1,0,0:0:0:0:
64,192,9600,1,0,0:0:0:0:
192,192,9688,1,0,0:0:0:0:
320,192,9777,1,0,0:0:0:0:
448,192,9865,1,2,0:0:0:0:
64,192,9865,1,0,0:0:0:0:
192,192,9953,1,0,0:0:0:0:
320,192,10041,1,0,0:0:0:0:
192,192,10129,1,0,0:0:0:0:
448,192,10218,1,8,0:0:0:0:
320,192,10218,1,2,0:0:0:0:
448,192,10394,1,0,0:0:0:0:
320,192,10394,1,2,0:0:0:0:
192,192,10571,1,2,0:0:0:0:
64,192,10571,1,8,0:0:0:0:
64,192,10747,1,0,0:0:0:0:
192,192,10747,1,2,0:0:0:0:
448,192,10924,1,8,0:0:0:0:
320,192,10924,1,2,0:0:0:0:
320,192,11100,1,2,0:0:0:0:
448,192,11100,1,0,0:0:0:0:
64,192,11277,1,0,0:0:0:0:
192,192,11277,1,2,0:0:0:0:
320,192,11453,1,2,0:0:0:0:
448,192,11453,1,8,0:0:0:0:
64,192,11629,1,2,0:0:0:0:
320,192,11629,1,0,0:0:0:0:
320,192,11806,1,0,0:0:0:0:
64,192,11806,1,2,0:0:0:0:
192,192,11982,1,2,0:0:0:0:
448,192,11982,1,0,0:0:0:0:
192,192,12159,1,2,0:0:0:0:
448,192,12159,1,0,0:0:0:0:
320,192,12335,1,0,0:0:0:0:
64,192,12335,1,2,0:0:0:0:
64,192,12512,1,2,0:0:0:0:
320,192,12512,1,0,0:0:0:0:
64,192,12688,1,0,0:0:0:0:
192,192,12688,1,8,0:0:0:0:
448,192,12688,1,2,0:0:0:0:
320,192,12865,1,0,0:0:0:0:
64,192,13041,1,4,0:0:0:0:
448,192,13041,1,0,0:0:0:0:
320,192,13041,1,2,0:0:0:0:
64,192,13394,128,0,13571:0:0:0:0:
320,192,13394,1,8,0:0:0:0:
448,192,13394,1,2,0:0:0:0:
192,192,13571,128,0,13747:0:0:0:0:
320,192,13747,128,0,13924:0:0:0:0:
448,192,13747,1,2,0:0:0:0:
192,192,13924,128,0,14100:0:0:0:0:
64,192,14100,1,8,0:0:0:0:
448,192,14100,128,0,14277:0:0:0:0:
320,192,14100,1,2,0:0:0:0:
192,192,14277,1,2,0:0:0:0:
64,192,14277,128,0,14629:0:0:0:0:
448,192,14453,1,0,0:0:0:0:
320,192,14629,128,0,14806:0:0:0:0:
192,192,14806,128,2,14982:0:0:0:0:
64,192,14806,1,8,0:0:0:0:
448,192,14806,1,0,0:0:0:0:
320,192,14982,128,0,15159:0:0:0:0:
192,192,15159,1,2,0:0:0:0:
448,192,15159,128,0,15335:0:0:0:0:
64,192,15335,128,0,15512:0:0:0:0:
320,192,15512,128,0,15688:0:0:0:0:
192,192,15512,1,2,0:0:0:0:
448,192,15512,1,8,0:0:0:0:
64,192,15688,128,0,15865:0:0:0:0:
448,192,15865,1,0,0:0:0:0:
320,192,15865,1,2,0:0:0:0:
320,192,16041,1,0,0:0:0:0:
64,192,16218,128,2,16394:0:0:0:0:
192,192,16218,1,8,0:0:0:0:
448,192,16218,1,0,0:0:0:0:
320,192,16394,1,0,0:0:0:0:
192,192,16571,128,2,16747:0:0:0:0:
64,192,16571,1,0,0:0:0:0:
448,192,16747,128,0,16924:0:0:0:0:
64,192,16924,1,0,0:0:0:0:
320,192,16924,128,8,17100:0:0:0:0:
192,192,16924,1,2,0:0:0:0:
64,192,17100,128,0,17453:0:0:0:0:
448,192,17100,1,2,0:0:0:0:
192,192,17277,1,0,0:0:0:0:
320,192,17453,1,0,0:0:0:0:
320,192,17629,128,8,17806:0:0:0:0:
64,192,17629,1,0,0:0:0:0:
448,192,17629,1,2,0:0:0:0:
192,192,17806,1,0,0:0:0:0:
64,192,17982,128,0,18159:0:0:0:0:
448,192,17982,1,2,0:0:0:0:
192,192,18159,128,0,18335:0:0:0:0:
448,192,18335,128,0,18512:0:0:0:0:
64,192,18335,1,2,0:0:0:0:
320,192,18335,1,8,0:0:0:0:
192,192,18512,128,0,18688:0:0:0:0:
448,192,18688,1,2,0:0:0:0:
320,192,18688,1,0,0:0:0:0:
192,192,18865,1,0,0:0:0:0:
448,192,19041,128,8,19218:0:0:0:0:
64,192,19041,1,2,0:0:0:0:
320,192,19041,1,0,0:0:0:0:
192,192,19218,1,0,0:0:0:0:
448,192,19394,128,0,19571:0:0:0:0:
64,192,19394,1,2,0:0:0:0:
320,192,19571,128,0,19747:0:0:0:0:
64,192,19747,128,0,19924:0:0:0:0:
448,192,19747,1,2,0:0:0:0:
192,192,19747,1,8,0:0:0:0:
320,192,19924,128,2,20277:0:0:0:0:
448,192,19924,1,0,0:0:0:0:
192,192,20100,1,0,0:0:0:0:
64,192,20277,128,0,20453:0:0:0:0:
448,192,20453,128,8,20629:0:0:0:0:
320,192,20453,1,2,0:0:0:0:
192,192,20453,1,0,0:0:0:0:
320,192,20629,128,0,20806:0:0:0:0:
448,192,20806,1,0,0:0:0:0:
64,192,20806,128,2,20982:0:0:0:0:
192,192,20982,128,0,21159:0:0:0:0:
448,192,21159,128,8,21335:0:0:0:0:
320,192,21159,1,2,0:0:0:0:
64,192,21159,1,0,0:0:0:0:
192,192,21335,128,0,21512:0:0:0:0:
448,192,21512,1,0,0:0:0:0:
320,192,21512,1,2,0:0:0:0:
320,192,21688,1,0,0:0:0:0:
448,192,21688,1,0,0:0:0:0:
64,192,21865,1,8,0:0:0:0:
192,192,21865,1,2,0:0:0:0:
64,192,22041,1,0,0:0:0:0:
320,192,22218,1,2,0:0:0:0:
448,192,22218,1,0,0:0:0:0:
448,192,22394,1,0,0:0:0:0:
64,192,22571,1,8,0:0:0:0:
192,192,22571,1,2,0:0:0:0:
448,192,22747,1,0,0:0:0:0:
320,192,22747,1,2,0:0:0:0:
64,192,22924,1,0,0:0:0:0:
192,192,22924,1,0,0:0:0:0:
192,192,23100,1,0,0:0:0:0:
64,192,23100,1,0,0:0:0:0:
320,192,23277,1,2,0:0:0:0:
448,192,23277,1,8,0:0:0:0:
320,192,23453,1,0,0:0:0:0:
64,192,23629,1,0,0:0:0:0:
192,192,23629,1,2,0:0:0:0:
192,192,23806,1,0,0:0:0:0:
320,192,23982,1,2,0:0:0:0:
448,192,23982,1,8,0:0:0:0:
320,192,24159,1,0,0:0:0:0:
64,192,24335,1,4,0:0:0:0:
448,192,24335,1,8,0:0:0:0:
192,192,24335,1,2,0:0:0:0:
320,192,24512,1,0,0:0:0:0:
192,192,24688,1,2,0:0:0:0:
64,192,24688,1,0,0:0:0:0:
320,192,24865,1,0,0:0:0:0:
64,192,25041,1,0,0:0:0:0:
192,192,25041,1,2,0:0:0:0:
320,192,25218,1,0,0:0:0:0:
64,192,25394,1,0,0:0:0:0:
192,192,25394,1,2,0:0:0:0:
320,192,25571,1,0,0:0:0:0:
192,192,25747,1,2,0:0:0:0:
64,192,25747,1,0,0:0:0:0:
320,192,25924,1,0,0:0:0:0:
64,192,26100,1,0,0:0:0:0:
192,192,26100,1,2,0:0:0:0:
320,192,26277,1,0,0:0:0:0:
192,192,26453,1,2,0:0:0:0:
64,192,26453,1,0,0:0:0:0:
320,192,26629,1,0,0:0:0:0:
64,192,26806,1,0,0:0:0:0:
192,192,26806,1,2,0:0:0:0:
320,192,26982,1,0,0:0:0:0:
192,192,27071,1,0,0:0:0:0:
64,192,27159,1,2,0:0:0:0:
448,192,27159,1,0,0:0:0:0:
320,192,27335,1,0,0:0:0:0:
448,192,27512,1,0,0:0:0:0:
64,192,27512,1,2,0:0:0:0:
320,192,27688,1,0,0:0:0:0:
64,192,27865,1,2,0:0:0:0:
448,192,27865,1,0,0:0:0:0:
320,192,28041,1,0,0:0:0:0:
64,192,28218,1,2,0:0:0:0:
448,192,28218,1,0,0:0:0:0:
320,192,28394,1,0,0:0:0:0:
448,192,28571,1,0,0:0:0:0:
64,192,28571,1,2,0:0:0:0:
320,192,28747,1,0,0:0:0:0:
64,192,28924,1,2,0:0:0:0:
448,192,28924,1,0,0:0:0:0:
320,192,29100,1,0,0:0:0:0:
448,192,29277,1,0,0:0:0:0:
64,192,29277,1,2,0:0:0:0:
320,192,29453,1,0,0:0:0:0:
192,192,29541,1,0,0:0:0:0:
64,192,29629,1,2,0:0:0:0:
448,192,29629,1,0,0:0:0:0:
192,192,29806,1,0,0:0:0:0:
64,192,29894,1,0,0:0:0:0:
320,192,29982,1,2,0:0:0:0:
448,192,29982,1,0,0:0:0:0:
192,192,30159,1,0,0:0:0:0:
320,192,30335,1,2,0:0:0:0:
448,192,30335,1,0,0:0:0:0:
192,192,30512,1,0,0:0:0:0:
320,192,30688,1,2,0:0:0:0:
448,192,30688,1,0,0:0:0:0:
192,192,30865,1,0,0:0:0:0:
448,192,31041,1,4,0:0:0:0:
320,192,31041,1,2,0:0:0:0:
64,192,31041,1,8,0:0:0:0:
192,192,31218,1,0,0:0:0:0:
448,192,31394,1,4,0:0:0:0:
64,192,31394,1,8,0:0:0:0:
320,192,31394,1,2,0:0:0:0:
192,192,31571,1,0,0:0:0:0:
448,192,31747,1,0,0:0:0:0:
320,192,31747,1,2,0:0:0:0:
192,192,31924,1,0,0:0:0:0:
320,192,32100,1,2,0:0:0:0:
448,192,32100,1,0,0:0:0:0:
192,192,32277,1,0,0:0:0:0:
448,192,32453,1,0,0:0:0:0:
320,192,32453,1,2,0:0:0:0:
192,192,32629,1,0,0:0:0:0:
320,192,32718,1,0,0:0:0:0:
448,192,32806,1,2,0:0:0:0:
64,192,32806,1,0,0:0:0:0:
192,192,32982,1,0,0:0:0:0:
64,192,33159,1,0,0:0:0:0:
448,192,33159,1,2,0:0:0:0:
192,192,33335,1,0,0:0:0:0:
64,192,33512,1,0,0:0:0:0:
448,192,33512,1,2,0:0:0:0:
192,192,33688,1,0,0:0:0:0:
64,192,33865,1,0,0:0:0:0:
448,192,33865,1,2,0:0:0:0:
192,192,34041,1,0,0:0:0:0:
448,192,34218,1,2,0:0:0:0:
64,192,34218,1,0,0:0:0:0:
192,192,34394,1,0,0:0:0:0:
64,192,34571,1,0,0:0:0:0:
448,192,34571,1,2,0:0:0:0:
192,192,34747,1,0,0:0:0:0:
448,192,34924,1,2,0:0:0:0:
64,192,34924,1,0,0:0:0:0:
64,192,35100,1,0,0:0:0:0:
192,192,35188,1,0,0:0:0:0:
448,192,35277,1,4,0:0:0:0:
320,192,35277,1,2,0:0:0:0:
448,192,35629,1,2,0:0:0:0:
64,192,35629,1,0,0:0:0:0:
448,192,35806,1,2,0:0:0:0:
64,192,35806,1,0,0:0:0:0:
320,192,35982,1,8,0:0:0:0:
448,192,35982,1,0,0:0:0:0:
64,192,36335,1,0,0:0:0:0:
192,192,36335,1,8,0:0:0:0:
320,192,36688,1,8,0:0:0:0:
448,192,36688,1,0,0:0:0:0:
64,192,37041,1,0,0:0:0:0:
448,192,37041,1,2,0:0:0:0:
64,192,37218,1,0,0:0:0:0:
448,192,37218,1,2,0:0:0:0:
64,192,37394,1,0,0:0:0:0:
192,192,37394,1,8,0:0:0:0:
320,192,37571,1,0,0:0:0:0:
448,192,37747,1,0,0:0:0:0:
320,192,37747,1,8,0:0:0:0:
192,192,37924,1,0,0:0:0:0:
192,192,38100,1,8,0:0:0:0:
64,192,38100,1,0,0:0:0:0:
320,192,38277,1,0,0:0:0:0:
448,192,38453,1,0,0:0:0:0:
64,192,38453,1,2,0:0:0:0:
64,192,38629,1,2,0:0:0:0:
448,192,38629,1,0,0:0:0:0:
320,192,38806,1,8,0:0:0:0:
448,192,38806,1,0,0:0:0:0:
192,192,38982,1,0,0:0:0:0:
64,192,39159,1,0,0:0:0:0:
192,192,39159,1,8,0:0:0:0:
320,192,39335,1,0,0:0:0:0:
320,192,39512,1,8,0:0:0:0:
448,192,39512,1,0,0:0:0:0:
192,192,39688,1,0,0:0:0:0:
64,192,39865,1,0,0:0:0:0:
448,192,39865,1,2,0:0:0:0:
448,192,40041,1,2,0:0:0:0:
64,192,40041,1,0,0:0:0:0:
64,192,40218,1,0,0:0:0:0:
192,192,40218,1,8,0:0:0:0:
320,192,40394,1,0,0:0:0:0:
320,192,40571,1,8,0:0:0:0:
448,192,40571,1,0,0:0:0:0:
192,192,40747,1,0,0:0:0:0:
64,192,40924,1,0,0:0:0:0:
192,192,40924,1,8,0:0:0:0:
320,192,41100,1,0,0:0:0:0:
448,192,41277,1,0,0:0:0:0:
64,192,41277,1,2,0:0:0:0:
64,192,41453,1,2,0:0:0:0:
448,192,41453,1,0,0:0:0:0:
448,192,41629,1,0,0:0:0:0:
320,192,41629,1,8,0:0:0:0:
320,192,41806,1,0,0:0:0:0:
64,192,41982,1,0,0:0:0:0:
192,192,41982,1,8,0:0:0:0:
192,192,42159,1,0,0:0:0:0:
320,192,42335,1,8,0:0:0:0:
448,192,42335,1,0,0:0:0:0:
320,192,42512,1,0,0:0:0:0:
64,192,42688,1,0,0:0:0:0:
448,192,42688,1,2,0:0:0:0:
448,192,42865,1,2,0:0:0:0:
64,192,42865,1,0,0:0:0:0:
64,192,43041,1,0,0:0:0:0:
192,192,43041,1,8,0:0:0:0:
192,192,43218,1,0,0:0:0:0:
320,192,43394,1,8,0:0:0:0:
448,192,43394,1,0,0:0:0:0:
320,192,43571,1,0,0:0:0:0:
64,192,43747,1,0,0:0:0:0:
192,192,43747,1,8,0:0:0:0:
192,192,43924,1,0,0:0:0:0:
448,192,44100,1,0,0:0:0:0:
64,192,44100,1,2,0:0:0:0:
64,192,44277,1,2,0:0:0:0:
448,192,44277,1,0,0:0:0:0:
448,192,44453,1,0,0:0:0:0:
320,192,44453,1,8,0:0:0:0:
192,192,44629,1,0,0:0:0:0:
64,192,44806,1,0,0:0:0:0:
192,192,44806,1,8,0:0:0:0:
320,192,44982,1,0,0:0:0:0:
448,192,45159,1,0,0:0:0:0:
320,192,45159,1,8,0:0:0:0:
192,192,45335,1,0,0:0:0:0:
64,192,45512,1,0,0:0:0:0:
192,192,45512,1,2,0:0:0:0:
64,192,45688,1,0,0:0:0:0:
192,192,45688,1,2,0:0:0:0:
320,192,45865,1,2,0:0:0:0:
448,192,45865,1,8,0:0:0:0:
64,192,46041,1,0,0:0:0:0:
192,192,46041,1,2,0:0:0:0:
320,192,46218,1,2,0:0:0:0:
448,192,46218,1,0,0:0:0:0:
448,192,46394,1,0,0:0:0:0:
320,192,46394,1,2,0:0:0:0:
64,192,46571,1,8,0:0:0:0:
192,192,46571,1,2,0:0:0:0:
320,192,46747,1,0,0:0:0:0:
448,192,46924,1,4,0:0:0:0:
192,192,46924,1,0,0:0:0:0:
64,192,46924,1,2,0:0:0:0:
192,192,47100,128,0,47277:0:0:0:0:
448,192,47277,1,2,0:0:0:0:
64,192,47277,1,0,0:0:0:0:
320,192,47277,1,8,0:0:0:0:
320,192,47453,128,0,47629:0:0:0:0:
64,192,47629,1,2,0:0:0:0:
448,192,47629,1,0,0:0:0:0:
64,192,47806,128,0,47982:0:0:0:0:
320,192,47982,1,2,0:0:0:0:
192,192,47982,1,8,0:0:0:0:
448,192,47982,1,0,0:0:0:0:
192,192,48159,128,0,48512:0:0:0:0:
64,192,48335,1,2,0:0:0:0:
448,192,48335,1,0,0:0:0:0:
320,192,48512,1,0,0:0:0:0:
448,192,48688,1,2,0:0:0:0:
192,192,48688,1,8,0:0:0:0:
64,192,48688,128,0,48865:0:0:0:0:
448,192,48865,1,0,0:0:0:0:
320,192,49041,1,2,0:0:0:0:
192,192,49041,1,0,0:0:0:0:
192,192,49218,128,0,49394:0:0:0:0:
64,192,49394,1,8,0:0:0:0:
320,192,49394,1,2,0:0:0:0:
448,192,49394,1,0,0:0:0:0:
320,192,49571,128,0,49747:0:0:0:0:
448,192,49747,1,0,0:0:0:0:
64,192,49747,1,2,0:0:0:0:
192,192,49924,1,0,0:0:0:0:
192,192,50100,1,2,0:0:0:0:
448,192,50100,128,8,50277:0:0:0:0:
64,192,50100,1,0,0:0:0:0:
320,192,50277,1,0,0:0:0:0:
448,192,50453,1,2,0:0:0:0:
192,192,50453,1,0,0:0:0:0:
192,192,50629,128,0,50806:0:0:0:0:
64,192,50806,1,2,0:0:0:0:
320,192,50806,1,8,0:0:0:0:
448,192,50806,1,0,0:0:0:0:
64,192,50982,128,0,51335:0:0:0:0:
320,192,51159,1,2,0:0:0:0:
448,192,51159,1,0,0:0:0:0:
192,192,51335,1,0,0:0:0:0:
320,192,51512,1,2,0:0:0:0:
448,192,51512,1,8,0:0:0:0:
64,192,51512,128,0,51688:0:0:0:0:
192,192,51688,1,0,0:0:0:0:
448,192,51865,1,2,0:0:0:0:
320,192,51865,1,0,0:0:0:0:
320,192,52041,128,0,52218:0:0:0:0:
64,192,52218,1,8,0:0:0:0:
192,192,52218,1,2,0:0:0:0:
448,192,52218,1,0,0:0:0:0:
192,192,52394,128,0,52571:0:0:0:0:
448,192,52571,1,2,0:0:0:0:
64,192,52571,1,0,0:0:0:0:
448,192,52747,128,0,52924:0:0:0:0:
320,192,52924,1,8,0:0:0:0:
64,192,52924,1,2,0:0:0:0:
192,192,52924,128,0,53100:0:0:0:0:
64,192,53100,1,0,0:0:0:0:
320,192,53277,1,2,0:0:0:0:
448,192,53277,1,0,0:0:0:0:
320,192,53453,128,0,53629:0:0:0:0:
64,192,53629,1,8,0:0:0:0:
192,192,53629,1,2,0:0:0:0:
448,192,53629,1,0,0:0:0:0:
192,192,53806,128,0,54159:0:0:0:0:
64,192,53982,1,0,0:0:0:0:
448,192,53982,1,2,0:0:0:0:
320,192,54159,1,0,0:0:0:0:
448,192,54335,1,8,0:0:0:0:
192,192,54335,1,2,0:0:0:0:
64,192,54335,1,0,0:0:0:0:
448,192,54512,128,0,54688:0:0:0:0:
64,192,54688,1,2,0:0:0:0:
320,192,54688,1,0,0:0:0:0:
64,192,54865,128,0,55041:0:0:0:0:
192,192,55041,1,2,0:0:0:0:
320,192,55041,1,8,0:0:0:0:
448,192,55041,1,0,0:0:0:0:
192,192,55218,128,0,55394:0:0:0:0:
64,192,55394,1,2,0:0:0:0:
448,192,55394,128,0,55747:0:0:0:0:
320,192,55571,1,0,0:0:0:0:
192,192,55747,128,2,56100:0:0:0:0:
64,192,55747,1,8,0:0:0:0:
448,192,55924,1,0,0:0:0:0:
320,192,56100,128,2,56453:0:0:0:0:
64,192,56100,1,0,0:0:0:0:
192,192,56277,1,0,0:0:0:0:
64,192,56453,128,8,56806:0:0:0:0:
448,192,56453,1,2,0:0:0:0:
192,192,56629,1,0,0:0:0:0:
448,192,56806,128,0,57159:0:0:0:0:
320,192,56806,1,2,0:0:0:0:
64,192,56982,1,0,0:0:0:0:
320,192,57159,128,8,57512:0:0:0:0:
192,192,57159,1,2,0:0:0:0:
448,192,57335,1,0,0:0:0:0:
64,192,57512,128,0,57865:0:0:0:0:
192,192,57512,1,2,0:0:0:0:
320,192,57688,1,0,0:0:0:0:
448,192,57865,128,8,58041:0:0:0:0:
192,192,57865,1,2,0:0:0:0:
64,192,58041,1,0,0:0:0:0:
64,192,58218,5,0,0:0:0:0:
448,192,58218,1,4,0:0:0:0:
320,192,58218,1,2,0:0:0:0:
192,192,58306,1,0,0:0:0:0:
320,192,58394,1,0,0:0:0:0:
192,192,58482,1,0,0:0:0:0:
320,192,58571,1,8,0:0:0:0:
64,192,58571,1,2,0:0:0:0:
448,192,58659,1,0,0:0:0:0:
192,192,58747,1,0,0:0:0:0:
320,192,58835,1,0,0:0:0:0:
64,192,58924,1,0,0:0:0:0:
192,192,58924,1,2,0:0:0:0:
320,192,59012,1,0,0:0:0:0:
192,192,59100,1,0,0:0:0:0:
64,192,59188,1,0,0:0:0:0:
448,192,59277,1,2,0:0:0:0:
320,192,59277,1,8,0:0:0:0:
192,192,59365,1,0,0:0:0:0:
320,192,59453,1,0,0:0:0:0:
192,192,59541,1,0,0:0:0:0:
320,192,59629,1,2,0:0:0:0:
64,192,59629,1,0,0:0:0:0:
448,192,59718,1,0,0:0:0:0:
192,192,59806,1,0,0:0:0:0:
320,192,59894,1,0,0:0:0:0:
192,192,59982,1,8,0:0:0:0:
64,192,59982,1,2,0:0:0:0:
320,192,60071,1,0,0:0:0:0:
192,192,60159,1,0,0:0:0:0:
64,192,60247,1,0,0:0:0:0:
320,192,60335,1,2,0:0:0:0:
448,192,60335,1,0,0:0:0:0:
192,192,60424,1,0,0:0:0:0:
320,192,60512,1,0,0:0:0:0:
192,192,60600,1,0,0:0:0:0:
448,192,60688,1,2,0:0:0:0:
64,192,60688,1,8,0:0:0:0:
320,192,60777,1,0,0:0:0:0:
64,192,60865,1,0,0:0:0:0:
192,192,60953,1,0,0:0:0:0:
448,192,61041,1,0,0:0:0:0:
320,192,61041,1,2,0:0:0:0:
64,192,61129,1,0,0:0:0:0:
320,192,61218,1,0,0:0:0:0:
64,192,61306,1,0,0:0:0:0:
320,192,61394,1,8,0:0:0:0:
448,192,61394,1,2,0:0:0:0:
192,192,61482,1,0,0:0:0:0:
64,192,61571,1,0,0:0:0:0:
320,192,61659,1,0,0:0:0:0:
64,192,61747,1,0,0:0:0:0:
192,192,61747,1,2,0:0:0:0:
320,192,61835,1,0,0:0:0:0:
64,192,61924,1,0,0:0:0:0:
192,192,62012,1,0,0:0:0:0:
448,192,62100,1,2,0:0:0:0:
320,192,62100,1,8,0:0:0:0:
64,192,62188,1,0,0:0:0:0:
320,192,62277,1,0,0:0:0:0:
64,192,62365,1,0,0:0:0:0:
320,192,62453,1,0,0:0:0:0:
192,192,62453,1,2,0:0:0:0:
448,192,62541,1,0,0:0:0:0:
64,192,62629,1,0,0:0:0:0:
320,192,62718,1,0,0:0:0:0:
64,192,62806,1,8,0:0:0:0:
448,192,62806,1,2,0:0:0:0:
320,192,62894,1,0,0:0:0:0:
64,192,62982,1,0,0:0:0:0:
192,192,63071,1,0,0:0:0:0:
320,192,63159,1,2,0:0:0:0:
448,192,63159,1,0,0:0:0:0:
64,192,63247,1,0,0:0:0:0:
320,192,63335,1,0,0:0:0:0:
64,192,63424,1,0,0:0:0:0:
320,192,63512,1,8,0:0:0:0:
448,192,63512,1,2,0:0:0:0:
192,192,63600,1,0,0:0:0:0:
64,192,63688,1,0,0:0:0:0:
320,192,63777,1,0,0:0:0:0:
448,192,63865,1,2,0:0:0:0:
64,192,63865,1,0,0:0:0:0:
192,192,63953,1,0,0:0:0:0:
448,192,64041,1,0,0:0:0:0:
192,192,64129,1,0,0:0:0:0:
448,192,64218,1,2,0:0:0:0:
64,192,64218,1,8,0:0:0:0:
320,192,64306,1,0,0:0:0:0:
192,192,64394,1,0,0:0:0:0:
448,192,64482,1,0,0:0:0:0:
64,192,64571,1,0,0:0:0:0:
192,192,64571,1,2,0:0:0:0:
448,192,64659,1,0,0:0:0:0:
192,192,64747,1,0,0:0:0:0:
320,192,64835,1,0,0:0:0:0:
448,192,64924,1,8,0:0:0:0:
64,192,64924,1,2,0:0:0:0:
192,192,65012,1,0,0:0:0:0:
448,192,65100,1,0,0:0:0:0:
192,192,65188,1,0,0:0:0:0:
448,192,65277,1,0,0:0:0:0:
64,192,65277,1,2,0:0:0:0:
320,192,65365,1,0,0:0:0:0:
192,192,65453,1,0,0:0:0:0:
448,192,65541,1,0,0:0:0:0:
192,192,65629,1,8,0:0:0:0:
64,192,65629,1,2,0:0:0:0:
448,192,65718,1,0,0:0:0:0:
192,192,65806,1,0,0:0:0:0:
64,192,65894,1,0,0:0:0:0:
320,192,65982,1,2,0:0:0:0:
448,192,65982,1,0,0:0:0:0:
192,192,66071,1,0,0:0:0:0:
448,192,66159,1,0,0:0:0:0:
192,192,66247,1,0,0:0:0:0:
448,192,66335,1,8,0:0:0:0:
64,192,66335,1,2,0:0:0:0:
320,192,66424,1,0,0:0:0:0:
64,192,66512,1,0,0:0:0:0:
192,192,66600,1,0,0:0:0:0:
320,192,66688,1,2,0:0:0:0:
448,192,66688,1,0,0:0:0:0:
64,192,66777,1,0,0:0:0:0:
448,192,66865,1,0,0:0:0:0:
64,192,66953,1,0,0:0:0:0:
448,192,67041,1,2,0:0:0:0:
192,192,67041,1,8,0:0:0:0:
320,192,67129,1,0,0:0:0:0:
64,192,67218,1,0,0:0:0:0:
448,192,67306,1,0,0:0:0:0:
64,192,67394,1,0,0:0:0:0:
192,192,67394,1,2,0:0:0:0:
448,192,67482,1,0,0:0:0:0:
64,192,67571,1,0,0:0:0:0:
192,192,67659,1,0,0:0:0:0:
320,192,67747,1,8,0:0:0:0:
448,192,67747,1,2,0:0:0:0:
192,192,67835,1,0,0:0:0:0:
448,192,67924,1,0,0:0:0:0:
320,192,68012,1,0,0:0:0:0:
192,192,68100,1,2,0:0:0:0:
64,192,68100,1,0,0:0:0:0:
320,192,68188,1,0,0:0:0:0:
192,192,68277,1,0,0:0:0:0:
64,192,68365,1,0,0:0:0:0:
320,192,68453,1,8,0:0:0:0:
448,192,68453,1,2,0:0:0:0:
192,192,68541,1,0,0:0:0:0:
320,192,68629,1,0,0:0:0:0:
448,192,68718,1,0,0:0:0:0:
192,192,68806,1,2,0:0:0:0:
64,192,68806,128,0,69159:0:0:0:0:
320,192,68894,1,0,0:0:0:0:
448,192,68982,1,0,0:0:0:0:
192,192,69071,1,0,0:0:0:0:
448,192,69159,128,2,69335:0:0:0:0:
320,192,69159,1,8,0:0:0:0:
192,192,69247,1,0,0:0:0:0:
64,192,69335,1,0,0:0:0:0:
320,192,69424,1,0,0:0:0:0:
64,192,69512,1,4,0:0:0:0:
192,192,69512,1,2,0:0:0:0:
448,192,69512,1,0,0:0:0:0:
320,192,69600,1,0,0:0:0:0:
192,192,69688,1,0,0:0:0:0:
320,192,69777,1,0,0:0:0:0:
192,192,69865,1,8,0:0:0:0:
448,192,69865,1,2,0:0:0:0:
64,192,69953,1,0,0:0:0:0:
320,192,70041,1,0,0:0:0:0:
192,192,70129,1,0,0:0:0:0:
320,192,70218,1,2,0:0:0:0:
64,192,70218,1,0,0:0:0:0:
192,192,70306,1,0,0:0:0:0:
320,192,70394,1,0,0:0:0:0:
448,192,70482,1,0,0:0:0:0:
64,192,70571,1,2,0:0:0:0:
192,192,70571,1,8,0:0:0:0:
320,192,70659,1,0,0:0:0:0:
192,192,70747,1,0,0:0:0:0:
320,192,70835,1,0,0:0:0:0:
192,192,70924,1,2,0:0:0:0:
448,192,70924,1,0,0:0:0:0:
64,192,71012,1,0,0:0:0:0:
320,192,71100,1,0,0:0:0:0:
192,192,71188,1,0,0:0:0:0:
320,192,71277,1,8,0:0:0:0:
64,192,71277,1,2,0:0:0:0:
192,192,71365,1,0,0:0:0:0:
320,192,71453,1,0,0:0:0:0:
448,192,71541,1,0,0:0:0:0:
192,192,71629,1,2,0:0:0:0:
64,192,71629,128,0,71982:0:0:0:0:
320,192,71718,1,0,0:0:0:0:
448,192,71806,1,0,0:0:0:0:
192,192,71894,1,0,0:0:0:0:
448,192,71982,128,2,72335:0:0:0:0:
320,192,71982,1,8,0:0:0:0:
192,192,72071,1,0,0:0:0:0:
64,192,72159,1,0,0:0:0:0:
320,192,72247,1,0,0:0:0:0:
192,192,72335,1,2,0:0:0:0:
64,192,72335,1,0,0:0:0:0:
448,192,72424,1,0,0:0:0:0:
192,192,72512,1,0,0:0:0:0:
448,192,72600,1,0,0:0:0:0:
320,192,72688,1,8,0:0:0:0:
192,192,72688,1,2,0:0:0:0:
64,192,72777,1,0,0:0:0:0:
448,192,72865,1,0,0:0:0:0:
192,192,72953,1,0,0:0:0:0:
448,192,73041,1,0,0:0:0:0:
64,192,73041,1,2,0:0:0:0:
192,192,73129,1,0,0:0:0:0:
448,192,73218,1,0,0:0:0:0:
320,192,73306,1,0,0:0:0:0:
192,192,73394,1,8,0:0:0:0:
64,192,73394,1,2,0:0:0:0:
448,192,73482,1,0,0:0:0:0:
192,192,73571,1,0,0:0:0:0:
448,192,73659,1,0,0:0:0:0:
320,192,73747,1,2,0:0:0:0:
192,192,73747,1,0,0:0:0:0:
64,192,73835,1,0,0:0:0:0:
448,192,73924,1,0,0:0:0:0:
192,192,74012,1,0,0:0:0:0:
448,192,74100,1,2,0:0:0:0:
320,192,74100,1,8,0:0:0:0:
192,192,74188,1,0,0:0:0:0:
448,192,74277,1,0,0:0:0:0:
320,192,74365,1,0,0:0:0:0:
192,192,74453,1,2,0:0:0:0:
64,192,74453,1,0,0:0:0:0:
448,192,74541,1,0,0:0:0:0:
192,192,74629,1,0,0:0:0:0:
448,192,74718,1,0,0:0:0:0:
320,192,74806,1,8,0:0:0:0:
64,192,74806,1,2,0:0:0:0:
192,192,74894,1,0,0:0:0:0:
448,192,74982,1,0,0:0:0:0:
320,192,75071,1,0,0:0:0:0:
64,192,75159,1,0,0:0:0:0:
192,192,75159,1,2,0:0:0:0:
448,192,75247,1,0,0:0:0:0:
64,192,75335,1,0,0:0:0:0:
448,192,75424,1,0,0:0:0:0:
64,192,75512,1,2,0:0:0:0:
320,192,75512,1,8,0:0:0:0:
192,192,75600,1,0,0:0:0:0:
448,192,75688,1,0,0:0:0:0:
64,192,75777,1,0,0:0:0:0:
448,192,75865,1,0,0:0:0:0:
320,192,75865,1,2,0:0:0:0:
64,192,75953,1,0,0:0:0:0:
448,192,76041,1,0,0:0:0:0:
320,192,76129,1,0,0:0:0:0:
64,192,76218,1,2,0:0:0:0:
192,192,76218,1,8,0:0:0:0:
448,192,76306,1,0,0:0:0:0:
64,192,76394,1,0,0:0:0:0:
448,192,76482,1,0,0:0:0:0:
64,192,76571,1,0,0:0:0:0:
192,192,76571,1,2,0:0:0:0:
320,192,76659,1,0,0:0:0:0:
448,192,76747,1,0,0:0:0:0:
64,192,76835,1,0,0:0:0:0:
448,192,76924,1,2,0:0:0:0:
320,192,76924,1,8,0:0:0:0:
64,192,77012,1,0,0:0:0:0:
448,192,77100,1,0,0:0:0:0:
320,192,77188,1,0,0:0:0:0:
192,192,77277,1,2,0:0:0:0:
64,192,77277,1,4,0:0:0:0:
448,192,77277,1,0,0:0:0:0:
320,192,77453,1,0,0:0:0:0:
192,192,77541,1,0,0:0:0:0:
448,192,77629,1,4,0:0:0:0:
64,192,77629,1,0,0:0:0:0:
320,192,77629,1,2,0:0:0:0:
64,192,77982,1,4,0:0:0:0:
192,192,77982,1,2,0:0:0:0:
448,192,77982,1,0,0:0:0:0:
320,192,78071,1,0,0:0:0:0:
64,192,78159,1,0,0:0:0:0:
192,192,78247,1,0,0:0:0:0:
64,192,78335,1,8,0:0:0:0:
448,192,78335,1,4,0:0:0:0:
320,192,78335,1,2,0:0:0:0:
320,192,78688,1,0,0:0:0:0:
448,192,78688,1,2,0:0:0:0:
192,192,78865,1,0,0:0:0:0:
64,192,78865,1,2,0:0:0:0:
64,192,79041,1,0,0:0:0:0:
448,192,79041,1,8,0:0:0:0:
320,192,79041,1,2,0:0:0:0:
192,192,79218,1,0,0:0:0:0:
192,192,79394,1,4,0:0:0:0:
64,192,79394,1,0,0:0:0:0:
448,192,79394,1,2,0:0:0:0:
320,192,79747,1,4,0:0:0:0:
448,192,79747,1,0,0:0:0:0:
64,192,79747,1,2,0:0:0:0:
192,192,80100,128,0,80453:0:0:0:0:
192,192,80806,1,2,0:0:0:0:
64,192,80806,1,0,0:0:0:0:
448,192,80806,128,4,81159:0:0:0:0:
192,192,81159,1,0,0:0:0:0:
64,192,81159,128,2,81335:0:0:0:0:
320,192,81159,1,8,0:0:0:0:
320,192,81335,128,0,81688:0:0:0:0:
64,192,81512,1,2,0:0:0:0:
448,192,81512,1,0,0:0:0:0:
64,192,81688,128,0,82218:0:0:0:0:
192,192,81865,1,2,0:0:0:0:
448,192,81865,1,8,0:0:0:0:
320,192,81865,1,0,0:0:0:0:
192,192,82218,128,0,82747:0:0:0:0:
320,192,82218,1,2,0:0:0:0:
320,192,82571,1,8,0:0:0:0:
448,192,82571,1,0,0:0:0:0:
64,192,82571,1,2,0:0:0:0:
448,192,82747,128,0,83453:0:0:0:0:
64,192,82924,1,2,0:0:0:0:
320,192,82924,128,0,83277:0:0:0:0:
192,192,83277,1,8,0:0:0:0:
64,192,83277,128,2,83453:0:0:0:0:
320,192,83453,128,0,83629:0:0:0:0:
64,192,83629,128,0,83982:0:0:0:0:
192,192,83629,128,2,83982:0:0:0:0:
320,192,83982,128,8,84159:0:0:0:0:
448,192,83982,1,2,0:0:0:0:
64,192,84159,128,0,84512:0:0:0:0:
448,192,84159,128,0,85041:0:0:0:0:
192,192,84335,1,0,0:0:0:0:
320,192,84335,1,2,0:0:0:0:
192,192,84512,128,0,85041:0:0:0:0:
64,192,84688,1,2,0:0:0:0:
320,192,84688,1,8,0:0:0:0:
320,192,85041,128,0,85571:0:0:0:0:
64,192,85041,1,2,0:0:0:0:
64,192,85394,1,0,0:0:0:0:
192,192,85394,1,2,0:0:0:0:
448,192,85394,1,8,0:0:0:0:
64,192,85571,128,0,86100:0:0:0:0:
192,192,85747,1,2,0:0:0:0:
448,192,85747,128,0,86100:0:0:0:0:
320,192,86100,1,2,0:0:0:0:
192,192,86100,128,8,86277:0:0:0:0:
448,192,86277,128,0,86453:0:0:0:0:
192,192,86453,128,0,86806:0:0:0:0:
320,192,86453,1,2,0:0:0:0:
64,192,86453,128,0,86806:0:0:0:0:
320,192,86806,128,2,86982:0:0:0:0:
448,192,86806,1,8,0:0:0:0:
448,192,86982,128,0,87335:0:0:0:0:
64,192,86982,128,0,87865:0:0:0:0:
192,192,87159,1,0,0:0:0:0:
320,192,87159,1,2,0:0:0:0:
192,192,87335,128,0,87865:0:0:0:0:
320,192,87512,1,8,0:0:0:0:
448,192,87512,1,2,0:0:0:0:
448,192,87865,128,2,88571:0:0:0:0:
320,192,87865,1,0,0:0:0:0:
192,192,88218,1,2,0:0:0:0:
320,192,88218,1,8,0:0:0:0:
64,192,88218,1,0,0:0:0:0:
64,192,88571,128,2,89100:0:0:0:0:
192,192,88571,1,0,0:0:0:0:
448,192,88747,128,0,89277:0:0:0:0:
320,192,88924,1,2,0:0:0:0:
192,192,88924,1,8,0:0:0:0:
192,192,89277,1,2,0:0:0:0:
64,192,89277,1,4,0:0:0:0:
320,192,89365,1,0,0:0:0:0:
192,192,89453,1,0,0:0:0:0:
320,192,89541,1,0,0:0:0:0:
448,192,89629,1,0,0:0:0:0:
64,192,89806,1,4,0:0:0:0:
192,192,89806,1,2,0:0:0:0:
320,192,89894,1,0,0:0:0:0:
192,192,89982,1,0,0:0:0:0:
320,192,90071,1,0,0:0:0:0:
448,192,90159,1,0,0:0:0:0:
64,192,90335,1,4,0:0:0:0:
192,192,90335,1,2,0:0:0:0:
320,192,90424,1,0,0:0:0:0:
192,192,90512,1,0,0:0:0:0:
320,192,90600,1,0,0:0:0:0:
448,192,90688,1,0,0:0:0:0:
64,192,90865,1,4,0:0:0:0:
192,192,90865,1,2,0:0:0:0:
320,192,90953,1,0,0:0:0:0:
192,192,91041,1,0,0:0:0:0:
320,192,91129,1,0,0:0:0:0:
448,192,91218,1,0,0:0:0:0:
192,192,91394,1,4,0:0:0:0:
64,192,91394,1,0,0:0:0:0:
320,192,91394,1,2,0:0:0:0:
448,192,91482,1,0,0:0:0:0:
192,192,91571,1,0,0:0:0:0:
64,192,91659,1,0,0:0:0:0:
448,192,91747,1,0,0:0:0:0:
320,192,91747,1,4,0:0:0:0:
192,192,91747,1,2,0:0:0:0:
64,192,92100,1,0,0:0:0:0:
448,192,92100,1,4,0:0:0:0:
320,192,92100,128,2,92453:0:0:0:0:
64,192,92453,128,0,92629:0:0:0:0:
192,192,92453,1,8,0:0:0:0:
448,192,92453,1,2,0:0:0:0:
320,192,92629,128,0,92982:0:0:0:0:
64,192,92806,1,2,0:0:0:0:
448,192,92806,1,0,0:0:0:0:
448,192,92982,128,0,93512:0:0:0:0:
64,192,93159,1,0,0:0:0:0:
192,192,93159,1,8,0:0:0:0:
320,192,93159,1,2,0:0:0:0:
64,192,93512,128,0,94041:0:0:0:0:
192,192,93512,1,2,0:0:0:0:
448,192,93865,1,0,0:0:0:0:
320,192,93865,1,2,0:0:0:0:
192,192,93865,1,8,0:0:0:0:
448,192,94041,128,0,94747:0:0:0:0:
192,192,94218,1,2,0:0:0:0:
320,192,94218,128,0,94571:0:0:0:0:
64,192,94571,1,2,0:0:0:0:
192,192,94571,128,8,94747:0:0:0:0:
320,192,94747,128,0,94924:0:0:0:0:
192,192,94924,128,0,95277:0:0:0:0:
448,192,94924,1,2,0:0:0:0:
64,192,94924,128,0,95277:0:0:0:0:
320,192,95277,128,2,95453:0:0:0:0:
448,192,95277,1,8,0:0:0:0:
448,192,95453,128,0,95806:0:0:0:0:
64,192,95453,128,0,96335:0:0:0:0:
192,192,95629,1,2,0:0:0:0:
320,192,95629,1,0,0:0:0:0:
192,192,95806,128,0,96335:0:0:0:0:
448,192,95982,1,8,0:0:0:0:
320,192,95982,1,2,0:0:0:0:
448,192,96335,1,0,0:0:0:0:
320,192,96335,128,2,96865:0:0:0:0:
64,192,96688,1,0,0:0:0:0:
448,192,96688,1,2,0:0:0:0:
192,192,96688,1,8,0:0:0:0:
64,192,96865,128,0,97394:0:0:0:0:
320,192,97041,1,2,0:0:0:0:
448,192,97041,128,0,97394:0:0:0:0:
192,192,97394,1,2,0:0:0:0:
320,192,97394,128,8,97571:0:0:0:0:
192,192,97571,128,0,97747:0:0:0:0:
448,192,97747,128,0,98100:0:0:0:0:
320,192,97747,1,2,0:0:0:0:
64,192,97747,128,0,98100:0:0:0:0:
320,192,98100,128,8,98277:0:0:0:0:
192,192,98100,1,2,0:0:0:0:
64,192,98277,128,0,98629:0:0:0:0:
192,192,98277,128,0,99159:0:0:0:0:
448,192,98453,1,0,0:0:0:0:
320,192,98453,1,2,0:0:0:0:
448,192,98629,128,0,99159:0:0:0:0:
64,192,98806,1,8,0:0:0:0:
320,192,98806,1,2,0:0:0:0:
64,192,99159,128,0,99865:0:0:0:0:
320,192,99159,1,2,0:0:0:0:
320,192,99512,1,0,0:0:0:0:
448,192,99512,1,2,0:0:0:0:
192,192,99512,1,8,0:0:0:0:
192,192,99865,128,2,100394:0:0:0:0:
448,192,99865,1,0,0:0:0:0:
320,192,100041,128,0,100571:0:0:0:0:
64,192,100218,1,8,0:0:0:0:
448,192,100218,1,2,0:0:0:0:
448,192,100571,1,8,0:0:0:0:
64,192,100571,1,4,0:0:0:0:
192,192,100571,1,2,0:0:0:0:
320,192,100747,1,2,0:0:0:0:
320,192,100924,1,2,0:0:0:0:
64,192,101100,1,2,0:0:0:0:
448,192,101100,1,8,0:0:0:0:
192,192,101277,1,2,0:0:0:0:
192,192,101453,1,2,0:0:0:0:
448,192,101629,1,4,0:0:0:0:
64,192,101629,1,8,0:0:0:0:
320,192,101629,1,2,0:0:0:0:
192,192,101806,1,2,0:0:0:0:
192,192,101982,1,2,0:0:0:0:
64,192,102159,1,8,0:0:0:0:
448,192,102159,1,2,0:0:0:0:
320,192,102335,1,2,0:0:0:0:
320,192,102512,1,2,0:0:0:0:
448,192,102688,1,8,0:0:0:0:
64,192,102688,1,4,0:0:0:0:
192,192,102688,1,2,0:0:0:0:
320,192,102865,1,2,0:0:0:0:
448,192,103041,1,4,0:0:0:0:
64,192,103041,1,8,0:0:0:0:
320,192,103041,1,2,0:0:0:0:
448,192,103394,5,2,0:0:0:0:
64,192,103394,1,4,0:0:0:0:
192,192,103394,1,0,0:0:0:0:
320,192,103571,1,0,0:0:0:0:
64,192,103571,1,0,0:0:0:0:
192,192,103747,1,0,0:0:0:0:
448,192,103747,1,2,0:0:0:0:
320,192,103924,1,0,0:0:0:0:
192,192,104100,1,0,0:0:0:0:
448,192,104100,1,2,0:0:0:0:
320,192,104277,1,0,0:0:0:0:
192,192,104453,1,0,0:0:0:0:
448,192,104453,1,2,0:0:0:0:
320,192,104629,1,0,0:0:0:0:
192,192,104806,1,0,0:0:0:0:
448,192,104806,1,2,0:0:0:0:
320,192,104982,1,0,0:0:0:0:
192,192,105159,1,0,0:0:0:0:
448,192,105159,1,2,0:0:0:0:
320,192,105335,1,0,0:0:0:0:
192,192,105512,1,0,0:0:0:0:
448,192,105512,1,2,0:0:0:0:
320,192,105688,1,0,0:0:0:0:
448,192,105865,1,2,0:0:0:0:
192,192,105865,1,0,0:0:0:0:
320,192,106041,1,0,0:0:0:0:
192,192,106129,1,0,0:0:0:0:
64,192,106218,1,0,0:0:0:0:
448,192,106218,1,2,0:0:0:0:
320,192,106394,1,0,0:0:0:0:
448,192,106571,1,2,0:0:0:0:
64,192,106571,1,0,0:0:0:0:
320,192,106747,1,0,0:0:0:0:
64,192,106924,1,0,0:0:0:0:
448,192,106924,1,2,0:0:0:0:
320,192,107100,1,0,0:0:0:0:
64,192,107277,1,0,0:0:0:0:
448,192,107277,1,2,0:0:0:0:
320,192,107453,1,0,0:0:0:0:
64,192,107629,1,0,0:0:0:0:
448,192,107629,1,2,0:0:0:0:
320,192,107806,1,0,0:0:0:0:
448,192,107982,1,2,0:0:0:0:
64,192,107982,1,0,0:0:0:0:
320,192,108159,1,0,0:0:0:0:
64,192,108335,1,0,0:0:0:0:
448,192,108335,1,2,0:0:0:0:
320,192,108512,1,0,0:0:0:0:
192,192,108600,1,0,0:0:0:0:
64,192,108688,1,0,0:0:0:0:
448,192,108688,1,2,0:0:0:0:
320,192,108865,1,0,0:0:0:0:
192,192,108953,1,0,0:0:0:0:
64,192,109041,1,2,0:0:0:0:
320,192,109041,1,0,0:0:0:0:
192,192,109218,1,0,0:0:0:0:
64,192,109394,1,2,0:0:0:0:
320,192,109394,1,0,0:0:0:0:
192,192,109571,1,0,0:0:0:0:
64,192,109747,1,2,0:0:0:0:
320,192,109747,1,0,0:0:0:0:
192,192,109924,1,0,0:0:0:0:
64,192,110100,1,2,0:0:0:0:
320,192,110100,1,0,0:0:0:0:
192,192,110277,1,0,0:0:0:0:
64,192,110453,1,2,0:0:0:0:
320,192,110453,1,0,0:0:0:0:
192,192,110629,1,0,0:0:0:0:
64,192,110806,1,2,0:0:0:0:
320,192,110806,1,0,0:0:0:0:
448,192,110806,1,4,0:0:0:0:
192,192,110982,1,0,0:0:0:0:
64,192,111159,1,2,0:0:0:0:
320,192,111159,1,0,0:0:0:0:
192,192,111335,1,0,0:0:0:0:
64,192,111512,1,0,0:0:0:0:
320,192,111512,1,2,0:0:0:0:
192,192,111688,1,0,0:0:0:0:
448,192,111865,1,0,0:0:0:0:
320,192,111865,1,2,0:0:0:0:
320,192,112041,1,2,0:0:0:0:
448,192,112041,1,0,0:0:0:0:
192,192,112218,1,8,0:0:0:0:
64,192,112218,1,2,0:0:0:0:
64,192,112571,1,0,0:0:0:0:
192,192,112571,1,2,0:0:0:0:
64,192,112747,1,0,0:0:0:0:
192,192,112747,1,2,0:0:0:0:
320,192,112924,1,8,0:0:0:0:
448,192,112924,1,2,0:0:0:0:
448,192,113277,1,0,0:0:0:0:
320,192,113277,1,2,0:0:0:0:
320,192,113453,1,2,0:0:0:0:
448,192,113453,1,0,0:0:0:0:
64,192,113629,1,2,0:0:0:0:
192,192,113629,1,8,0:0:0:0:
64,192,113982,1,0,0:0:0:0:
192,192,113982,1,2,0:0:0:0:
192,192,114159,1,2,0:0:0:0:
64,192,114159,1,0,0:0:0:0:
320,192,114335,1,8,0:0:0:0:
448,192,114335,1,2,0:0:0:0:
448,192,114688,1,0,0:0:0:0:
320,192,114688,1,2,0:0:0:0:
448,192,114865,1,0,0:0:0:0:
320,192,114865,1,2,0:0:0:0:
448,192,115041,1,2,0:0:0:0:
192,192,115041,1,8,0:0:0:0:
64,192,115747,1,2,0:0:0:0:
320,192,115747,1,8,0:0:0:0:
64,192,116100,1,0,0:0:0:0:
192,192,116100,1,2,0:0:0:0:
64,192,116277,1,0,0:0:0:0:
192,192,116277,1,2,0:0:0:0:
64,192,116453,1,2,0:0:0:0:
320,192,116453,1,8,0:0:0:0:
320,192,116629,1,0,0:0:0:0:
64,192,116806,1,0,0:0:0:0:
64,192,116982,1,0,0:0:0:0:
192,192,117159,1,8,0:0:0:0:
448,192,117159,1,2,0:0:0:0:
192,192,117335,1,0,0:0:0:0:
448,192,117512,1,0,0:0:0:0:
320,192,117512,1,2,0:0:0:0:
448,192,117688,1,0,0:0:0:0:
320,192,117688,1,2,0:0:0:0:
192,192,117865,1,8,0:0:0:0:
448,192,117865,1,2,0:0:0:0:
192,192,118041,1,0,0:0:0:0:
448,192,118218,1,0,0:0:0:0:
448,192,118394,1,0,0:0:0:0:
320,192,118571,1,8,0:0:0:0:
64,192,118571,1,2,0:0:0:0:
320,192,118747,1,0,0:0:0:0:
64,192,118924,1,0,0:0:0:0:
192,192,118924,1,2,0:0:0:0:
64,192,119100,1,0,0:0:0:0:
192,192,119100,1,2,0:0:0:0:
320,192,119277,1,8,0:0:0:0:
64,192,119277,1,2,0:0:0:0:
320,192,119453,1,0,0:0:0:0:
64,192,119629,1,0,0:0:0:0:
64,192,119806,1,0,0:0:0:0:
192,192,119982,1,8,0:0:0:0:
448,192,119982,1,2,0:0:0:0:
192,192,120159,1,0,0:0:0:0:
448,192,120335,1,0,0:0:0:0:
320,192,120335,1,2,0:0:0:0:
448,192,120512,1,0,0:0:0:0:
320,192,120512,1,2,0:0:0:0:
192,192,120688,1,8,0:0:0:0:
448,192,120688,1,2,0:0:0:0:
192,192,120865,1,0,0:0:0:0:
448,192,121041,1,0,0:0:0:0:
448,192,121218,1,0,0:0:0:0:
64,192,121394,1,2,0:0:0:0:
320,192,121394,1,8,0:0:0:0:
320,192,121571,1,0,0:0:0:0:
64,192,121747,1,0,0:0:0:0:
192,192,121747,1,2,0:0:0:0:
192,192,121924,1,2,0:0:0:0:
64,192,121924,1,0,0:0:0:0:
64,192,122100,1,2,0:0:0:0:
320,192,122100,1,8,0:0:0:0:
320,192,122277,1,0,0:0:0:0:
64,192,122453,1,0,0:0:0:0:
64,192,122629,1,0,0:0:0:0:
192,192,122806,1,8,0:0:0:0:
448,192,122806,1,2,0:0:0:0:
192,192,122982,1,0,0:0:0:0:
320,192,123159,1,2,0:0:0:0:
448,192,123159,1,0,0:0:0:0:
320,192,123335,1,2,0:0:0:0:
448,192,123335,1,0,0:0:0:0:
192,192,123512,1,8,0:0:0:0:
448,192,123512,1,2,0:0:0:0:
192,192,123688,1,0,0:0:0:0:
448,192,123865,1,0,0:0:0:0:
448,192,124041,1,0,0:0:0:0:
64,192,124218,1,2,0:0:0:0:
320,192,124218,1,8,0:0:0:0:
320,192,124394,1,0,0:0:0:0:
64,192,124571,1,2,0:0:0:0:
192,192,124571,1,0,0:0:0:0:
64,192,124747,1,2,0:0:0:0:
192,192,124747,1,0,0:0:0:0:
320,192,124924,1,0,0:0:0:0:
448,192,124924,1,2,0:0:0:0:
448,192,125100,1,2,0:0:0:0:
320,192,125100,1,0,0:0:0:0:
192,192,125277,1,0,0:0:0:0:
64,192,125277,1,2,0:0:0:0:
64,192,125453,1,2,0:0:0:0:
192,192,125453,1,0,0:0:0:0:
320,192,125629,1,8,0:0:0:0:
448,192,125629,1,2,0:0:0:0:
192,192,125806,1,0,0:0:0:0:
448,192,125982,1,4,0:0:0:0:
64,192,125982,1,2,0:0:0:0:
320,192,125982,1,0,0:0:0:0:
64,192,126159,128,0,126335:0:0:0:0:
192,192,126335,1,2,0:0:0:0:
320,192,126335,1,8,0:0:0:0:
448,192,126335,1,0,0:0:0:0:
320,192,126512,128,0,126688:0:0:0:0:
64,192,126688,1,0,0:0:0:0:
192,192,126688,1,2,0:0:0:0:
192,192,126865,128,0,127041:0:0:0:0:
320,192,127041,1,8,0:0:0:0:
448,192,127041,1,2,0:0:0:0:
64,192,127041,1,0,0:0:0:0:
448,192,127218,128,0,127571:0:0:0:0:
64,192,127394,1,0,0:0:0:0:
192,192,127394,1,2,0:0:0:0:
320,192,127571,1,0,0:0:0:0:
192,192,127747,1,2,0:0:0:0:
448,192,127747,1,0,0:0:0:0:
64,192,127747,128,8,127924:0:0:0:0:
448,192,127924,1,0,0:0:0:0:
192,192,128100,1,0,0:0:0:0:
320,192,128100,1,2,0:0:0:0:
192,192,128277,128,0,128453:0:0:0:0:
64,192,128453,1,0,0:0:0:0:
320,192,128453,1,8,0:0:0:0:
448,192,128453,1,2,0:0:0:0:
320,192,128629,128,0,128806:0:0:0:0:
64,192,128806,1,2,0:0:0:0:
192,192,128806,1,0,0:0:0:0:
320,192,128982,1,0,0:0:0:0:
64,192,129159,1,8,0:0:0:0:
320,192,129159,1,2,0:0:0:0:
448,192,129159,128,0,129335:0:0:0:0:
192,192,129335,1,0,0:0:0:0:
448,192,129512,1,0,0:0:0:0:
64,192,129512,1,2,0:0:0:0:
64,192,129688,128,0,129865:0:0:0:0:
192,192,129865,1,8,0:0:0:0:
320,192,129865,1,0,0:0:0:0:
448,192,129865,1,2,0:0:0:0:
448,192,130041,128,0,130394:0:0:0:0:
64,192,130218,1,0,0:0:0:0:
192,192,130218,1,2,0:0:0:0:
320,192,130394,1,0,0:0:0:0:
64,192,130571,1,0,0:0:0:0:
192,192,130571,1,2,0:0:0:0:
448,192,130571,128,0,130747:0:0:0:0:
320,192,130747,1,0,0:0:0:0:
64,192,130924,1,0,0:0:0:0:
192,192,130924,1,2,0:0:0:0:
192,192,131100,128,0,131277:0:0:0:0:
320,192,131277,1,8,0:0:0:0:
64,192,131277,1,2,0:0:0:0:
448,192,131277,1,0,0:0:0:0:
320,192,131453,128,0,131629:0:0:0:0:
448,192,131629,1,2,0:0:0:0:
64,192,131629,1,0,0:0:0:0:
448,192,131806,128,0,131982:0:0:0:0:
320,192,131982,1,2,0:0:0:0:
192,192,131982,1,8,0:0:0:0:
64,192,131982,128,0,132159:0:0:0:0:
192,192,132159,1,0,0:0:0:0:
448,192,132335,1,0,0:0:0:0:
320,192,132335,1,2,0:0:0:0:
320,192,132512,128,0,132688:0:0:0:0:
64,192,132688,1,2,0:0:0:0:
192,192,132688,1,8,0:0:0:0:
448,192,132688,1,0,0:0:0:0:
64,192,132865,128,0,133218:0:0:0:0:
320,192,133041,1,2,0:0:0:0:
448,192,133041,1,0,0:0:0:0:
192,192,133218,1,0,0:0:0:0:
64,192,133394,1,0,0:0:0:0:
320,192,133394,1,2,0:0:0:0:
448,192,133394,1,8,0:0:0:0:
320,192,133571,128,0,133747:0:0:0:0:
64,192,133747,1,0,0:0:0:0:
192,192,133747,1,2,0:0:0:0:
64,192,133924,128,0,134100:0:0:0:0:
192,192,134100,1,0,0:0:0:0:
320,192,134100,1,8,0:0:0:0:
448,192,134100,1,2,0:0:0:0:
192,192,134277,128,0,134453:0:0:0:0:
448,192,134453,128,0,134629:0:0:0:0:
64,192,134453,1,0,0:0:0:0:
320,192,134453,1,2,0:0:0:0:
448,192,134806,128,8,134982:0:0:0:0:
64,192,134806,1,0,0:0:0:0:
320,192,134806,1,2,0:0:0:0:
448,192,135159,128,0,135335:0:0:0:0:
64,192,135159,1,0,0:0:0:0:
320,192,135159,1,2,0:0:0:0:
64,192,135512,1,0,0:0:0:0:
448,192,135512,128,8,135688:0:0:0:0:
320,192,135512,1,2,0:0:0:0:
64,192,135865,5,0,0:0:0:0:
192,192,135865,1,2,0:0:0:0:
320,192,136041,1,0,0:0:0:0:
320,192,136218,1,8,0:0:0:0:
64,192,136218,1,2,0:0:0:0:
64,192,136394,1,0,0:0:0:0:
192,192,136571,1,2,0:0:0:0:
448,192,136571,1,0,0:0:0:0:
448,192,136747,1,0,0:0:0:0:
192,192,136924,1,8,0:0:0:0:
320,192,136924,1,2,0:0:0:0:
192,192,137100,1,0,0:0:0:0:
64,192,137277,1,2,0:0:0:0:
448,192,137277,1,0,0:0:0:0:
320,192,137277,1,4,0:0:0:0:
320,192,137453,1,0,0:0:0:0:
64,192,137629,1,8,0:0:0:0:
448,192,137629,1,2,0:0:0:0:
192,192,137806,1,0,0:0:0:0:
320,192,137982,1,2,0:0:0:0:
448,192,137982,1,0,0:0:0:0:
64,192,138159,1,0,0:0:0:0:
192,192,138335,1,2,0:0:0:0:
320,192,138335,1,8,0:0:0:0:
448,192,138512,1,0,0:0:0:0:
192,192,138688,1,0,0:0:0:0:
64,192,138688,1,2,0:0:0:0:
320,192,138865,1,0,0:0:0:0:
320,192,139041,1,2,0:0:0:0:
64,192,139041,1,8,0:0:0:0:
64,192,139218,1,0,0:0:0:0:
448,192,139394,1,0,0:0:0:0:
192,192,139394,1,2,0:0:0:0:
448,192,139571,1,0,0:0:0:0:
192,192,139747,1,8,0:0:0:0:
64,192,139747,1,2,0:0:0:0:
192,192,139924,1,0,0:0:0:0:
448,192,140100,1,0,0:0:0:0:
320,192,140100,1,2,0:0:0:0:
448,192,140277,1,0,0:0:0:0:
192,192,140453,1,2,0:0:0:0:
64,192,140453,1,8,0:0:0:0:
64,192,140629,128,0,141159:0:0:0:0:
320,192,140806,1,2,0:0:0:0:
448,192,140806,1,0,0:0:0:0:
192,192,140982,1,0,0:0:0:0:
448,192,141159,1,8,0:0:0:0:
192,192,141159,1,2,0:0:0:0:
320,192,141335,1,0,0:0:0:0:
64,192,141512,1,0,0:0:0:0:
448,192,141512,1,2,0:0:0:0:
192,192,141688,1,0,0:0:0:0:
192,192,141865,1,2,0:0:0:0:
448,192,141865,1,8,0:0:0:0:
448,192,142041,1,0,0:0:0:0:
64,192,142218,1,0,0:0:0:0:
320,192,142218,1,2,0:0:0:0:
64,192,142394,1,0,0:0:0:0:
320,192,142571,1,8,0:0:0:0:
448,192,142571,1,2,0:0:0:0:
320,192,142747,1,0,0:0:0:0:
448,192,142924,1,2,0:0:0:0:
64,192,142924,1,0,0:0:0:0:
448,192,143100,1,0,0:0:0:0:
64,192,143277,1,2,0:0:0:0:
192,192,143277,1,8,0:0:0:0:
448,192,143453,128,0,143982:0:0:0:0:
320,192,143629,1,0,0:0:0:0:
192,192,143629,1,2,0:0:0:0:
64,192,143806,1,0,0:0:0:0:
64,192,143982,1,8,0:0:0:0:
320,192,143982,1,2,0:0:0:0:
192,192,144159,1,0,0:0:0:0:
64,192,144335,1,0,0:0:0:0:
448,192,144335,1,2,0:0:0:0:
320,192,144512,1,0,0:0:0:0:
64,192,144688,1,8,0:0:0:0:
320,192,144688,1,2,0:0:0:0:
64,192,144865,1,0,0:0:0:0:
448,192,145041,1,0,0:0:0:0:
192,192,145041,1,2,0:0:0:0:
448,192,145218,1,0,0:0:0:0:
64,192,145394,1,2,0:0:0:0:
192,192,145394,1,8,0:0:0:0:
192,192,145571,1,0,0:0:0:0:
448,192,145747,1,2,0:0:0:0:
64,192,145747,1,4,0:0:0:0:
320,192,145747,1,0,0:0:0:0:
192,192,145924,1,0,0:0:0:0:
320,192,146100,1,0,0:0:0:0:
192,192,146277,1,0,0:0:0:0:
320,192,146453,1,0,0:0:0:0:
192,192,146629,1,0,0:0:0:0:
320,192,146806,1,0,0:0:0:0:
192,192,146982,1,0,0:0:0:0:
448,192,147159,1,4,0:0:0:0:
320,192,147159,1,0,0:0:0:0:
64,192,147159,1,2,0:0:0:0:
192,192,147335,1,0,0:0:0:0:
320,192,147512,1,0,0:0:0:0:
448,192,147688,1,0,0:0:0:0:
192,192,147865,1,0,0:0:0:0:
320,192,148041,1,0,0:0:0:0:
64,192,148218,1,0,0:0:0:0:
192,192,148394,1,0,0:0:0:0:
320,192,148571,1,2,0:0:0:0:
448,192,148571,128,0,148924:0:0:0:0:
64,192,148571,1,4,0:0:0:0:
64,192,148747,1,0,0:0:0:0:
192,192,148924,128,8,149277:0:0:0:0:
320,192,148924,1,2,0:0:0:0:
64,192,149100,1,0,0:0:0:0:
320,192,149277,128,0,149453:0:0:0:0:
448,192,149277,1,2,0:0:0:0:
64,192,149453,128,0,149806:0:0:0:0:
320,192,149629,1,2,0:0:0:0:
448,192,149629,1,8,0:0:0:0:
192,192,149806,128,0,151041:0:0:0:0:
64,192,149982,1,0,0:0:0:0:
320,192,149982,1,2,0:0:0:0:
448,192,150159,1,0,0:0:0:0:
320,192,150335,1,2,0:0:0:0:
448,192,150335,1,8,0:0:0:0:
64,192,150512,1,0,0:0:0:0:
64,192,150688,1,2,0:0:0:0:
448,192,150688,1,0,0:0:0:0:
320,192,150865,1,0,0:0:0:0:
320,192,151041,1,2,0:0:0:0:
64,192,151041,1,8,0:0:0:0:
192,192,151218,1,0,0:0:0:0:
448,192,151394,128,0,151747:0:0:0:0:
320,192,151394,1,2,0:0:0:0:
320,192,151571,1,0,0:0:0:0:
192,192,151747,1,2,0:0:0:0:
64,192,151747,128,8,152100:0:0:0:0:
448,192,151924,1,0,0:0:0:0:
448,192,152100,128,0,152277:0:0:0:0:
320,192,152100,1,2,0:0:0:0:
192,192,152277,128,0,152629:0:0:0:0:
448,192,152453,1,8,0:0:0:0:
320,192,152453,1,2,0:0:0:0:
64,192,152629,128,0,153865:0:0:0:0:
192,192,152806,1,2,0:0:0:0:
320,192,152806,1,0,0:0:0:0:
448,192,152982,1,0,0:0:0:0:
448,192,153159,1,8,0:0:0:0:
320,192,153159,1,2,0:0:0:0:
192,192,153335,1,0,0:0:0:0:
448,192,153512,1,0,0:0:0:0:
192,192,153512,1,2,0:0:0:0:
320,192,153688,1,0,0:0:0:0:
448,192,153865,1,8,0:0:0:0:
320,192,153865,1,2,0:0:0:0:
192,192,154041,1,0,0:0:0:0:
64,192,154218,128,2,154394:0:0:0:0:
320,192,154218,1,0,0:0:0:0:
320,192,154394,128,0,154747:0:0:0:0:
64,192,154571,1,8,0:0:0:0:
192,192,154571,1,2,0:0:0:0:
448,192,154747,128,0,155629:0:0:0:0:
320,192,154924,1,2,0:0:0:0:
64,192,154924,1,0,0:0:0:0:
192,192,155100,1,0,0:0:0:0:
64,192,155277,1,8,0:0:0:0:
320,192,155277,1,2,0:0:0:0:
192,192,155453,1,0,0:0:0:0:
64,192,155629,1,2,0:0:0:0:
320,192,155629,1,0,0:0:0:0:
64,192,155806,128,0,155982:0:0:0:0:
192,192,155982,128,2,156159:0:0:0:0:
448,192,155982,1,8,0:0:0:0:
320,192,156159,128,0,156512:0:0:0:0:
64,192,156335,1,0,0:0:0:0:
448,192,156335,1,2,0:0:0:0:
64,192,156512,1,0,0:0:0:0:
320,192,156688,1,8,0:0:0:0:
192,192,156688,1,2,0:0:0:0:
448,192,156865,1,0,0:0:0:0:
64,192,157041,1,0,0:0:0:0:
192,192,157041,1,2,0:0:0:0:
448,192,157041,1,4,0:0:0:0:
320,192,157218,1,0,0:0:0:0:
192,192,157394,1,0,0:0:0:0:
320,192,157571,1,0,0:0:0:0:
192,192,157747,1,0,0:0:0:0:
320,192,157924,1,0,0:0:0:0:
192,192,158100,1,0,0:0:0:0:
320,192,158277,1,0,0:0:0:0:
64,192,158453,1,4,0:0:0:0:
192,192,158453,1,2,0:0:0:0:
448,192,158453,1,0,0:0:0:0:
320,192,158629,1,0,0:0:0:0:
192,192,158806,1,0,0:0:0:0:
320,192,158982,1,0,0:0:0:0:
192,192,159159,1,0,0:0:0:0:
448,192,159159,128,0,159512:0:0:0:0:
320,192,159335,1,0,0:0:0:0:
192,192,159512,1,0,0:0:0:0:
64,192,159512,128,0,159688:0:0:0:0:
320,192,159688,1,0,0:0:0:0:
64,192,159865,1,4,0:0:0:0:
448,192,159865,1,0,0:0:0:0:
192,192,159865,1,2,0:0:0:0:
320,192,159953,1,0,0:0:0:0:
192,192,160041,1,0,0:0:0:0:
320,192,160129,1,0,0:0:0:0:
448,192,160218,1,2,0:0:0:0:
192,192,160218,1,8,0:0:0:0:
64,192,160306,1,0,0:0:0:0:
320,192,160394,1,0,0:0:0:0:
192,192,160482,1,0,0:0:0:0:
64,192,160571,1,0,0:0:0:0:
320,192,160571,1,2,0:0:0:0:
192,192,160659,1,0,0:0:0:0:
320,192,160747,1,0,0:0:0:0:
448,192,160835,1,0,0:0:0:0:
192,192,160924,1,8,0:0:0:0:
64,192,160924,1,2,0:0:0:0:
320,192,161012,1,0,0:0:0:0:
192,192,161100,1,0,0:0:0:0:
320,192,161188,1,0,0:0:0:0:
448,192,161277,1,0,0:0:0:0:
192,192,161277,1,2,0:0:0:0:
64,192,161365,1,0,0:0:0:0:
320,192,161453,1,0,0:0:0:0:
192,192,161541,1,0,0:0:0:0:
448,192,161629,1,2,0:0:0:0:
320,192,161629,1,8,0:0:0:0:
192,192,161718,1,0,0:0:0:0:
320,192,161806,1,0,0:0:0:0:
448,192,161894,1,0,0:0:0:0:
64,192,161982,1,0,0:0:0:0:
192,192,161982,1,2,0:0:0:0:
320,192,162071,1,0,0:0:0:0:
192,192,162159,1,0,0:0:0:0:
320,192,162247,1,0,0:0:0:0:
448,192,162335,1,2,0:0:0:0:
192,192,162335,1,8,0:0:0:0:
64,192,162424,1,0,0:0:0:0:
320,192,162512,1,0,0:0:0:0:
192,192,162600,1,0,0:0:0:0:
448,192,162688,1,2,0:0:0:0:
64,192,162688,1,0,0:0:0:0:
320,192,162777,1,0,0:0:0:0:
64,192,162865,1,0,0:0:0:0:
320,192,162953,1,0,0:0:0:0:
448,192,163041,1,2,0:0:0:0:
64,192,163041,1,8,0:0:0:0:
192,192,163129,1,0,0:0:0:0:
320,192,163218,1,0,0:0:0:0:
64,192,163306,1,0,0:0:0:0:
320,192,163394,1,2,0:0:0:0:
192,192,163394,1,0,0:0:0:0:
64,192,163482,1,0,0:0:0:0:
320,192,163571,1,0,0:0:0:0:
448,192,163659,1,0,0:0:0:0:
192,192,163747,1,8,0:0:0:0:
64,192,163747,1,2,0:0:0:0:
320,192,163835,1,0,0:0:0:0:
64,192,163924,1,0,0:0:0:0:
320,192,164012,1,0,0:0:0:0:
64,192,164100,1,0,0:0:0:0:
448,192,164100,1,2,0:0:0:0:
192,192,164188,1,0,0:0:0:0:
320,192,164277,1,0,0:0:0:0:
64,192,164365,1,0,0:0:0:0:
192,192,164453,1,8,0:0:0:0:
320,192,164453,1,2,0:0:0:0:
64,192,164541,1,0,0:0:0:0:
320,192,164629,1,0,0:0:0:0:
448,192,164718,1,0,0:0:0:0:
64,192,164806,1,0,0:0:0:0:
192,192,164806,1,2,0:0:0:0:
320,192,164894,1,0,0:0:0:0:
64,192,164982,1,0,0:0:0:0:
320,192,165071,1,0,0:0:0:0:
448,192,165159,1,8,0:0:0:0:
64,192,165159,1,2,0:0:0:0:
192,192,165247,1,0,0:0:0:0:
320,192,165335,1,0,0:0:0:0:
448,192,165424,1,0,0:0:0:0:
64,192,165512,1,0,0:0:0:0:
192,192,165512,1,2,0:0:0:0:
320,192,165600,1,0,0:0:0:0:
192,192,165688,1,0,0:0:0:0:
320,192,165777,1,0,0:0:0:0:
448,192,165865,1,2,0:0:0:0:
192,192,165865,1,8,0:0:0:0:
64,192,165953,1,0,0:0:0:0:
320,192,166041,1,0,0:0:0:0:
192,192,166129,1,0,0:0:0:0:
320,192,166218,1,2,0:0:0:0:
448,192,166218,1,0,0:0:0:0:
192,192,166306,1,0,0:0:0:0:
320,192,166394,1,0,0:0:0:0:
448,192,166482,1,0,0:0:0:0:
64,192,166571,1,2,0:0:0:0:
192,192,166571,1,8,0:0:0:0:
320,192,166659,1,0,0:0:0:0:
192,192,166747,1,0,0:0:0:0:
320,192,166835,1,0,0:0:0:0:
192,192,166924,1,2,0:0:0:0:
448,192,166924,1,0,0:0:0:0:
64,192,167012,1,0,0:0:0:0:
320,192,167100,1,0,0:0:0:0:
192,192,167188,1,0,0:0:0:0:
320,192,167277,1,8,0:0:0:0:
64,192,167277,1,2,0:0:0:0:
192,192,167365,1,0,0:0:0:0:
320,192,167453,1,0,0:0:0:0:
448,192,167541,1,0,0:0:0:0:
64,192,167629,1,0,0:0:0:0:
192,192,167629,1,2,0:0:0:0:
320,192,167718,1,0,0:0:0:0:
192,192,167806,1,0,0:0:0:0:
320,192,167894,1,0,0:0:0:0:
192,192,167982,1,8,0:0:0:0:
448,192,167982,1,2,0:0:0:0:
64,192,168071,1,0,0:0:0:0:
448,192,168159,1,0,0:0:0:0:
320,192,168247,1,0,0:0:0:0:
64,192,168335,1,0,0:0:0:0:
192,192,168335,1,2,0:0:0:0:
448,192,168424,1,0,0:0:0:0:
192,192,168512,1,0,0:0:0:0:
448,192,168600,1,0,0:0:0:0:
192,192,168688,1,2,0:0:0:0:
320,192,168688,1,8,0:0:0:0:
64,192,168777,1,0,0:0:0:0:
448,192,168865,1,0,0:0:0:0:
192,192,168953,1,0,0:0:0:0:
448,192,169041,1,0,0:0:0:0:
320,192,169041,1,2,0:0:0:0:
192,192,169129,1,0,0:0:0:0:
448,192,169218,1,0,0:0:0:0:
320,192,169306,1,0,0:0:0:0:
64,192,169394,1,2,0:0:0:0:
192,192,169394,1,8,0:0:0:0:
320,192,169482,1,0,0:0:0:0:
64,192,169571,1,0,0:0:0:0:
192,192,169659,1,0,0:0:0:0:
320,192,169747,1,0,0:0:0:0:
64,192,169747,1,2,0:0:0:0:
448,192,169835,1,0,0:0:0:0:
320,192,169924,1,0,0:0:0:0:
192,192,170012,1,0,0:0:0:0:
448,192,170100,1,2,0:0:0:0:
320,192,170100,1,8,0:0:0:0:
64,192,170188,1,0,0:0:0:0:
192,192,170277,1,0,0:0:0:0:
448,192,170365,1,0,0:0:0:0:
64,192,170453,128,0,170806:0:0:0:0:
320,192,170453,1,2,0:0:0:0:
192,192,170541,1,0,0:0:0:0:
448,192,170629,1,0,0:0:0:0:
320,192,170718,1,0,0:0:0:0:
448,192,170806,128,2,170982:0:0:0:0:
192,192,170806,1,8,0:0:0:0:
64,192,170894,1,0,0:0:0:0:
192,192,170982,1,0,0:0:0:0:
320,192,171071,1,0,0:0:0:0:
64,192,171159,1,4,0:0:0:0:
192,192,171159,1,0,0:0:0:0:
448,192,171159,1,2,0:0:0:0:
320,192,171247,1,0,0:0:0:0:
64,192,171335,1,0,0:0:0:0:
320,192,171424,1,0,0:0:0:0:
64,192,171512,1,2,0:0:0:0:
448,192,171512,1,8,0:0:0:0:
192,192,171600,1,0,0:0:0:0:
320,192,171688,1,0,0:0:0:0:
64,192,171777,1,0,0:0:0:0:
320,192,171865,1,2,0:0:0:0:
448,192,171865,1,0,0:0:0:0:
64,192,171953,1,0,0:0:0:0:
320,192,172041,1,0,0:0:0:0:
448,192,172129,1,0,0:0:0:0:
64,192,172218,1,2,0:0:0:0:
192,192,172218,1,8,0:0:0:0:
320,192,172306,1,0,0:0:0:0:
64,192,172394,1,0,0:0:0:0:
320,192,172482,1,0,0:0:0:0:
192,192,172571,1,2,0:0:0:0:
64,192,172571,1,0,0:0:0:0:
448,192,172659,1,0,0:0:0:0:
320,192,172747,1,0,0:0:0:0:
64,192,172835,1,0,0:0:0:0:
320,192,172924,1,8,0:0:0:0:
448,192,172924,1,2,0:0:0:0:
64,192,173012,1,0,0:0:0:0:
320,192,173100,1,0,0:0:0:0:
192,192,173188,1,0,0:0:0:0:
64,192,173277,1,2,0:0:0:0:
448,192,173277,128,0,173629:0:0:0:0:
320,192,173365,1,0,0:0:0:0:
64,192,173453,1,0,0:0:0:0:
192,192,173541,1,0,0:0:0:0:
64,192,173629,128,2,173982:0:0:0:0:
320,192,173629,1,8,0:0:0:0:
448,192,173718,1,0,0:0:0:0:
320,192,173806,1,0,0:0:0:0:
192,192,173894,1,0,0:0:0:0:
320,192,173982,1,2,0:0:0:0:
448,192,173982,1,0,0:0:0:0:
64,192,174071,1,0,0:0:0:0:
448,192,174159,1,0,0:0:0:0:
64,192,174247,1,0,0:0:0:0:
448,192,174335,1,2,0:0:0:0:
192,192,174335,1,8,0:0:0:0:
320,192,174424,1,0,0:0:0:0:
64,192,174512,1,0,0:0:0:0:
448,192,174600,1,0,0:0:0:0:
64,192,174688,1,0,0:0:0:0:
192,192,174688,1,2,0:0:0:0:
448,192,174777,1,0,0:0:0:0:
64,192,174865,1,0,0:0:0:0:
192,192,174953,1,0,0:0:0:0:
320,192,175041,1,8,0:0:0:0:
448,192,175041,1,2,0:0:0:0:
64,192,175129,1,0,0:0:0:0:
448,192,175218,1,0,0:0:0:0:
64,192,175306,1,0,0:0:0:0:
448,192,175394,1,0,0:0:0:0:
192,192,175394,1,2,0:0:0:0:
320,192,175482,1,0,0:0:0:0:
64,192,175571,1,0,0:0:0:0:
448,192,175659,1,0,0:0:0:0:
64,192,175747,1,2,0:0:0:0:
320,192,175747,1,8,0:0:0:0:
448,192,175835,1,0,0:0:0:0:
64,192,175924,1,0,0:0:0:0:
192,192,176012,1,0,0:0:0:0:
320,192,176100,1,2,0:0:0:0:
448,192,176100,1,0,0:0:0:0:
64,192,176188,1,0,0:0:0:0:
448,192,176277,1,0,0:0:0:0:
64,192,176365,1,0,0:0:0:0:
448,192,176453,1,2,0:0:0:0:
192,192,176453,1,8,0:0:0:0:
320,192,176541,1,0,0:0:0:0:
64,192,176629,1,0,0:0:0:0:
192,192,176718,1,0,0:0:0:0:
320,192,176806,1,2,0:0:0:0:
448,192,176806,1,0,0:0:0:0:
192,192,176894,1,0,0:0:0:0:
448,192,176982,1,0,0:0:0:0:
192,192,177071,1,0,0:0:0:0:
448,192,177159,1,2,0:0:0:0:
64,192,177159,1,8,0:0:0:0:
320,192,177247,1,0,0:0:0:0:
192,192,177335,1,0,0:0:0:0:
448,192,177424,1,0,0:0:0:0:
192,192,177512,1,0,0:0:0:0:
320,192,177512,1,2,0:0:0:0:
448,192,177600,1,0,0:0:0:0:
192,192,177688,1,0,0:0:0:0:
64,192,177777,1,0,0:0:0:0:
320,192,177865,1,8,0:0:0:0:
448,192,177865,1,2,0:0:0:0:
192,192,177953,1,0,0:0:0:0:
448,192,178041,1,0,0:0:0:0:
192,192,178129,1,0,0:0:0:0:
448,192,178218,1,2,0:0:0:0:
64,192,178218,1,0,0:0:0:0:
320,192,178306,1,0,0:0:0:0:
192,192,178394,1,0,0:0:0:0:
448,192,178482,1,0,0:0:0:0:
192,192,178571,1,8,0:0:0:0:
64,192,178571,1,2,0:0:0:0:
448,192,178659,1,0,0:0:0:0:
320,192,178747,1,0,0:0:0:0:
192,192,178835,1,0,0:0:0:0:
64,192,178924,1,4,0:0:0:0:
448,192,178924,1,2,0:0:0:0:
320,192,178924,1,0,0:0:0:0:
192,192,179100,1,0,0:0:0:0:
320,192,179188,1,0,0:0:0:0:
64,192,179277,1,2,0:0:0:0:
192,192,179277,1,0,0:0:0:0:
448,192,179277,1,4,0:0:0:0:
448,192,179629,1,2,0:0:0:0:
320,192,179629,1,0,0:0:0:0:
64,192,179629,1,4,0:0:0:0:
192,192,179718,1,0,0:0:0:0:
320,192,179806,1,0,0:0:0:0:
64,192,179894,1,0,0:0:0:0:
192,192,179982,1,2,0:0:0:0:
448,192,179982,1,4,0:0:0:0:
320,192,179982,1,8,0:0:0:0:
192,192,180335,1,2,0:0:0:0:
64,192,180335,1,0,0:0:0:0:
448,192,180512,1,0,0:0:0:0:
320,192,180512,1,2,0:0:0:0:
192,192,180688,1,2,0:0:0:0:
64,192,180688,1,8,0:0:0:0:
448,192,180688,1,0,0:0:0:0:
320,192,180865,1,0,0:0:0:0:
320,192,181041,1,2,0:0:0:0:
448,192,181041,1,0,0:0:0:0:
64,192,181041,1,4,0:0:0:0:
64,192,181394,1,0,0:0:0:0:
192,192,181394,1,2,0:0:0:0:
448,192,181394,1,4,0:0:0:0:
320,192,181747,128,0,182100:0:0:0:0:
64,192,182453,1,2,0:0:0:0:
192,192,182453,1,0,0:0:0:0:
448,192,182453,128,4,182806:0:0:0:0:
192,192,182806,128,2,182982:0:0:0:0:
64,192,182806,1,0,0:0:0:0:
320,192,182806,1,8,0:0:0:0:
64,192,182982,128,0,183335:0:0:0:0:
320,192,183159,1,2,0:0:0:0:
448,192,183159,1,0,0:0:0:0:
320,192,183335,128,0,183865:0:0:0:0:
64,192,183512,1,2,0:0:0:0:
192,192,183512,1,8,0:0:0:0:
448,192,183512,1,0,0:0:0:0:
192,192,183865,128,2,184394:0:0:0:0:
64,192,183865,1,0,0:0:0:0:
320,192,184218,1,2,0:0:0:0:
448,192,184218,1,8,0:0:0:0:
64,192,184218,1,0,0:0:0:0:
448,192,184394,128,0,185100:0:0:0:0:
192,192,184571,1,2,0:0:0:0:
64,192,184571,128,0,184924:0:0:0:0:
192,192,184924,1,8,0:0:0:0:
320,192,184924,128,2,185100:0:0:0:0:
192,192,185100,128,0,185277:0:0:0:0:
64,192,185277,128,0,185629:0:0:0:0:
320,192,185277,1,2,0:0:0:0:
448,192,185277,128,0,185629:0:0:0:0:
320,192,185629,128,8,185806:0:0:0:0:
192,192,185629,1,2,0:0:0:0:
192,192,185806,128,0,186159:0:0:0:0:
64,192,185806,128,0,186688:0:0:0:0:
320,192,185982,1,2,0:0:0:0:
448,192,185982,1,0,0:0:0:0:
448,192,186159,128,0,186688:0:0:0:0:
320,192,186335,1,2,0:0:0:0:
192,192,186335,1,8,0:0:0:0:
320,192,186688,128,2,187218:0:0:0:0:
192,192,186688,1,0,0:0:0:0:
64,192,187041,1,8,0:0:0:0:
192,192,187041,1,2,0:0:0:0:
448,192,187041,1,0,0:0:0:0:
64,192,187218,128,0,187747:0:0:0:0:
192,192,187394,1,2,0:0:0:0:
448,192,187394,128,0,187747:0:0:0:0:
320,192,187747,128,2,187924:0:0:0:0:
192,192,187747,1,8,0:0:0:0:
192,192,187924,128,0,188100:0:0:0:0:
320,192,188100,128,2,188453:0:0:0:0:
448,192,188100,1,0,0:0:0:0:
64,192,188100,128,0,188453:0:0:0:0:
448,192,188453,128,8,188629:0:0:0:0:
192,192,188453,1,2,0:0:0:0:
192,192,188629,128,0,188982:0:0:0:0:
64,192,188629,128,0,189512:0:0:0:0:
320,192,188806,1,2,0:0:0:0:
448,192,188806,1,0,0:0:0:0:
448,192,188982,128,0,189512:0:0:0:0:
320,192,189159,1,8,0:0:0:0:
192,192,189159,1,2,0:0:0:0:
192,192,189512,128,0,190218:0:0:0:0:
320,192,189512,1,2,0:0:0:0:
320,192,189865,1,2,0:0:0:0:
64,192,189865,1,8,0:0:0:0:
448,192,189865,1,0,0:0:0:0:
448,192,190218,128,2,190747:0:0:0:0:
64,192,190218,1,0,0:0:0:0:
64,192,190394,128,0,190924:0:0:0:0:
192,192,190571,1,8,0:0:0:0:
320,192,190571,1,2,0:0:0:0:
448,192,190924,1,4,0:0:0:0:
320,192,190924,1,2,0:0:0:0:
192,192,191012,1,0,0:0:0:0:
448,192,191100,1,0,0:0:0:0:
192,192,191188,1,0,0:0:0:0:
64,192,191277,1,0,0:0:0:0:
448,192,191453,1,4,0:0:0:0:
320,192,191453,1,2,0:0:0:0:
192,192,191541,1,0,0:0:0:0:
448,192,191629,1,0,0:0:0:0:
192,192,191718,1,0,0:0:0:0:
64,192,191806,1,0,0:0:0:0:
320,192,191982,1,2,0:0:0:0:
448,192,191982,1,4,0:0:0:0:
192,192,192071,1,0,0:0:0:0:
448,192,192159,1,0,0:0:0:0:
192,192,192247,1,0,0:0:0:0:
64,192,192335,1,0,0:0:0:0:
448,192,192512,1,4,0:0:0:0:
320,192,192512,1,2,0:0:0:0:
192,192,192600,1,0,0:0:0:0:
448,192,192688,1,0,0:0:0:0:
192,192,192777,1,0,0:0:0:0:
64,192,192865,1,0,0:0:0:0:
192,192,193041,1,0,0:0:0:0:
448,192,193041,1,4,0:0:0:0:
320,192,193041,1,2,0:0:0:0:
64,192,193129,1,0,0:0:0:0:
320,192,193218,1,0,0:0:0:0:
448,192,193306,1,0,0:0:0:0:
64,192,193394,1,4,0:0:0:0:
320,192,193394,1,0,0:0:0:0:
192,192,193394,1,2,0:0:0:0:
192,192,193747,128,0,194100:0:0:0:0:
64,192,193747,1,4,0:0:0:0:
448,192,193747,1,2,0:0:0:0:
320,192,194100,128,8,194277:0:0:0:0:
448,192,194100,1,2,0:0:0:0:
64,192,194100,1,0,0:0:0:0:
64,192,194277,128,0,194629:0:0:0:0:
320,192,194453,1,0,0:0:0:0:
192,192,194453,1,2,0:0:0:0:
192,192,194629,128,0,195159:0:0:0:0:
64,192,194806,1,0,0:0:0:0:
320,192,194806,1,2,0:0:0:0:
448,192,194806,1,8,0:0:0:0:
448,192,195159,128,0,195688:0:0:0:0:
320,192,195159,1,2,0:0:0:0:
64,192,195512,1,0,0:0:0:0:
192,192,195512,1,2,0:0:0:0:
320,192,195512,1,8,0:0:0:0:
192,192,195688,128,0,196394:0:0:0:0:
64,192,195865,1,2,0:0:0:0:
320,192,195865,128,0,196218:0:0:0:0:
448,192,196218,1,2,0:0:0:0:
64,192,196218,128,8,196394:0:0:0:0:
448,192,196394,128,0,196571:0:0:0:0:
192,192,196571,128,0,196924:0:0:0:0:
64,192,196571,1,2,0:0:0:0:
320,192,196571,128,0,196924:0:0:0:0:
64,192,196924,128,2,197100:0:0:0:0:
448,192,196924,1,8,0:0:0:0:
320,192,197100,128,0,197453:0:0:0:0:
448,192,197100,128,0,197982:0:0:0:0:
64,192,197277,1,2,0:0:0:0:
192,192,197277,1,0,0:0:0:0:
64,192,197453,128,0,197982:0:0:0:0:
192,192,197629,1,2,0:0:0:0:
320,192,197629,1,8,0:0:0:0:
192,192,197982,128,0,198512:0:0:0:0:
320,192,197982,1,2,0:0:0:0:
320,192,198335,1,0,0:0:0:0:
448,192,198335,1,2,0:0:0:0:
64,192,198335,1,8,0:0:0:0:
448,192,198512,128,0,199041:0:0:0:0:
192,192,198688,1,2,0:0:0:0:
64,192,198688,128,0,199041:0:0:0:0:
192,192,199041,128,2,199218:0:0:0:0:
320,192,199041,1,8,0:0:0:0:
320,192,199218,128,0,199394:0:0:0:0:
448,192,199394,1,2,0:0:0:0:
64,192,199394,128,0,199747:0:0:0:0:
192,192,199394,128,0,199747:0:0:0:0:
320,192,199747,128,8,199924:0:0:0:0:
448,192,199747,1,2,0:0:0:0:
64,192,199924,128,0,200277:0:0:0:0:
448,192,199924,128,0,200806:0:0:0:0:
192,192,200100,1,0,0:0:0:0:
320,192,200100,1,2,0:0:0:0:
192,192,200277,128,0,200806:0:0:0:0:
64,192,200453,1,8,0:0:0:0:
320,192,200453,1,2,0:0:0:0:
64,192,200806,128,2,201512:0:0:0:0:
320,192,200806,1,0,0:0:0:0:
192,192,201159,1,0,0:0:0:0:
320,192,201159,1,2,0:0:0:0:
448,192,201159,1,8,0:0:0:0:
320,192,201512,128,2,202041:0:0:0:0:
448,192,201512,1,0,0:0:0:0:
192,192,201688,128,0,202218:0:0:0:0:
448,192,201865,1,2,0:0:0:0:
64,192,201865,1,8,0:0:0:0:
448,192,202218,1,4,0:0:0:0:
320,192,202218,1,2,0:0:0:0:
64,192,202218,1,8,0:0:0:0:
192,192,202394,1,2,0:0:0:0:
192,192,202571,1,2,0:0:0:0:
64,192,202747,1,8,0:0:0:0:
448,192,202747,1,2,0:0:0:0:
320,192,202924,1,2,0:0:0:0:
320,192,203100,1,2,0:0:0:0:
64,192,203277,1,4,0:0:0:0:
448,192,203277,1,8,0:0:0:0:
192,192,203277,1,2,0:0:0:0:
320,192,203453,1,2,0:0:0:0:
320,192,203629,1,2,0:0:0:0:
448,192,203806,1,2,0:0:0:0:
64,192,203806,1,8,0:0:0:0:
192,192,203982,1,2,0:0:0:0:
192,192,204159,1,2,0:0:0:0:
448,192,204335,1,2,0:0:0:0:
320,192,204335,1,8,0:0:0:0:
64,192,204335,1,4,0:0:0:0:
192,192,204512,1,2,0:0:0:0:
192,192,204688,1,8,0:0:0:0:
64,192,204688,1,2,0:0:0:0:
448,192,204688,1,4,0:0:0:0:
448,192,205041,1,2,0:0:0:0:
64,192,205041,1,8,0:0:0:0:
64,192,205218,1,8,0:0:0:0:
448,192,205218,1,2,0:0:0:0:
320,192,206100,5,8,0:0:0:0:
448,192,206100,1,2,0:0:0:0:
64,192,206100,1,0,0:0:0:0:
64,192,206453,1,4,0:0:0:0:
448,192,206453,1,0,0:0:0:0:
192,192,206453,1,2,0:0:0:0:
320,192,206629,1,0,0:0:0:0:
448,192,206806,128,2,206982:0:0:0:0:
64,192,206806,1,0,0:0:0:0:
192,192,206806,1,8,0:0:0:0:
320,192,206982,128,0,207159:0:0:0:0:
192,192,207159,128,0,207335:0:0:0:0:
64,192,207159,1,2,0:0:0:0:
320,192,207335,128,0,207512:0:0:0:0:
64,192,207512,128,2,207688:0:0:0:0:
192,192,207512,1,8,0:0:0:0:
448,192,207512,1,0,0:0:0:0:
448,192,207688,128,0,208041:0:0:0:0:
320,192,207688,1,2,0:0:0:0:
64,192,207865,1,0,0:0:0:0:
192,192,208041,128,0,208218:0:0:0:0:
64,192,208218,128,0,208394:0:0:0:0:
320,192,208218,1,2,0:0:0:0:
448,192,208218,1,8,0:0:0:0:
320,192,208394,128,0,208571:0:0:0:0:
448,192,208571,128,0,208747:0:0:0:0:
64,192,208571,1,2,0:0:0:0:
192,192,208747,128,0,208924:0:0:0:0:
320,192,208924,128,2,209100:0:0:0:0:
64,192,208924,1,0,0:0:0:0:
448,192,208924,1,8,0:0:0:0:
64,192,209100,128,0,209277:0:0:0:0:
320,192,209277,1,2,0:0:0:0:
448,192,209277,1,0,0:0:0:0:
320,192,209453,1,0,0:0:0:0:
64,192,209629,128,0,209806:0:0:0:0:
448,192,209629,1,8,0:0:0:0:
192,192,209629,1,2,0:0:0:0:
320,192,209806,1,0,0:0:0:0:
192,192,209982,128,2,210159:0:0:0:0:
64,192,209982,1,0,0:0:0:0:
448,192,210159,128,0,210335:0:0:0:0:
64,192,210335,128,0,210512:0:0:0:0:
192,192,210335,1,8,0:0:0:0:
320,192,210335,1,2,0:0:0:0:
448,192,210512,128,0,210865:0:0:0:0:
320,192,210512,1,2,0:0:0:0:
64,192,210688,1,0,0:0:0:0:
192,192,210865,1,0,0:0:0:0:
192,192,211041,128,8,211218:0:0:0:0:
320,192,211041,1,2,0:0:0:0:
448,192,211041,1,0,0:0:0:0:
64,192,211218,1,0,0:0:0:0:
448,192,211394,128,0,211571:0:0:0:0:
320,192,211394,1,2,0:0:0:0:
64,192,211571,128,0,211747:0:0:0:0:
320,192,211747,128,8,211924:0:0:0:0:
192,192,211747,1,2,0:0:0:0:
448,192,211747,1,0,0:0:0:0:
64,192,211924,128,0,212100:0:0:0:0:
320,192,212100,1,2,0:0:0:0:
448,192,212100,1,0,0:0:0:0:
192,192,212277,1,0,0:0:0:0:
192,192,212453,128,2,212629:0:0:0:0:
64,192,212453,1,8,0:0:0:0:
448,192,212453,1,0,0:0:0:0:
320,192,212629,1,0,0:0:0:0:
448,192,212806,128,2,212982:0:0:0:0:
64,192,212806,1,0,0:0:0:0:
192,192,212982,128,0,213159:0:0:0:0:
448,192,213159,128,8,213335:0:0:0:0:
64,192,213159,1,0,0:0:0:0:
320,192,213159,1,2,0:0:0:0:
320,192,213335,128,0,213688:0:0:0:0:
192,192,213335,1,2,0:0:0:0:
448,192,213512,1,0,0:0:0:0:
64,192,213688,128,0,213865:0:0:0:0:
192,192,213865,128,2,214041:0:0:0:0:
320,192,213865,1,8,0:0:0:0:
448,192,213865,1,0,0:0:0:0:
448,192,214041,128,0,214218:0:0:0:0:
64,192,214218,128,0,214394:0:0:0:0:
192,192,214218,1,2,0:0:0:0:
320,192,214394,128,0,214571:0:0:0:0:
64,192,214571,128,0,214747:0:0:0:0:
192,192,214571,1,2,0:0:0:0:
448,192,214571,1,8,0:0:0:0:
192,192,214747,128,0,214924:0:0:0:0:
320,192,214747,1,2,0:0:0:0:
448,192,214924,1,4,0:0:0:0:
320,192,214924,1,2,0:0:0:0:
64,192,214924,1,8,0:0:0:0:
192,192,215100,1,2,0:0:0:0:
64,192,215277,1,0,0:0:0:0:
448,192,215277,1,8,0:0:0:0:
192,192,215277,1,2,0:0:0:0:
320,192,215453,1,2,0:0:0:0:
448,192,215629,1,8,0:0:0:0:
320,192,215629,1,2,0:0:0:0:
64,192,215629,1,0,0:0:0:0:
192,192,215806,1,2,0:0:0:0:
64,192,215982,1,8,0:0:0:0:
448,192,215982,1,0,0:0:0:0:
192,192,215982,1,2,0:0:0:0:
320,192,216159,1,2,0:0:0:0:
320,192,216335,1,2,0:0:0:0:
448,192,216335,1,8,0:0:0:0:
64,192,216335,1,4,0:0:0:0:
64,192,216512,1,2,0:0:0:0:
192,192,216688,5,2,0:0:0:0:
320,192,216688,1,8,0:0:0:0:
448,192,216688,1,0,0:0:0:0:
448,192,216865,1,2,0:0:0:0:
320,192,217041,1,8,0:0:0:0:
192,192,217041,1,2,0:0:0:0:
64,192,217041,1,0,0:0:0:0:
64,192,217218,1,2,0:0:0:0:
192,192,217394,1,2,0:0:0:0:
320,192,217394,1,8,0:0:0:0:
448,192,217394,1,0,0:0:0:0:
448,192,217571,1,2,0:0:0:0:
448,192,217747,1,2,0:0:0:0:
320,192,217747,1,8,0:0:0:0:
192,192,217747,1,0,0:0:0:0:
64,192,217747,1,4,0:0:0:0:
