osu file format v14

[General]
AudioFilename: audio.mp3
AudioLeadIn: 1500
PreviewTime: 54000
Countdown: 0
SampleSet: Normal
StackLeniency: 0.7
Mode: 3
LetterboxInBreaks: 0
SpecialStyle: 0
WidescreenStoryboard: 0

[Editor]
DistanceSpacing: 1.5
BeatDivisor: 12
GridSize: 16
TimelineZoom: 2.5

[Metadata]
Title:Pocari Freakz (JAKAZiD's Jet Sweat Radio Remix)
TitleUnicode:Pocari Freakz (JAKAZiD's Jet Sweat Radio Remix)
Artist:The Hair Kid
ArtistUnicode:The Hair Kid
Creator:[GB]SuddenDeath
Version:Celeb's 24
Source:
Tags:edm house Electronic instrumental Celeb Celebelian acerola etterna stepmania dump
BeatmapID:4556391
BeatmapSetID:2160691

[Difficulty]
HPDrainRate:8
CircleSize:4
OverallDifficulty:8
ApproachRate:9
SliderMultiplier:1.4
SliderTickRate:1

[Events]
//Background and Video events
0,0,"bg.png",0,0
//Break Periods
2,29003,33293
//Storyboard Layer 0 (Background)
//Storyboard Layer 1 (Fail)
//Storyboard Layer 2 (Pass)
//Storyboard Layer 3 (Foreground)
//Storyboard Layer 4 (Overlay)
//Storyboard Sound Samples

[TimingPoints]
36,428.571,4,1,0,30,1,0

[HitObjects]
64,192,36,5,0,0:0:0:0:
192,0,89,5,0,1:0:0:0:
320,0,143,1,0,1:0:0:0:
448,0,178,1,0,1:0:0:0:
64,0,196,1,0,1:0:0:0:
192,192,250,1,0,0:0:0:0:
192,192,357,1,0,0:0:0:0:
448,192,464,128,0,571:0:0:0:0:
192,0,678,1,0,1:0:0:0:
192,0,785,1,0,1:0:0:0:
448,192,893,128,0,1000:0:0:0:0:
192,0,1107,1,0,1:0:0:0:
64,0,1107,1,0,1:0:0:0:
192,0,1214,1,0,1:0:0:0:
320,0,1321,1,0,1:0:0:0:
448,192,1321,128,0,1428:0:0:0:0:
320,0,1428,1,0,1:0:0:0:
64,0,1535,1,0,1:0:0:0:
192,192,1535,128,0,1643:0:0:0:0:
448,0,1750,1,0,1:0:0:0:
320,0,1750,1,0,1:0:0:0:
64,0,1803,1,0,1:0:0:0:
192,0,1821,1,0,1:0:0:0:
448,0,1857,1,0,1:0:0:0:
320,0,1893,1,0,1:0:0:0:
192,0,1964,1,0,1:0:0:0:
192,0,2071,1,0,1:0:0:0:
448,192,2178,128,0,2285:0:0:0:0:
192,0,2393,1,0,1:0:0:0:
192,0,2500,1,0,1:0:0:0:
448,192,2607,128,0,2714:0:0:0:0:
192,0,2821,1,0,1:0:0:0:
64,0,2821,1,0,1:0:0:0:
192,0,2928,1,0,1:0:0:0:
320,0,3035,1,0,1:0:0:0:
448,192,3035,128,0,3143:0:0:0:0:
320,0,3143,1,0,1:0:0:0:
64,0,3250,1,0,1:0:0:0:
192,192,3250,128,0,3357:0:0:0:0:
64,0,3464,1,0,1:0:0:0:
192,0,3518,1,0,1:0:0:0:
448,0,3571,1,0,1:0:0:0:
320,0,3607,1,0,1:0:0:0:
64,0,3625,1,0,1:0:0:0:
192,0,3678,1,0,1:0:0:0:
192,192,3785,1,0,0:0:0:0:
320,192,3893,128,0,4000:0:0:0:0:
192,0,4107,1,0,1:0:0:0:
192,0,4214,1,0,1:0:0:0:
320,192,4321,128,0,4428:0:0:0:0:
192,0,4535,1,0,1:0:0:0:
64,0,4535,1,0,1:0:0:0:
192,0,4643,1,0,1:0:0:0:
64,0,4696,1,0,1:0:0:0:
320,0,4750,1,0,1:0:0:0:
448,192,4750,128,0,4857:0:0:0:0:
192,0,4803,1,0,1:0:0:0:
320,0,4857,1,0,1:0:0:0:
64,192,4964,1,0,0:0:0:0:
192,192,4964,128,0,5071:0:0:0:0:
448,0,5178,1,0,1:0:0:0:
320,0,5178,1,0,1:0:0:0:
64,0,5232,1,0,1:0:0:0:
192,0,5250,1,0,1:0:0:0:
448,0,5285,1,0,1:0:0:0:
320,0,5321,1,0,1:0:0:0:
192,192,5393,1,0,0:0:0:0:
192,192,5500,1,0,0:0:0:0:
320,192,5607,128,0,5714:0:0:0:0:
192,0,5821,1,0,1:0:0:0:
192,0,5928,1,0,1:0:0:0:
320,192,6035,128,0,6143:0:0:0:0:
192,0,6250,1,0,1:0:0:0:
64,0,6250,1,0,1:0:0:0:
192,0,6357,1,0,1:0:0:0:
64,0,6410,1,0,1:0:0:0:
320,0,6464,1,0,1:0:0:0:
448,192,6464,128,0,6571:0:0:0:0:
192,0,6518,1,0,1:0:0:0:
320,0,6571,1,0,1:0:0:0:
64,0,6678,1,0,1:0:0:0:
448,192,6678,128,0,6785:0:0:0:0:
192,192,6678,128,0,6785:0:0:0:0:
192,0,6893,1,0,1:0:0:0:
320,192,6893,128,0,7000:0:0:0:0:
64,192,6893,128,0,7000:0:0:0:0:
448,0,7000,1,0,1:0:0:0:
192,192,7107,1,0,0:0:0:0:
192,0,7214,1,0,1:0:0:0:
320,0,7321,1,0,1:0:0:0:
448,192,7321,128,0,7428:0:0:0:0:
192,0,7535,1,0,1:0:0:0:
192,0,7643,1,0,1:0:0:0:
64,0,7643,1,0,1:0:0:0:
320,0,7750,1,0,1:0:0:0:
448,192,7750,128,0,7857:0:0:0:0:
192,0,7964,1,0,1:0:0:0:
64,0,7964,1,0,1:0:0:0:
192,0,8071,1,0,1:0:0:0:
64,0,8071,1,0,1:0:0:0:
320,0,8178,1,0,1:0:0:0:
448,0,8178,1,0,1:0:0:0:
64,0,8178,1,0,1:0:0:0:
192,0,8178,1,0,1:0:0:0:
448,0,8285,1,0,1:0:0:0:
320,0,8285,1,0,1:0:0:0:
320,0,8393,1,0,1:0:0:0:
448,192,8393,128,0,8500:0:0:0:0:
320,0,8607,1,0,1:0:0:0:
64,0,8607,1,0,1:0:0:0:
192,0,8660,1,0,1:0:0:0:
448,0,8714,1,0,1:0:0:0:
320,0,8750,1,0,1:0:0:0:
64,0,8768,1,0,1:0:0:0:
448,0,8821,1,0,1:0:0:0:
192,0,8821,1,0,1:0:0:0:
192,0,8928,1,0,1:0:0:0:
320,0,9035,1,0,1:0:0:0:
448,192,9035,128,0,9143:0:0:0:0:
192,0,9250,1,0,1:0:0:0:
192,0,9357,1,0,1:0:0:0:
64,0,9357,1,0,1:0:0:0:
320,0,9464,1,0,1:0:0:0:
448,192,9464,128,0,9571:0:0:0:0:
192,0,9678,1,0,1:0:0:0:
64,0,9678,1,0,1:0:0:0:
192,0,9785,1,0,1:0:0:0:
64,0,9785,1,0,1:0:0:0:
320,0,9893,1,0,1:0:0:0:
448,0,9893,1,0,1:0:0:0:
64,0,9893,1,0,1:0:0:0:
192,0,9893,1,0,1:0:0:0:
448,0,10000,1,0,1:0:0:0:
320,0,10000,1,0,1:0:0:0:
320,0,10107,1,0,1:0:0:0:
448,192,10107,128,0,10214:0:0:0:0:
192,0,10321,1,0,1:0:0:0:
320,192,10321,128,0,10428:0:0:0:0:
64,192,10321,128,0,10428:0:0:0:0:
448,0,10428,1,0,1:0:0:0:
192,192,10535,1,0,0:0:0:0:
192,192,10643,1,0,0:0:0:0:
64,0,10750,1,0,1:0:0:0:
320,192,10750,128,0,10857:0:0:0:0:
192,0,10964,1,0,1:0:0:0:
448,0,11071,1,0,1:0:0:0:
192,0,11071,1,0,1:0:0:0:
64,0,11178,1,0,1:0:0:0:
320,192,11178,128,0,11285:0:0:0:0:
448,0,11393,1,0,1:0:0:0:
320,0,11393,1,0,1:0:0:0:
448,0,11500,1,0,1:0:0:0:
320,0,11500,1,0,1:0:0:0:
320,0,11607,1,0,1:0:0:0:
448,0,11607,1,0,1:0:0:0:
64,0,11607,1,0,1:0:0:0:
192,0,11607,1,0,1:0:0:0:
192,0,11714,1,0,1:0:0:0:
64,0,11714,1,0,1:0:0:0:
192,0,11821,1,0,1:0:0:0:
64,192,11821,128,0,11928:0:0:0:0:
448,0,12035,1,0,1:0:0:0:
320,0,12035,1,0,1:0:0:0:
192,0,12089,1,0,1:0:0:0:
64,0,12143,1,0,1:0:0:0:
320,0,12178,1,0,1:0:0:0:
448,0,12196,1,0,1:0:0:0:
192,192,12250,1,0,0:0:0:0:
192,192,12357,1,0,0:0:0:0:
448,192,12464,128,0,12571:0:0:0:0:
320,0,12678,1,0,1:0:0:0:
64,0,12678,1,0,1:0:0:0:
192,0,12732,1,0,1:0:0:0:
448,0,12785,1,0,1:0:0:0:
320,0,12821,1,0,1:0:0:0:
64,0,12839,1,0,1:0:0:0:
192,192,12893,1,0,0:0:0:0:
192,192,13000,1,0,0:0:0:0:
448,192,13107,128,0,13214:0:0:0:0:
64,0,13160,1,0,1:0:0:0:
320,0,13214,1,0,1:0:0:0:
192,0,13321,1,0,1:0:0:0:
64,192,13375,1,0,0:0:0:0:
192,0,13428,1,0,1:0:0:0:
448,192,13535,1,0,0:0:0:0:
320,0,13589,1,0,1:0:0:0:
448,192,13643,1,0,0:0:0:0:
192,0,13750,1,0,1:0:0:0:
320,192,13750,128,0,13857:0:0:0:0:
64,192,13750,128,0,13857:0:0:0:0:
448,0,13857,1,0,1:0:0:0:
192,0,13964,1,0,1:0:0:0:
192,0,14071,1,0,1:0:0:0:
320,0,14178,1,0,1:0:0:0:
448,192,14178,128,0,14285:0:0:0:0:
192,0,14393,1,0,1:0:0:0:
192,0,14500,1,0,1:0:0:0:
64,0,14500,1,0,1:0:0:0:
320,0,14607,1,0,1:0:0:0:
448,192,14607,128,0,14714:0:0:0:0:
192,0,14821,1,0,1:0:0:0:
64,0,14821,1,0,1:0:0:0:
192,0,14928,1,0,1:0:0:0:
64,0,14928,1,0,1:0:0:0:
320,0,15035,1,0,1:0:0:0:
448,0,15035,1,0,1:0:0:0:
64,0,15035,1,0,1:0:0:0:
192,0,15035,1,0,1:0:0:0:
448,0,15143,1,0,1:0:0:0:
320,0,15143,1,0,1:0:0:0:
320,0,15250,1,0,1:0:0:0:
448,192,15250,128,0,15357:0:0:0:0:
320,0,15464,1,0,1:0:0:0:
64,0,15464,1,0,1:0:0:0:
192,0,15518,1,0,1:0:0:0:
448,0,15571,1,0,1:0:0:0:
320,0,15607,1,0,1:0:0:0:
64,0,15625,1,0,1:0:0:0:
448,0,15678,1,0,1:0:0:0:
192,0,15678,1,0,1:0:0:0:
192,192,15785,1,0,0:0:0:0:
320,0,15893,1,0,1:0:0:0:
448,192,15893,128,0,16000:0:0:0:0:
192,0,16107,1,0,1:0:0:0:
192,0,16214,1,0,1:0:0:0:
64,0,16214,1,0,1:0:0:0:
320,0,16321,1,0,1:0:0:0:
448,192,16321,128,0,16428:0:0:0:0:
192,0,16535,1,0,1:0:0:0:
64,0,16535,1,0,1:0:0:0:
192,0,16643,1,0,1:0:0:0:
64,0,16643,1,0,1:0:0:0:
320,0,16750,1,0,1:0:0:0:
448,0,16750,1,0,1:0:0:0:
64,0,16750,1,0,1:0:0:0:
192,0,16750,1,0,1:0:0:0:
448,0,16857,1,0,1:0:0:0:
320,0,16857,1,0,1:0:0:0:
320,0,16964,1,0,1:0:0:0:
448,192,16964,128,0,17071:0:0:0:0:
192,0,17178,1,0,1:0:0:0:
320,192,17178,128,0,17285:0:0:0:0:
64,192,17178,128,0,17285:0:0:0:0:
448,0,17285,1,0,1:0:0:0:
192,192,17393,1,0,0:0:0:0:
192,192,17500,1,0,0:0:0:0:
64,0,17607,1,0,1:0:0:0:
320,192,17607,128,0,17714:0:0:0:0:
192,0,17821,1,0,1:0:0:0:
448,0,17928,1,0,1:0:0:0:
192,0,17928,1,0,1:0:0:0:
64,0,18035,1,0,1:0:0:0:
320,192,18035,128,0,18143:0:0:0:0:
448,0,18250,1,0,1:0:0:0:
320,0,18250,1,0,1:0:0:0:
448,0,18357,1,0,1:0:0:0:
320,0,18357,1,0,1:0:0:0:
320,0,18464,1,0,1:0:0:0:
448,0,18464,1,0,1:0:0:0:
64,0,18464,1,0,1:0:0:0:
192,0,18464,1,0,1:0:0:0:
192,0,18571,1,0,1:0:0:0:
64,0,18571,1,0,1:0:0:0:
192,0,18678,1,0,1:0:0:0:
64,192,18678,128,0,18785:0:0:0:0:
448,0,18893,1,0,1:0:0:0:
320,0,18893,1,0,1:0:0:0:
192,0,18946,1,0,1:0:0:0:
64,0,19000,1,0,1:0:0:0:
320,0,19035,1,0,1:0:0:0:
448,0,19053,1,0,1:0:0:0:
192,192,19107,1,0,0:0:0:0:
64,0,19107,1,0,1:0:0:0:
192,0,19214,1,0,1:0:0:0:
320,0,19321,1,0,1:0:0:0:
448,192,19321,128,0,19428:0:0:0:0:
64,0,19535,1,0,1:0:0:0:
192,0,19589,1,0,1:0:0:0:
448,0,19643,1,0,1:0:0:0:
320,0,19678,1,0,1:0:0:0:
64,0,19696,1,0,1:0:0:0:
192,192,19750,1,0,0:0:0:0:
192,192,19857,1,0,0:0:0:0:
320,0,19964,1,0,1:0:0:0:
448,192,19964,128,0,20071:0:0:0:0:
64,0,20071,1,0,1:0:0:0:
448,0,20178,1,0,1:0:0:0:
192,0,20178,1,0,1:0:0:0:
320,0,20285,1,0,1:0:0:0:
448,0,20393,1,0,1:0:0:0:
192,192,20393,128,0,20500:0:0:0:0:
64,192,20393,128,0,20500:0:0:0:0:
192,0,20607,1,0,1:0:0:0:
64,192,20607,128,0,20714:0:0:0:0:
320,192,20607,128,0,20714:0:0:0:0:
448,0,20714,1,0,1:0:0:0:
192,0,20821,1,0,1:0:0:0:
192,0,20928,1,0,1:0:0:0:
320,0,21035,1,0,1:0:0:0:
448,192,21035,128,0,21143:0:0:0:0:
192,0,21250,1,0,1:0:0:0:
192,0,21357,1,0,1:0:0:0:
64,0,21357,1,0,1:0:0:0:
320,0,21464,1,0,1:0:0:0:
448,192,21464,128,0,21571:0:0:0:0:
192,0,21678,1,0,1:0:0:0:
64,0,21678,1,0,1:0:0:0:
192,0,21785,1,0,1:0:0:0:
64,0,21785,1,0,1:0:0:0:
320,0,21893,1,0,1:0:0:0:
448,0,21893,1,0,1:0:0:0:
64,0,21893,1,0,1:0:0:0:
192,0,21893,1,0,1:0:0:0:
448,0,22000,1,0,1:0:0:0:
320,0,22000,1,0,1:0:0:0:
320,0,22107,1,0,1:0:0:0:
448,192,22107,128,0,22214:0:0:0:0:
320,0,22321,1,0,1:0:0:0:
64,0,22321,1,0,1:0:0:0:
192,0,22375,1,0,1:0:0:0:
448,0,22428,1,0,1:0:0:0:
320,0,22464,1,0,1:0:0:0:
64,0,22482,1,0,1:0:0:0:
192,192,22535,1,0,0:0:0:0:
448,0,22535,1,0,1:0:0:0:
192,192,22643,1,0,0:0:0:0:
320,0,22750,1,0,1:0:0:0:
448,192,22750,128,0,22857:0:0:0:0:
192,0,22964,1,0,1:0:0:0:
192,0,23071,1,0,1:0:0:0:
64,0,23071,1,0,1:0:0:0:
320,0,23178,1,0,1:0:0:0:
448,192,23178,128,0,23285:0:0:0:0:
192,0,23393,1,0,1:0:0:0:
64,0,23393,1,0,1:0:0:0:
192,0,23500,1,0,1:0:0:0:
64,0,23500,1,0,1:0:0:0:
320,0,23607,1,0,1:0:0:0:
448,0,23607,1,0,1:0:0:0:
64,0,23607,1,0,1:0:0:0:
192,0,23607,1,0,1:0:0:0:
448,0,23714,1,0,1:0:0:0:
320,0,23714,1,0,1:0:0:0:
320,0,23821,1,0,1:0:0:0:
448,192,23821,128,0,23928:0:0:0:0:
192,0,24035,1,0,1:0:0:0:
320,192,24035,128,0,24143:0:0:0:0:
64,192,24035,128,0,24143:0:0:0:0:
448,0,24143,1,0,1:0:0:0:
192,192,24250,1,0,0:0:0:0:
192,192,24357,1,0,0:0:0:0:
64,0,24464,1,0,1:0:0:0:
320,192,24464,128,0,24571:0:0:0:0:
64,192,24678,128,0,24785:0:0:0:0:
320,0,24893,1,0,1:0:0:0:
448,192,24893,128,0,25000:0:0:0:0:
192,192,24893,128,0,25000:0:0:0:0:
64,0,25000,1,0,1:0:0:0:
320,192,25107,1,0,0:0:0:0:
320,0,25214,1,0,1:0:0:0:
448,0,25321,1,0,1:0:0:0:
64,0,25321,1,0,1:0:0:0:
64,0,25428,1,0,1:0:0:0:
192,192,25535,1,0,0:0:0:0:
192,192,25643,1,0,0:0:0:0:
320,0,25750,1,0,1:0:0:0:
64,0,25750,1,0,1:0:0:0:
448,0,25964,1,0,1:0:0:0:
320,0,25964,1,0,1:0:0:0:
192,0,26071,1,0,1:0:0:0:
64,0,26071,1,0,1:0:0:0:
320,0,26125,1,0,1:0:0:0:
448,0,26178,1,0,1:0:0:0:
320,0,26232,1,0,1:0:0:0:
192,0,26285,1,0,1:0:0:0:
64,0,26339,1,0,1:0:0:0:
448,0,26393,1,0,1:0:0:0:
192,0,26393,1,0,1:0:0:0:
320,0,26607,1,0,1:0:0:0:
64,0,26607,1,0,1:0:0:0:
448,0,26821,1,0,1:0:0:0:
320,0,26821,1,0,1:0:0:0:
192,0,26928,1,0,1:0:0:0:
64,0,26928,1,0,1:0:0:0:
320,0,26982,1,0,1:0:0:0:
448,0,27035,1,0,1:0:0:0:
320,0,27089,1,0,1:0:0:0:
192,0,27143,1,0,1:0:0:0:
64,0,27196,1,0,1:0:0:0:
448,0,27250,1,0,1:0:0:0:
192,0,27250,1,0,1:0:0:0:
320,0,27464,1,0,1:0:0:0:
448,0,27464,1,0,1:0:0:0:
64,0,27464,1,0,1:0:0:0:
192,0,27464,1,0,1:0:0:0:
320,0,27821,1,0,1:0:0:0:
192,0,27821,1,0,1:0:0:0:
64,0,27821,1,0,1:0:0:0:
320,0,28178,1,0,1:0:0:0:
64,0,28178,1,0,1:0:0:0:
192,0,28482,1,0,1:0:0:0:
64,0,28482,1,0,1:0:0:0:
64,0,28803,1,0,1:0:0:0:
320,0,33893,5,0,1:0:0:0:
320,0,34000,1,0,1:0:0:0:
448,0,34107,1,0,1:0:0:0:
448,0,34214,1,0,1:0:0:0:
64,0,34428,1,0,1:0:0:0:
64,0,34535,1,0,1:0:0:0:
320,0,34643,1,0,1:0:0:0:
192,0,34750,1,0,1:0:0:0:
448,0,34857,1,0,1:0:0:0:
448,0,34964,1,0,1:0:0:0:
64,0,35071,1,0,1:0:0:0:
320,0,35607,1,0,1:0:0:0:
320,0,35714,1,0,1:0:0:0:
448,0,35821,1,0,1:0:0:0:
448,0,35928,1,0,1:0:0:0:
64,0,36143,1,0,1:0:0:0:
64,0,36250,1,0,1:0:0:0:
320,0,36357,1,0,1:0:0:0:
192,0,36464,1,0,1:0:0:0:
448,0,36571,1,0,1:0:0:0:
448,0,36678,1,0,1:0:0:0:
64,0,36785,1,0,1:0:0:0:
320,0,37321,1,0,1:0:0:0:
320,0,37428,1,0,1:0:0:0:
448,0,37535,1,0,1:0:0:0:
448,0,37643,1,0,1:0:0:0:
64,0,37857,1,0,1:0:0:0:
64,0,37964,1,0,1:0:0:0:
320,0,38071,1,0,1:0:0:0:
192,0,38178,1,0,1:0:0:0:
448,0,38285,1,0,1:0:0:0:
448,0,38393,1,0,1:0:0:0:
64,0,38500,1,0,1:0:0:0:
320,0,39035,1,0,1:0:0:0:
320,0,39143,1,0,1:0:0:0:
448,0,39250,1,0,1:0:0:0:
448,0,39357,1,0,1:0:0:0:
64,0,39571,1,0,1:0:0:0:
64,0,39678,1,0,1:0:0:0:
320,0,39785,1,0,1:0:0:0:
192,0,39893,1,0,1:0:0:0:
448,0,40000,1,0,1:0:0:0:
448,0,40107,1,0,1:0:0:0:
64,0,40214,1,0,1:0:0:0:
320,0,40750,1,0,1:0:0:0:
320,0,40857,1,0,1:0:0:0:
448,0,40964,1,0,1:0:0:0:
448,0,41071,1,0,1:0:0:0:
320,0,41178,1,0,1:0:0:0:
192,0,41178,1,0,1:0:0:0:
64,0,41285,1,0,1:0:0:0:
64,0,41393,1,0,1:0:0:0:
320,0,41500,1,0,1:0:0:0:
192,0,41607,1,0,1:0:0:0:
64,0,41607,1,0,1:0:0:0:
448,0,41714,1,0,1:0:0:0:
448,0,41821,1,0,1:0:0:0:
320,0,41928,1,0,1:0:0:0:
192,0,41928,1,0,1:0:0:0:
64,0,41928,1,0,1:0:0:0:
448,0,42143,1,0,1:0:0:0:
320,0,42143,1,0,1:0:0:0:
448,0,42464,1,0,1:0:0:0:
320,0,42464,1,0,1:0:0:0:
320,0,42571,1,0,1:0:0:0:
448,0,42678,1,0,1:0:0:0:
448,0,42785,1,0,1:0:0:0:
320,0,42785,1,0,1:0:0:0:
192,0,42785,1,0,1:0:0:0:
192,0,43000,1,0,1:0:0:0:
64,0,43000,1,0,1:0:0:0:
64,0,43107,1,0,1:0:0:0:
320,0,43214,1,0,1:0:0:0:
192,0,43321,1,0,1:0:0:0:
64,0,43321,1,0,1:0:0:0:
448,0,43428,1,0,1:0:0:0:
448,0,43535,1,0,1:0:0:0:
320,0,43643,1,0,1:0:0:0:
64,0,43643,1,0,1:0:0:0:
448,0,43857,1,0,1:0:0:0:
192,0,43857,1,0,1:0:0:0:
320,0,44178,1,0,1:0:0:0:
64,0,44178,1,0,1:0:0:0:
320,0,44285,1,0,1:0:0:0:
448,0,44393,1,0,1:0:0:0:
192,0,44393,1,0,1:0:0:0:
448,0,44500,1,0,1:0:0:0:
320,0,44607,1,0,1:0:0:0:
192,0,44607,1,0,1:0:0:0:
64,0,44714,1,0,1:0:0:0:
64,0,44821,1,0,1:0:0:0:
320,0,44928,1,0,1:0:0:0:
192,0,45035,1,0,1:0:0:0:
64,0,45035,1,0,1:0:0:0:
448,0,45143,1,0,1:0:0:0:
448,0,45250,1,0,1:0:0:0:
320,0,45357,1,0,1:0:0:0:
192,0,45357,1,0,1:0:0:0:
64,0,45357,1,0,1:0:0:0:
320,0,45571,1,0,1:0:0:0:
192,0,45571,1,0,1:0:0:0:
320,0,45893,1,0,1:0:0:0:
192,0,45893,1,0,1:0:0:0:
320,0,46000,1,0,1:0:0:0:
448,0,46107,1,0,1:0:0:0:
448,0,46214,1,0,1:0:0:0:
320,0,46214,1,0,1:0:0:0:
192,0,46214,1,0,1:0:0:0:
192,0,46428,1,0,1:0:0:0:
64,0,46428,1,0,1:0:0:0:
64,0,46535,1,0,1:0:0:0:
320,0,46643,1,0,1:0:0:0:
192,0,46750,1,0,1:0:0:0:
64,0,46750,1,0,1:0:0:0:
448,0,46857,1,0,1:0:0:0:
448,0,46964,1,0,1:0:0:0:
320,0,47071,1,0,1:0:0:0:
64,0,47071,1,0,1:0:0:0:
448,0,47285,1,0,1:0:0:0:
192,0,47285,1,0,1:0:0:0:
320,0,47607,1,0,1:0:0:0:
192,0,47607,1,0,1:0:0:0:
320,0,47714,1,0,1:0:0:0:
448,0,47821,1,0,1:0:0:0:
64,0,47821,1,0,1:0:0:0:
448,0,47928,1,0,1:0:0:0:
320,0,48035,1,0,1:0:0:0:
192,0,48035,1,0,1:0:0:0:
64,0,48143,1,0,1:0:0:0:
448,0,48250,1,0,1:0:0:0:
64,0,48250,1,0,1:0:0:0:
320,0,48357,1,0,1:0:0:0:
192,0,48464,1,0,1:0:0:0:
64,0,48464,1,0,1:0:0:0:
448,0,48571,1,0,1:0:0:0:
448,0,48678,1,0,1:0:0:0:
320,0,48678,1,0,1:0:0:0:
320,0,48785,1,0,1:0:0:0:
192,0,48785,1,0,1:0:0:0:
64,0,48785,1,0,1:0:0:0:
448,0,48893,1,0,1:0:0:0:
192,0,48893,1,0,1:0:0:0:
320,0,49000,1,0,1:0:0:0:
192,0,49107,1,0,1:0:0:0:
64,0,49107,1,0,1:0:0:0:
448,0,49214,1,0,1:0:0:0:
320,0,49321,1,0,1:0:0:0:
64,0,49321,1,0,1:0:0:0:
320,0,49428,1,0,1:0:0:0:
448,0,49535,1,0,1:0:0:0:
192,0,49535,1,0,1:0:0:0:
448,0,49643,1,0,1:0:0:0:
320,0,49643,1,0,1:0:0:0:
64,0,49643,1,0,1:0:0:0:
320,0,49750,1,0,1:0:0:0:
192,0,49750,1,0,1:0:0:0:
64,0,49857,1,0,1:0:0:0:
448,0,49964,1,0,1:0:0:0:
64,0,49964,1,0,1:0:0:0:
320,0,50071,1,0,1:0:0:0:
192,0,50178,1,0,1:0:0:0:
64,0,50178,1,0,1:0:0:0:
448,0,50285,1,0,1:0:0:0:
448,0,50393,1,0,1:0:0:0:
320,0,50500,1,0,1:0:0:0:
64,0,50500,1,0,1:0:0:0:
448,0,50607,1,0,1:0:0:0:
192,0,50607,1,0,1:0:0:0:
320,0,50714,1,0,1:0:0:0:
192,0,50821,1,0,1:0:0:0:
64,0,50821,1,0,1:0:0:0:
448,0,50928,1,0,1:0:0:0:
320,0,51035,1,0,1:0:0:0:
64,0,51035,1,0,1:0:0:0:
320,0,51143,1,0,1:0:0:0:
448,0,51250,1,0,1:0:0:0:
192,0,51250,1,0,1:0:0:0:
448,0,51357,1,0,1:0:0:0:
320,0,51464,1,0,1:0:0:0:
192,0,51464,1,0,1:0:0:0:
448,0,51571,1,0,1:0:0:0:
64,0,51571,1,0,1:0:0:0:
192,0,51678,1,0,1:0:0:0:
64,0,51678,1,0,1:0:0:0:
448,0,51785,1,0,1:0:0:0:
320,0,51785,1,0,1:0:0:0:
192,0,51893,1,0,1:0:0:0:
64,0,51893,1,0,1:0:0:0:
448,0,52000,1,0,1:0:0:0:
320,0,52000,1,0,1:0:0:0:
448,0,52107,1,0,1:0:0:0:
192,0,52107,1,0,1:0:0:0:
320,0,52214,1,0,1:0:0:0:
192,0,52214,1,0,1:0:0:0:
64,0,52214,1,0,1:0:0:0:
448,0,52321,1,0,1:0:0:0:
64,0,52321,1,0,1:0:0:0:
320,0,52428,1,0,1:0:0:0:
192,0,52428,1,0,1:0:0:0:
448,0,52535,1,0,1:0:0:0:
64,0,52535,1,0,1:0:0:0:
192,0,52643,1,0,1:0:0:0:
64,0,52643,1,0,1:0:0:0:
448,0,52750,1,0,1:0:0:0:
320,0,52750,1,0,1:0:0:0:
320,0,52857,1,0,1:0:0:0:
64,0,52857,1,0,1:0:0:0:
448,0,52964,1,0,1:0:0:0:
192,0,52964,1,0,1:0:0:0:
448,0,53071,1,0,1:0:0:0:
320,0,53071,1,0,1:0:0:0:
64,0,53071,1,0,1:0:0:0:
192,0,53285,1,0,1:0:0:0:
64,0,53285,1,0,1:0:0:0:
64,0,53393,1,0,1:0:0:0:
320,0,53607,1,0,1:0:0:0:
192,0,53607,1,0,1:0:0:0:
448,0,53714,1,0,1:0:0:0:
448,0,53821,1,0,1:0:0:0:
192,0,54035,1,0,1:0:0:0:
64,0,54143,1,0,1:0:0:0:
448,0,54250,1,0,1:0:0:0:
64,0,54357,1,0,1:0:0:0:
448,0,54464,128,0,54785:0:0:0:0:
320,0,54464,128,0,54785:0:0:0:0:
192,0,54464,128,0,54785:0:0:0:0:
448,0,54893,1,0,1:0:0:0:
192,0,54893,1,0,1:0:0:0:
64,0,54893,1,0,1:0:0:0:
320,0,55000,1,0,1:0:0:0:
64,0,55107,1,0,1:0:0:0:
192,0,55160,1,0,1:0:0:0:
320,0,55214,1,0,1:0:0:0:
448,0,55268,1,0,1:0:0:0:
192,0,55321,1,0,1:0:0:0:
64,0,55321,1,0,1:0:0:0:
448,0,55375,1,0,1:0:0:0:
320,0,55428,1,0,1:0:0:0:
192,0,55464,1,0,1:0:0:0:
64,0,55500,1,0,1:0:0:0:
448,0,55535,1,0,1:0:0:0:
192,0,55643,1,0,1:0:0:0:
64,0,55643,1,0,1:0:0:0:
448,0,55750,1,0,1:0:0:0:
320,0,55750,1,0,1:0:0:0:
192,0,55857,1,0,1:0:0:0:
448,0,55964,1,0,1:0:0:0:
320,0,55964,1,0,1:0:0:0:
64,0,55964,1,0,1:0:0:0:
192,0,56035,1,0,1:0:0:0:
320,0,56107,1,0,1:0:0:0:
448,0,56178,1,0,1:0:0:0:
192,0,56178,1,0,1:0:0:0:
64,0,56250,1,0,1:0:0:0:
192,0,56321,1,0,1:0:0:0:
448,0,56393,1,0,1:0:0:0:
64,0,56393,1,0,1:0:0:0:
320,0,56446,1,0,1:0:0:0:
192,0,56500,1,0,1:0:0:0:
320,0,56607,1,0,1:0:0:0:
64,0,56607,1,0,1:0:0:0:
192,0,56714,1,0,1:0:0:0:
448,0,56821,1,0,1:0:0:0:
64,0,56821,1,0,1:0:0:0:
192,0,56875,1,0,1:0:0:0:
320,0,56928,1,0,1:0:0:0:
448,0,56982,1,0,1:0:0:0:
192,0,57035,1,0,1:0:0:0:
64,0,57035,1,0,1:0:0:0:
448,0,57089,1,0,1:0:0:0:
320,0,57143,1,0,1:0:0:0:
192,0,57178,1,0,1:0:0:0:
64,0,57214,1,0,1:0:0:0:
448,0,57250,1,0,1:0:0:0:
320,0,57357,1,0,1:0:0:0:
192,0,57357,1,0,1:0:0:0:
448,0,57464,1,0,1:0:0:0:
64,0,57464,1,0,1:0:0:0:
320,0,57571,1,0,1:0:0:0:
448,0,57678,1,0,1:0:0:0:
192,0,57678,1,0,1:0:0:0:
64,0,57678,1,0,1:0:0:0:
320,0,57750,1,0,1:0:0:0:
192,0,57821,1,0,1:0:0:0:
320,0,57893,1,0,1:0:0:0:
64,0,57893,1,0,1:0:0:0:
448,0,57964,1,0,1:0:0:0:
320,0,58035,1,0,1:0:0:0:
448,0,58107,1,0,1:0:0:0:
192,0,58107,1,0,1:0:0:0:
64,0,58160,1,0,1:0:0:0:
320,0,58214,1,0,1:0:0:0:
448,0,58321,1,0,1:0:0:0:
192,0,58321,1,0,1:0:0:0:
64,0,58321,1,0,1:0:0:0:
320,0,58428,1,0,1:0:0:0:
448,0,58535,1,0,1:0:0:0:
320,0,58589,1,0,1:0:0:0:
192,0,58643,1,0,1:0:0:0:
64,0,58696,1,0,1:0:0:0:
448,0,58750,1,0,1:0:0:0:
320,0,58750,1,0,1:0:0:0:
64,0,58803,1,0,1:0:0:0:
192,0,58857,1,0,1:0:0:0:
320,0,58893,1,0,1:0:0:0:
448,0,58928,1,0,1:0:0:0:
64,0,58964,1,0,1:0:0:0:
448,0,59071,1,0,1:0:0:0:
192,0,59071,1,0,1:0:0:0:
320,0,59178,1,0,1:0:0:0:
64,0,59178,1,0,1:0:0:0:
192,0,59285,1,0,1:0:0:0:
448,0,59393,1,0,1:0:0:0:
320,0,59393,1,0,1:0:0:0:
64,0,59393,1,0,1:0:0:0:
192,0,59464,1,0,1:0:0:0:
320,0,59535,1,0,1:0:0:0:
448,0,59607,1,0,1:0:0:0:
192,0,59607,1,0,1:0:0:0:
64,0,59678,1,0,1:0:0:0:
192,0,59750,1,0,1:0:0:0:
448,0,59821,1,0,1:0:0:0:
64,0,59821,1,0,1:0:0:0:
320,0,59875,1,0,1:0:0:0:
192,0,59928,1,0,1:0:0:0:
320,0,60035,1,0,1:0:0:0:
64,0,60035,1,0,1:0:0:0:
192,0,60143,1,0,1:0:0:0:
448,0,60250,1,0,1:0:0:0:
64,0,60250,1,0,1:0:0:0:
320,0,60303,1,0,1:0:0:0:
192,0,60357,1,0,1:0:0:0:
64,0,60410,1,0,1:0:0:0:
448,0,60464,1,0,1:0:0:0:
320,0,60464,1,0,1:0:0:0:
64,0,60518,1,0,1:0:0:0:
192,0,60571,1,0,1:0:0:0:
320,0,60607,1,0,1:0:0:0:
448,0,60643,1,0,1:0:0:0:
64,0,60678,1,0,1:0:0:0:
320,0,60785,1,0,1:0:0:0:
192,0,60785,1,0,1:0:0:0:
448,0,60893,1,0,1:0:0:0:
64,0,60893,1,0,1:0:0:0:
320,0,61000,1,0,1:0:0:0:
192,0,61000,1,0,1:0:0:0:
448,0,61107,1,0,1:0:0:0:
64,0,61107,1,0,1:0:0:0:
320,0,61160,1,0,1:0:0:0:
192,0,61214,1,0,1:0:0:0:
64,0,61268,1,0,1:0:0:0:
448,0,61321,1,0,1:0:0:0:
320,0,61321,1,0,1:0:0:0:
64,0,61428,1,0,1:0:0:0:
192,0,61482,1,0,1:0:0:0:
448,0,61535,1,0,1:0:0:0:
320,0,61535,1,0,1:0:0:0:
64,0,61589,1,0,1:0:0:0:
320,0,61643,1,0,1:0:0:0:
448,0,61750,1,0,1:0:0:0:
192,0,61750,1,0,1:0:0:0:
64,0,61750,1,0,1:0:0:0:
320,0,61857,1,0,1:0:0:0:
64,0,61964,1,0,1:0:0:0:
192,0,62018,1,0,1:0:0:0:
320,0,62071,1,0,1:0:0:0:
448,0,62125,1,0,1:0:0:0:
192,0,62178,1,0,1:0:0:0:
64,0,62178,1,0,1:0:0:0:
448,0,62232,1,0,1:0:0:0:
320,0,62285,1,0,1:0:0:0:
192,0,62321,1,0,1:0:0:0:
64,0,62357,1,0,1:0:0:0:
448,0,62393,1,0,1:0:0:0:
192,0,62500,1,0,1:0:0:0:
64,0,62500,1,0,1:0:0:0:
448,0,62607,1,0,1:0:0:0:
320,0,62607,1,0,1:0:0:0:
192,0,62714,1,0,1:0:0:0:
448,0,62821,1,0,1:0:0:0:
320,0,62821,1,0,1:0:0:0:
64,0,62821,1,0,1:0:0:0:
192,0,62893,1,0,1:0:0:0:
320,0,62964,1,0,1:0:0:0:
448,0,63035,1,0,1:0:0:0:
192,0,63035,1,0,1:0:0:0:
64,0,63107,1,0,1:0:0:0:
192,0,63178,1,0,1:0:0:0:
448,0,63250,1,0,1:0:0:0:
64,0,63250,1,0,1:0:0:0:
320,0,63303,1,0,1:0:0:0:
192,0,63357,1,0,1:0:0:0:
320,0,63464,1,0,1:0:0:0:
64,0,63464,1,0,1:0:0:0:
192,0,63571,1,0,1:0:0:0:
448,0,63678,1,0,1:0:0:0:
64,0,63678,1,0,1:0:0:0:
192,0,63732,1,0,1:0:0:0:
320,0,63785,1,0,1:0:0:0:
448,0,63839,1,0,1:0:0:0:
192,0,63893,1,0,1:0:0:0:
64,0,63893,1,0,1:0:0:0:
448,0,63946,1,0,1:0:0:0:
320,0,64000,1,0,1:0:0:0:
192,0,64035,1,0,1:0:0:0:
64,0,64071,1,0,1:0:0:0:
448,0,64107,1,0,1:0:0:0:
320,0,64214,1,0,1:0:0:0:
192,0,64214,1,0,1:0:0:0:
448,0,64321,1,0,1:0:0:0:
64,0,64321,1,0,1:0:0:0:
320,0,64428,1,0,1:0:0:0:
448,0,64535,1,0,1:0:0:0:
192,0,64535,1,0,1:0:0:0:
64,0,64535,1,0,1:0:0:0:
320,0,64607,1,0,1:0:0:0:
192,0,64678,1,0,1:0:0:0:
320,0,64750,1,0,1:0:0:0:
64,0,64750,1,0,1:0:0:0:
448,0,64821,1,0,1:0:0:0:
320,0,64893,1,0,1:0:0:0:
448,0,64964,1,0,1:0:0:0:
192,0,64964,1,0,1:0:0:0:
64,0,65018,1,0,1:0:0:0:
320,0,65071,1,0,1:0:0:0:
448,0,65178,1,0,1:0:0:0:
192,0,65178,1,0,1:0:0:0:
64,0,65178,1,0,1:0:0:0:
320,0,65285,1,0,1:0:0:0:
448,0,65393,1,0,1:0:0:0:
320,0,65446,1,0,1:0:0:0:
192,0,65500,1,0,1:0:0:0:
64,0,65553,1,0,1:0:0:0:
448,0,65607,1,0,1:0:0:0:
320,0,65607,1,0,1:0:0:0:
64,0,65660,1,0,1:0:0:0:
192,0,65714,1,0,1:0:0:0:
320,0,65750,1,0,1:0:0:0:
448,0,65785,1,0,1:0:0:0:
64,0,65821,1,0,1:0:0:0:
448,0,65928,1,0,1:0:0:0:
192,0,65928,1,0,1:0:0:0:
320,0,66035,1,0,1:0:0:0:
64,0,66035,1,0,1:0:0:0:
192,0,66143,1,0,1:0:0:0:
448,0,66250,1,0,1:0:0:0:
320,0,66250,1,0,1:0:0:0:
64,0,66250,1,0,1:0:0:0:
192,0,66321,1,0,1:0:0:0:
320,0,66393,1,0,1:0:0:0:
448,0,66464,1,0,1:0:0:0:
192,0,66464,1,0,1:0:0:0:
64,0,66535,1,0,1:0:0:0:
192,0,66607,1,0,1:0:0:0:
448,0,66678,1,0,1:0:0:0:
64,0,66678,1,0,1:0:0:0:
320,0,66732,1,0,1:0:0:0:
192,0,66785,1,0,1:0:0:0:
320,0,66893,1,0,1:0:0:0:
64,0,66893,1,0,1:0:0:0:
192,0,67000,1,0,1:0:0:0:
448,0,67107,1,0,1:0:0:0:
64,0,67107,1,0,1:0:0:0:
320,0,67160,1,0,1:0:0:0:
192,0,67214,1,0,1:0:0:0:
64,0,67268,1,0,1:0:0:0:
448,0,67321,1,0,1:0:0:0:
320,0,67321,1,0,1:0:0:0:
64,0,67375,1,0,1:0:0:0:
192,0,67428,1,0,1:0:0:0:
320,0,67464,1,0,1:0:0:0:
448,0,67500,1,0,1:0:0:0:
64,0,67535,1,0,1:0:0:0:
320,0,67643,1,0,1:0:0:0:
192,0,67643,1,0,1:0:0:0:
448,0,67750,1,0,1:0:0:0:
64,0,67750,1,0,1:0:0:0:
320,0,67857,1,0,1:0:0:0:
192,0,67857,1,0,1:0:0:0:
448,0,67964,1,0,1:0:0:0:
64,0,67964,1,0,1:0:0:0:
192,0,68018,1,0,1:0:0:0:
320,0,68071,1,0,1:0:0:0:
448,0,68125,1,0,1:0:0:0:
192,0,68178,1,0,1:0:0:0:
64,0,68178,1,0,1:0:0:0:
448,0,68285,1,0,1:0:0:0:
320,0,68339,1,0,1:0:0:0:
192,0,68393,1,0,1:0:0:0:
64,0,68393,1,0,1:0:0:0:
448,0,68446,1,0,1:0:0:0:
320,0,68500,1,0,1:0:0:0:
448,0,68607,1,0,1:0:0:0:
192,0,68607,1,0,1:0:0:0:
64,0,68607,1,0,1:0:0:0:
320,0,68714,1,0,1:0:0:0:
64,0,68821,1,0,1:0:0:0:
192,0,68875,1,0,1:0:0:0:
320,0,68928,1,0,1:0:0:0:
448,0,68982,1,0,1:0:0:0:
192,0,69035,1,0,1:0:0:0:
64,0,69035,1,0,1:0:0:0:
448,0,69089,1,0,1:0:0:0:
320,0,69143,1,0,1:0:0:0:
192,0,69178,1,0,1:0:0:0:
64,0,69214,1,0,1:0:0:0:
448,0,69250,1,0,1:0:0:0:
192,0,69357,1,0,1:0:0:0:
64,0,69357,1,0,1:0:0:0:
448,0,69464,1,0,1:0:0:0:
320,0,69464,1,0,1:0:0:0:
192,0,69571,1,0,1:0:0:0:
448,0,69678,1,0,1:0:0:0:
320,0,69678,1,0,1:0:0:0:
64,0,69678,1,0,1:0:0:0:
192,0,69750,1,0,1:0:0:0:
320,0,69821,1,0,1:0:0:0:
448,0,69893,1,0,1:0:0:0:
192,0,69893,1,0,1:0:0:0:
64,0,69964,1,0,1:0:0:0:
192,0,70035,1,0,1:0:0:0:
448,0,70107,1,0,1:0:0:0:
64,0,70107,1,0,1:0:0:0:
320,0,70160,1,0,1:0:0:0:
192,0,70214,1,0,1:0:0:0:
320,0,70321,1,0,1:0:0:0:
64,0,70321,1,0,1:0:0:0:
192,0,70428,1,0,1:0:0:0:
448,0,70535,1,0,1:0:0:0:
64,0,70535,1,0,1:0:0:0:
192,0,70589,1,0,1:0:0:0:
320,0,70643,1,0,1:0:0:0:
448,0,70696,1,0,1:0:0:0:
192,0,70750,1,0,1:0:0:0:
64,0,70750,1,0,1:0:0:0:
448,0,70803,1,0,1:0:0:0:
320,0,70857,1,0,1:0:0:0:
192,0,70893,1,0,1:0:0:0:
64,0,70928,1,0,1:0:0:0:
448,0,70964,1,0,1:0:0:0:
320,0,71071,1,0,1:0:0:0:
192,0,71071,1,0,1:0:0:0:
448,0,71178,1,0,1:0:0:0:
64,0,71178,1,0,1:0:0:0:
320,0,71285,1,0,1:0:0:0:
448,0,71393,1,0,1:0:0:0:
192,0,71393,1,0,1:0:0:0:
64,0,71393,1,0,1:0:0:0:
320,0,71464,1,0,1:0:0:0:
192,0,71535,1,0,1:0:0:0:
320,0,71607,1,0,1:0:0:0:
64,0,71607,1,0,1:0:0:0:
448,0,71678,1,0,1:0:0:0:
320,0,71750,1,0,1:0:0:0:
448,0,71821,1,0,1:0:0:0:
192,0,71821,1,0,1:0:0:0:
64,0,71875,1,0,1:0:0:0:
320,0,71928,1,0,1:0:0:0:
448,0,72035,1,0,1:0:0:0:
192,0,72035,1,0,1:0:0:0:
64,0,72035,1,0,1:0:0:0:
320,0,72143,1,0,1:0:0:0:
448,0,72250,1,0,1:0:0:0:
320,0,72303,1,0,1:0:0:0:
192,0,72357,1,0,1:0:0:0:
64,0,72410,1,0,1:0:0:0:
448,0,72464,1,0,1:0:0:0:
320,0,72464,1,0,1:0:0:0:
64,0,72518,1,0,1:0:0:0:
192,0,72571,1,0,1:0:0:0:
320,0,72607,1,0,1:0:0:0:
448,0,72643,1,0,1:0:0:0:
64,0,72678,1,0,1:0:0:0:
448,0,72785,1,0,1:0:0:0:
192,0,72785,1,0,1:0:0:0:
320,0,72893,1,0,1:0:0:0:
64,0,72893,1,0,1:0:0:0:
192,0,73000,1,0,1:0:0:0:
448,0,73107,1,0,1:0:0:0:
320,0,73107,1,0,1:0:0:0:
64,0,73107,1,0,1:0:0:0:
192,0,73178,1,0,1:0:0:0:
320,0,73250,1,0,1:0:0:0:
448,0,73321,1,0,1:0:0:0:
192,0,73321,1,0,1:0:0:0:
64,0,73393,1,0,1:0:0:0:
192,0,73464,1,0,1:0:0:0:
448,0,73535,1,0,1:0:0:0:
64,0,73535,1,0,1:0:0:0:
320,0,73589,1,0,1:0:0:0:
192,0,73643,1,0,1:0:0:0:
320,0,73750,1,0,1:0:0:0:
64,0,73750,1,0,1:0:0:0:
192,0,73857,1,0,1:0:0:0:
448,0,73964,1,0,1:0:0:0:
64,0,73964,1,0,1:0:0:0:
320,0,74018,1,0,1:0:0:0:
192,0,74071,1,0,1:0:0:0:
64,0,74125,1,0,1:0:0:0:
448,0,74178,1,0,1:0:0:0:
320,0,74178,1,0,1:0:0:0:
64,0,74232,1,0,1:0:0:0:
192,0,74285,1,0,1:0:0:0:
320,0,74321,1,0,1:0:0:0:
448,0,74357,1,0,1:0:0:0:
64,0,74393,1,0,1:0:0:0:
320,0,74500,1,0,1:0:0:0:
192,0,74500,1,0,1:0:0:0:
448,0,74607,1,0,1:0:0:0:
64,0,74607,1,0,1:0:0:0:
320,0,74714,1,0,1:0:0:0:
192,0,74714,1,0,1:0:0:0:
448,0,74821,1,0,1:0:0:0:
64,0,74821,1,0,1:0:0:0:
320,0,74875,1,0,1:0:0:0:
192,0,74928,1,0,1:0:0:0:
64,0,74982,1,0,1:0:0:0:
448,0,75035,1,0,1:0:0:0:
320,0,75035,1,0,1:0:0:0:
64,0,75143,1,0,1:0:0:0:
192,0,75196,1,0,1:0:0:0:
448,0,75250,1,0,1:0:0:0:
320,0,75250,1,0,1:0:0:0:
64,0,75303,1,0,1:0:0:0:
320,0,75357,1,0,1:0:0:0:
448,0,75464,1,0,1:0:0:0:
192,0,75464,1,0,1:0:0:0:
64,0,75464,1,0,1:0:0:0:
320,0,75571,1,0,1:0:0:0:
64,0,75678,1,0,1:0:0:0:
192,0,75732,1,0,1:0:0:0:
320,0,75785,1,0,1:0:0:0:
448,0,75839,1,0,1:0:0:0:
192,0,75893,1,0,1:0:0:0:
64,0,75893,1,0,1:0:0:0:
448,0,75946,1,0,1:0:0:0:
320,0,76000,1,0,1:0:0:0:
192,0,76035,1,0,1:0:0:0:
64,0,76071,1,0,1:0:0:0:
448,0,76107,1,0,1:0:0:0:
192,0,76214,1,0,1:0:0:0:
64,0,76214,1,0,1:0:0:0:
448,0,76321,1,0,1:0:0:0:
320,0,76321,1,0,1:0:0:0:
192,0,76428,1,0,1:0:0:0:
448,0,76535,1,0,1:0:0:0:
320,0,76535,1,0,1:0:0:0:
64,0,76535,1,0,1:0:0:0:
192,0,76607,1,0,1:0:0:0:
320,0,76678,1,0,1:0:0:0:
448,0,76750,1,0,1:0:0:0:
192,0,76750,1,0,1:0:0:0:
64,0,76821,1,0,1:0:0:0:
192,0,76893,1,0,1:0:0:0:
448,0,76964,1,0,1:0:0:0:
64,0,76964,1,0,1:0:0:0:
320,0,77018,1,0,1:0:0:0:
192,0,77071,1,0,1:0:0:0:
320,0,77178,1,0,1:0:0:0:
64,0,77178,1,0,1:0:0:0:
192,0,77285,1,0,1:0:0:0:
448,0,77393,1,0,1:0:0:0:
64,0,77393,1,0,1:0:0:0:
192,0,77446,1,0,1:0:0:0:
320,0,77500,1,0,1:0:0:0:
448,0,77553,1,0,1:0:0:0:
192,0,77607,1,0,1:0:0:0:
64,0,77607,1,0,1:0:0:0:
448,0,77660,1,0,1:0:0:0:
320,0,77714,1,0,1:0:0:0:
192,0,77750,1,0,1:0:0:0:
64,0,77785,1,0,1:0:0:0:
448,0,77821,1,0,1:0:0:0:
320,0,77928,1,0,1:0:0:0:
192,0,77928,1,0,1:0:0:0:
448,0,78035,1,0,1:0:0:0:
64,0,78035,1,0,1:0:0:0:
320,0,78143,1,0,1:0:0:0:
448,0,78250,1,0,1:0:0:0:
192,0,78250,1,0,1:0:0:0:
64,0,78250,1,0,1:0:0:0:
320,0,78321,1,0,1:0:0:0:
192,0,78393,1,0,1:0:0:0:
320,0,78464,1,0,1:0:0:0:
64,0,78464,1,0,1:0:0:0:
448,0,78535,1,0,1:0:0:0:
320,0,78607,1,0,1:0:0:0:
448,0,78678,1,0,1:0:0:0:
192,0,78678,1,0,1:0:0:0:
64,0,78732,1,0,1:0:0:0:
320,0,78785,1,0,1:0:0:0:
448,0,78893,1,0,1:0:0:0:
192,0,78893,1,0,1:0:0:0:
64,0,78893,1,0,1:0:0:0:
320,0,79000,1,0,1:0:0:0:
448,0,79107,1,0,1:0:0:0:
320,0,79160,1,0,1:0:0:0:
192,0,79214,1,0,1:0:0:0:
64,0,79268,1,0,1:0:0:0:
448,0,79321,1,0,1:0:0:0:
320,0,79321,1,0,1:0:0:0:
64,0,79375,1,0,1:0:0:0:
192,0,79428,1,0,1:0:0:0:
320,0,79464,1,0,1:0:0:0:
448,0,79500,1,0,1:0:0:0:
64,0,79535,1,0,1:0:0:0:
448,0,79643,1,0,1:0:0:0:
192,0,79643,1,0,1:0:0:0:
320,0,79750,1,0,1:0:0:0:
64,0,79750,1,0,1:0:0:0:
192,0,79857,1,0,1:0:0:0:
448,0,79964,1,0,1:0:0:0:
320,0,79964,1,0,1:0:0:0:
64,0,79964,1,0,1:0:0:0:
192,0,80035,1,0,1:0:0:0:
320,0,80107,1,0,1:0:0:0:
448,0,80178,1,0,1:0:0:0:
192,0,80178,1,0,1:0:0:0:
64,0,80250,1,0,1:0:0:0:
192,0,80321,1,0,1:0:0:0:
448,0,80393,1,0,1:0:0:0:
64,0,80393,1,0,1:0:0:0:
320,0,80446,1,0,1:0:0:0:
192,0,80500,1,0,1:0:0:0:
448,0,80607,1,0,1:0:0:0:
320,0,80607,1,0,1:0:0:0:
64,0,80607,1,0,1:0:0:0:
192,0,80678,1,0,1:0:0:0:
320,0,80750,1,0,1:0:0:0:
448,0,80821,1,0,1:0:0:0:
320,0,80893,1,0,1:0:0:0:
192,0,80964,1,0,1:0:0:0:
64,0,81035,1,0,1:0:0:0:
448,0,81178,1,0,1:0:0:0:
320,0,81464,1,0,1:0:0:0:
192,0,81464,1,0,1:0:0:0:
64,0,81464,1,0,1:0:0:0:
320,0,81571,1,0,1:0:0:0:
192,0,81571,1,0,1:0:0:0:
64,0,81571,1,0,1:0:0:0:
448,0,81785,1,0,1:0:0:0:
320,0,81785,1,0,1:0:0:0:
192,0,81785,1,0,1:0:0:0:
320,0,82000,128,0,82214:0:0:0:0:
448,0,82000,1,0,1:0:0:0:
64,0,82000,1,0,1:0:0:0:
192,0,82000,128,0,82214:0:0:0:0:
448,0,82321,1,0,1:0:0:0:
64,0,82321,1,0,1:0:0:0:
192,0,82375,1,0,1:0:0:0:
448,0,82464,1,0,1:0:0:0:
192,0,82535,1,0,1:0:0:0:
64,0,82535,1,0,1:0:0:0:
320,0,82589,1,0,1:0:0:0:
64,0,82678,1,0,1:0:0:0:
448,0,82750,1,0,1:0:0:0:
320,0,82750,1,0,1:0:0:0:
192,0,82821,1,0,1:0:0:0:
448,0,82893,1,0,1:0:0:0:
64,0,82964,1,0,1:0:0:0:
320,0,83071,1,0,1:0:0:0:
192,0,83071,1,0,1:0:0:0:
448,0,83178,1,0,1:0:0:0:
64,0,83178,1,0,1:0:0:0:
192,0,83232,1,0,1:0:0:0:
448,0,83321,1,0,1:0:0:0:
320,0,83393,1,0,1:0:0:0:
64,0,83393,1,0,1:0:0:0:
192,0,83446,1,0,1:0:0:0:
64,0,83535,1,0,1:0:0:0:
448,0,83607,1,0,1:0:0:0:
320,0,83607,1,0,1:0:0:0:
192,0,83678,1,0,1:0:0:0:
64,0,83750,1,0,1:0:0:0:
320,0,83821,1,0,1:0:0:0:
448,0,83857,1,0,1:0:0:0:
64,0,83893,1,0,1:0:0:0:
192,0,83928,1,0,1:0:0:0:
320,0,83964,1,0,1:0:0:0:
448,0,84035,1,0,1:0:0:0:
64,0,84035,1,0,1:0:0:0:
448,0,84250,1,0,1:0:0:0:
320,0,84250,1,0,1:0:0:0:
64,0,84250,1,0,1:0:0:0:
64,0,84357,1,0,1:0:0:0:
448,0,84464,1,0,1:0:0:0:
320,0,84464,1,0,1:0:0:0:
192,0,84464,1,0,1:0:0:0:
64,0,84571,1,0,1:0:0:0:
448,0,84678,1,0,1:0:0:0:
320,0,84678,1,0,1:0:0:0:
192,0,84732,1,0,1:0:0:0:
320,0,84785,1,0,1:0:0:0:
64,0,84785,1,0,1:0:0:0:
448,0,84893,1,0,1:0:0:0:
192,0,84893,1,0,1:0:0:0:
320,0,84964,1,0,1:0:0:0:
192,0,85035,1,0,1:0:0:0:
448,0,85107,1,0,1:0:0:0:
64,0,85107,1,0,1:0:0:0:
192,0,85178,1,0,1:0:0:0:
320,0,85250,1,0,1:0:0:0:
448,0,85321,1,0,1:0:0:0:
192,0,85321,1,0,1:0:0:0:
320,0,85535,1,0,1:0:0:0:
64,0,85535,1,0,1:0:0:0:
192,0,85643,1,0,1:0:0:0:
448,0,85750,1,0,1:0:0:0:
320,0,85750,1,0,1:0:0:0:
64,0,85803,1,0,1:0:0:0:
192,0,85893,1,0,1:0:0:0:
448,0,85964,1,0,1:0:0:0:
64,0,85964,1,0,1:0:0:0:
320,0,86018,1,0,1:0:0:0:
192,0,86107,1,0,1:0:0:0:
448,0,86178,1,0,1:0:0:0:
320,0,86178,1,0,1:0:0:0:
64,0,86250,1,0,1:0:0:0:
448,0,86321,1,0,1:0:0:0:
192,0,86393,1,0,1:0:0:0:
320,0,86500,1,0,1:0:0:0:
64,0,86500,1,0,1:0:0:0:
448,0,86607,1,0,1:0:0:0:
192,0,86607,1,0,1:0:0:0:
64,0,86660,1,0,1:0:0:0:
448,0,86750,1,0,1:0:0:0:
192,0,86821,1,0,1:0:0:0:
64,0,86821,1,0,1:0:0:0:
320,0,86893,1,0,1:0:0:0:
448,0,86964,1,0,1:0:0:0:
320,0,87035,1,0,1:0:0:0:
64,0,87035,1,0,1:0:0:0:
192,0,87089,1,0,1:0:0:0:
448,0,87178,1,0,1:0:0:0:
320,0,87250,1,0,1:0:0:0:
192,0,87357,1,0,1:0:0:0:
448,0,87464,1,0,1:0:0:0:
320,0,87464,1,0,1:0:0:0:
64,0,87464,1,0,1:0:0:0:
448,0,87678,1,0,1:0:0:0:
320,0,87678,1,0,1:0:0:0:
192,0,87678,1,0,1:0:0:0:
320,0,87785,1,0,1:0:0:0:
448,0,87893,1,0,1:0:0:0:
192,0,87893,1,0,1:0:0:0:
64,0,87893,1,0,1:0:0:0:
448,0,88000,1,0,1:0:0:0:
320,0,88107,1,0,1:0:0:0:
192,0,88107,1,0,1:0:0:0:
320,0,88214,1,0,1:0:0:0:
64,0,88214,1,0,1:0:0:0:
192,0,88321,1,0,1:0:0:0:
448,0,88428,1,0,1:0:0:0:
192,0,88428,1,0,1:0:0:0:
448,0,88535,1,0,1:0:0:0:
320,0,88535,1,0,1:0:0:0:
64,0,88535,1,0,1:0:0:0:
192,0,88643,1,0,1:0:0:0:
320,0,88750,1,0,1:0:0:0:
64,0,88750,1,0,1:0:0:0:
448,0,88803,1,0,1:0:0:0:
192,0,88893,1,0,1:0:0:0:
448,0,88964,1,0,1:0:0:0:
320,0,88964,1,0,1:0:0:0:
192,0,89071,1,0,1:0:0:0:
448,0,89178,1,0,1:0:0:0:
64,0,89178,1,0,1:0:0:0:
192,0,89232,1,0,1:0:0:0:
448,0,89321,1,0,1:0:0:0:
192,0,89393,1,0,1:0:0:0:
64,0,89393,1,0,1:0:0:0:
320,0,89446,1,0,1:0:0:0:
64,0,89535,1,0,1:0:0:0:
448,0,89607,1,0,1:0:0:0:
320,0,89607,1,0,1:0:0:0:
192,0,89678,1,0,1:0:0:0:
448,0,89750,1,0,1:0:0:0:
64,0,89821,1,0,1:0:0:0:
320,0,89928,1,0,1:0:0:0:
192,0,89928,1,0,1:0:0:0:
448,0,90035,1,0,1:0:0:0:
64,0,90035,1,0,1:0:0:0:
192,0,90089,1,0,1:0:0:0:
448,0,90178,1,0,1:0:0:0:
320,0,90250,1,0,1:0:0:0:
64,0,90250,1,0,1:0:0:0:
192,0,90303,1,0,1:0:0:0:
64,0,90393,1,0,1:0:0:0:
448,0,90464,1,0,1:0:0:0:
320,0,90464,1,0,1:0:0:0:
192,0,90535,1,0,1:0:0:0:
64,0,90607,1,0,1:0:0:0:
320,0,90678,1,0,1:0:0:0:
448,0,90714,1,0,1:0:0:0:
192,0,90750,1,0,1:0:0:0:
64,0,90785,1,0,1:0:0:0:
320,0,90821,1,0,1:0:0:0:
448,0,90893,1,0,1:0:0:0:
192,0,90893,1,0,1:0:0:0:
448,0,91107,1,0,1:0:0:0:
320,0,91107,1,0,1:0:0:0:
64,0,91107,1,0,1:0:0:0:
64,0,91214,1,0,1:0:0:0:
448,0,91321,1,0,1:0:0:0:
320,0,91321,1,0,1:0:0:0:
192,0,91321,1,0,1:0:0:0:
64,0,91428,1,0,1:0:0:0:
448,0,91535,1,0,1:0:0:0:
320,0,91535,1,0,1:0:0:0:
192,0,91589,1,0,1:0:0:0:
320,0,91643,1,0,1:0:0:0:
64,0,91643,1,0,1:0:0:0:
448,0,91750,1,0,1:0:0:0:
192,0,91750,1,0,1:0:0:0:
320,0,91821,1,0,1:0:0:0:
192,0,91893,1,0,1:0:0:0:
448,0,91964,1,0,1:0:0:0:
64,0,91964,1,0,1:0:0:0:
192,0,92035,1,0,1:0:0:0:
320,0,92107,1,0,1:0:0:0:
448,0,92178,1,0,1:0:0:0:
192,0,92178,1,0,1:0:0:0:
320,0,92393,1,0,1:0:0:0:
64,0,92393,1,0,1:0:0:0:
192,0,92500,1,0,1:0:0:0:
448,0,92607,1,0,1:0:0:0:
320,0,92607,1,0,1:0:0:0:
64,0,92660,1,0,1:0:0:0:
192,0,92750,1,0,1:0:0:0:
448,0,92821,1,0,1:0:0:0:
64,0,92821,1,0,1:0:0:0:
320,0,92875,1,0,1:0:0:0:
192,0,92964,1,0,1:0:0:0:
448,0,93035,1,0,1:0:0:0:
320,0,93035,1,0,1:0:0:0:
64,0,93107,1,0,1:0:0:0:
448,0,93178,1,0,1:0:0:0:
192,0,93250,1,0,1:0:0:0:
320,0,93357,1,0,1:0:0:0:
64,0,93357,1,0,1:0:0:0:
448,0,93464,1,0,1:0:0:0:
192,0,93464,1,0,1:0:0:0:
64,0,93518,1,0,1:0:0:0:
448,0,93607,1,0,1:0:0:0:
192,0,93678,1,0,1:0:0:0:
64,0,93678,1,0,1:0:0:0:
320,0,93750,1,0,1:0:0:0:
448,0,93821,1,0,1:0:0:0:
320,0,93893,1,0,1:0:0:0:
64,0,93893,1,0,1:0:0:0:
192,0,93946,1,0,1:0:0:0:
448,0,94035,1,0,1:0:0:0:
320,0,94107,1,0,1:0:0:0:
192,0,94214,1,0,1:0:0:0:
448,0,94321,1,0,1:0:0:0:
320,0,94321,1,0,1:0:0:0:
64,0,94321,1,0,1:0:0:0:
448,0,94535,1,0,1:0:0:0:
320,0,94535,1,0,1:0:0:0:
192,0,94535,1,0,1:0:0:0:
320,0,94643,1,0,1:0:0:0:
448,0,94750,1,0,1:0:0:0:
192,0,94750,1,0,1:0:0:0:
64,0,94750,1,0,1:0:0:0:
64,0,94857,1,0,1:0:0:0:
448,0,94964,1,0,1:0:0:0:
192,0,94964,1,0,1:0:0:0:
448,0,95071,1,0,1:0:0:0:
64,0,95071,1,0,1:0:0:0:
192,0,95178,1,0,1:0:0:0:
448,0,95285,1,0,1:0:0:0:
320,0,95285,1,0,1:0:0:0:
320,0,95393,1,0,1:0:0:0:
192,0,95393,1,0,1:0:0:0:
64,0,95393,1,0,1:0:0:0:
448,0,95500,1,0,1:0:0:0:
192,0,95607,1,0,1:0:0:0:
64,0,95607,1,0,1:0:0:0:
448,0,95660,1,0,1:0:0:0:
320,0,95750,1,0,1:0:0:0:
448,0,95821,1,0,1:0:0:0:
64,0,95821,1,0,1:0:0:0:
192,0,95928,1,0,1:0:0:0:
448,0,96035,1,0,1:0:0:0:
64,0,96035,1,0,1:0:0:0:
192,0,96089,1,0,1:0:0:0:
448,0,96178,1,0,1:0:0:0:
192,0,96250,1,0,1:0:0:0:
64,0,96250,1,0,1:0:0:0:
320,0,96303,1,0,1:0:0:0:
64,0,96393,1,0,1:0:0:0:
448,0,96464,1,0,1:0:0:0:
320,0,96464,1,0,1:0:0:0:
192,0,96535,1,0,1:0:0:0:
448,0,96607,1,0,1:0:0:0:
64,0,96678,1,0,1:0:0:0:
320,0,96785,1,0,1:0:0:0:
192,0,96785,1,0,1:0:0:0:
448,0,96893,1,0,1:0:0:0:
64,0,96893,1,0,1:0:0:0:
192,0,96946,1,0,1:0:0:0:
448,0,97035,1,0,1:0:0:0:
320,0,97107,1,0,1:0:0:0:
64,0,97107,1,0,1:0:0:0:
192,0,97160,1,0,1:0:0:0:
64,0,97250,1,0,1:0:0:0:
448,0,97321,1,0,1:0:0:0:
320,0,97321,1,0,1:0:0:0:
192,0,97393,1,0,1:0:0:0:
64,0,97464,1,0,1:0:0:0:
320,0,97535,1,0,1:0:0:0:
448,0,97571,1,0,1:0:0:0:
64,0,97607,1,0,1:0:0:0:
192,0,97643,1,0,1:0:0:0:
320,0,97678,1,0,1:0:0:0:
448,0,97750,1,0,1:0:0:0:
64,0,97750,1,0,1:0:0:0:
448,0,97964,1,0,1:0:0:0:
320,0,97964,1,0,1:0:0:0:
64,0,97964,1,0,1:0:0:0:
64,0,98071,1,0,1:0:0:0:
448,0,98178,1,0,1:0:0:0:
320,0,98178,1,0,1:0:0:0:
192,0,98178,1,0,1:0:0:0:
64,0,98285,1,0,1:0:0:0:
448,0,98393,1,0,1:0:0:0:
320,0,98393,1,0,1:0:0:0:
192,0,98446,1,0,1:0:0:0:
320,0,98500,1,0,1:0:0:0:
64,0,98500,1,0,1:0:0:0:
448,0,98607,1,0,1:0:0:0:
192,0,98607,1,0,1:0:0:0:
320,0,98678,1,0,1:0:0:0:
192,0,98750,1,0,1:0:0:0:
448,0,98821,1,0,1:0:0:0:
64,0,98821,1,0,1:0:0:0:
192,0,98893,1,0,1:0:0:0:
320,0,98964,1,0,1:0:0:0:
448,0,99035,1,0,1:0:0:0:
192,0,99035,1,0,1:0:0:0:
320,0,99250,1,0,1:0:0:0:
64,0,99250,1,0,1:0:0:0:
192,0,99357,1,0,1:0:0:0:
448,0,99464,1,0,1:0:0:0:
320,0,99464,1,0,1:0:0:0:
64,0,99518,1,0,1:0:0:0:
192,0,99607,1,0,1:0:0:0:
448,0,99678,1,0,1:0:0:0:
64,0,99678,1,0,1:0:0:0:
320,0,99732,1,0,1:0:0:0:
192,0,99821,1,0,1:0:0:0:
448,0,99893,1,0,1:0:0:0:
320,0,99893,1,0,1:0:0:0:
64,0,99964,1,0,1:0:0:0:
448,0,100035,1,0,1:0:0:0:
192,0,100107,1,0,1:0:0:0:
320,0,100214,1,0,1:0:0:0:
64,0,100214,1,0,1:0:0:0:
448,0,100321,1,0,1:0:0:0:
192,0,100321,1,0,1:0:0:0:
64,0,100375,1,0,1:0:0:0:
448,0,100464,1,0,1:0:0:0:
192,0,100535,1,0,1:0:0:0:
64,0,100535,1,0,1:0:0:0:
320,0,100607,1,0,1:0:0:0:
448,0,100678,1,0,1:0:0:0:
320,0,100750,1,0,1:0:0:0:
64,0,100750,1,0,1:0:0:0:
192,0,100803,1,0,1:0:0:0:
448,0,100893,1,0,1:0:0:0:
320,0,100964,1,0,1:0:0:0:
192,0,101071,1,0,1:0:0:0:
448,0,101178,1,0,1:0:0:0:
320,0,101178,1,0,1:0:0:0:
64,0,101178,1,0,1:0:0:0:
448,0,101393,1,0,1:0:0:0:
320,0,101393,1,0,1:0:0:0:
192,0,101393,1,0,1:0:0:0:
320,0,101500,1,0,1:0:0:0:
448,0,101607,1,0,1:0:0:0:
192,0,101607,1,0,1:0:0:0:
64,0,101607,1,0,1:0:0:0:
448,0,101714,1,0,1:0:0:0:
320,0,101821,1,0,1:0:0:0:
192,0,101821,1,0,1:0:0:0:
320,0,101928,1,0,1:0:0:0:
64,0,101928,1,0,1:0:0:0:
192,0,102035,1,0,1:0:0:0:
448,0,102143,1,0,1:0:0:0:
192,0,102143,1,0,1:0:0:0:
448,0,102250,1,0,1:0:0:0:
320,0,102250,1,0,1:0:0:0:
64,0,102250,1,0,1:0:0:0:
192,0,102357,1,0,1:0:0:0:
320,0,102464,1,0,1:0:0:0:
64,0,102464,1,0,1:0:0:0:
448,0,102518,1,0,1:0:0:0:
192,0,102607,1,0,1:0:0:0:
448,0,102678,1,0,1:0:0:0:
320,0,102678,1,0,1:0:0:0:
192,0,102785,1,0,1:0:0:0:
448,0,102893,1,0,1:0:0:0:
64,0,102893,1,0,1:0:0:0:
192,0,102946,1,0,1:0:0:0:
448,0,103035,1,0,1:0:0:0:
192,0,103107,1,0,1:0:0:0:
64,0,103107,1,0,1:0:0:0:
320,0,103160,1,0,1:0:0:0:
64,0,103250,1,0,1:0:0:0:
448,0,103321,1,0,1:0:0:0:
320,0,103321,1,0,1:0:0:0:
192,0,103393,1,0,1:0:0:0:
448,0,103464,1,0,1:0:0:0:
64,0,103535,1,0,1:0:0:0:
320,0,103643,1,0,1:0:0:0:
192,0,103643,1,0,1:0:0:0:
448,0,103750,1,0,1:0:0:0:
64,0,103750,1,0,1:0:0:0:
192,0,103803,1,0,1:0:0:0:
448,0,103893,1,0,1:0:0:0:
320,0,103964,1,0,1:0:0:0:
64,0,103964,1,0,1:0:0:0:
192,0,104018,1,0,1:0:0:0:
64,0,104107,1,0,1:0:0:0:
448,0,104178,1,0,1:0:0:0:
320,0,104178,1,0,1:0:0:0:
192,0,104250,1,0,1:0:0:0:
64,0,104321,1,0,1:0:0:0:
320,0,104393,1,0,1:0:0:0:
448,0,104428,1,0,1:0:0:0:
192,0,104464,1,0,1:0:0:0:
64,0,104500,1,0,1:0:0:0:
320,0,104535,1,0,1:0:0:0:
448,0,104607,1,0,1:0:0:0:
192,0,104607,1,0,1:0:0:0:
448,0,104821,1,0,1:0:0:0:
320,0,104821,1,0,1:0:0:0:
64,0,104821,1,0,1:0:0:0:
64,0,104928,1,0,1:0:0:0:
448,0,105035,1,0,1:0:0:0:
320,0,105035,1,0,1:0:0:0:
192,0,105035,1,0,1:0:0:0:
64,0,105143,1,0,1:0:0:0:
448,0,105250,1,0,1:0:0:0:
320,0,105250,1,0,1:0:0:0:
192,0,105303,1,0,1:0:0:0:
320,0,105357,1,0,1:0:0:0:
64,0,105357,1,0,1:0:0:0:
448,0,105464,1,0,1:0:0:0:
192,0,105464,1,0,1:0:0:0:
320,0,105535,1,0,1:0:0:0:
192,0,105607,1,0,1:0:0:0:
448,0,105678,1,0,1:0:0:0:
64,0,105678,1,0,1:0:0:0:
192,0,105750,1,0,1:0:0:0:
320,0,105821,1,0,1:0:0:0:
448,0,105893,1,0,1:0:0:0:
192,0,105893,1,0,1:0:0:0:
320,0,106107,1,0,1:0:0:0:
64,0,106107,1,0,1:0:0:0:
192,0,106214,1,0,1:0:0:0:
448,0,106321,1,0,1:0:0:0:
320,0,106321,1,0,1:0:0:0:
64,0,106375,1,0,1:0:0:0:
192,0,106464,1,0,1:0:0:0:
448,0,106535,1,0,1:0:0:0:
64,0,106535,1,0,1:0:0:0:
320,0,106589,1,0,1:0:0:0:
192,0,106678,1,0,1:0:0:0:
448,0,106750,1,0,1:0:0:0:
320,0,106750,1,0,1:0:0:0:
64,0,106821,1,0,1:0:0:0:
448,0,106893,1,0,1:0:0:0:
192,0,106964,1,0,1:0:0:0:
320,0,107071,1,0,1:0:0:0:
64,0,107071,1,0,1:0:0:0:
448,0,107178,1,0,1:0:0:0:
192,0,107178,1,0,1:0:0:0:
64,0,107232,1,0,1:0:0:0:
448,0,107321,1,0,1:0:0:0:
192,0,107393,1,0,1:0:0:0:
64,0,107393,1,0,1:0:0:0:
320,0,107464,1,0,1:0:0:0:
448,0,107535,1,0,1:0:0:0:
320,0,107607,1,0,1:0:0:0:
64,0,107607,1,0,1:0:0:0:
192,0,107660,1,0,1:0:0:0:
448,0,107750,1,0,1:0:0:0:
320,0,107821,1,0,1:0:0:0:
192,0,107928,1,0,1:0:0:0:
448,0,108035,1,0,1:0:0:0:
320,0,108035,1,0,1:0:0:0:
64,0,108035,1,0,1:0:0:0:
64,0,108143,1,0,1:0:0:0:
448,0,108250,1,0,1:0:0:0:
320,0,108250,1,0,1:0:0:0:
192,0,108250,1,0,1:0:0:0:
320,0,108357,1,0,1:0:0:0:
448,0,108464,1,0,1:0:0:0:
192,0,108464,1,0,1:0:0:0:
64,0,108464,1,0,1:0:0:0:
64,0,108571,1,0,1:0:0:0:
448,0,108678,1,0,1:0:0:0:
320,0,108678,1,0,1:0:0:0:
192,0,108678,1,0,1:0:0:0:
448,0,108785,1,0,1:0:0:0:
320,0,108893,1,0,1:0:0:0:
192,0,108893,1,0,1:0:0:0:
64,0,108893,1,0,1:0:0:0:
64,0,109000,1,0,1:0:0:0:
448,0,109107,1,0,1:0:0:0:
320,0,109107,1,0,1:0:0:0:
192,0,109107,1,0,1:0:0:0:
320,0,109214,1,0,1:0:0:0:
192,0,109321,1,0,1:0:0:0:
64,0,109321,1,0,1:0:0:0:
448,0,109375,1,0,1:0:0:0:
320,0,109464,1,0,1:0:0:0:
448,0,109535,1,0,1:0:0:0:
64,0,109535,1,0,1:0:0:0:
320,0,109643,1,0,1:0:0:0:
448,0,109750,1,0,1:0:0:0:
192,0,109750,1,0,1:0:0:0:
64,0,109750,1,0,1:0:0:0:
448,0,109857,1,0,1:0:0:0:
320,0,109857,1,0,1:0:0:0:
192,0,109964,1,0,1:0:0:0:
64,0,109964,1,0,1:0:0:0:
320,0,110071,1,0,1:0:0:0:
64,0,110125,1,0,1:0:0:0:
448,0,110178,1,0,1:0:0:0:
192,0,110178,1,0,1:0:0:0:
320,0,110232,1,0,1:0:0:0:
64,0,110285,1,0,1:0:0:0:
448,0,110339,1,0,1:0:0:0:
320,0,110393,1,0,1:0:0:0:
192,0,110393,1,0,1:0:0:0:
448,0,110500,1,0,1:0:0:0:
192,0,110500,1,0,1:0:0:0:
320,0,110607,1,0,1:0:0:0:
64,0,110607,1,0,1:0:0:0:
192,0,110714,1,0,1:0:0:0:
448,0,110821,1,0,1:0:0:0:
320,0,110821,1,0,1:0:0:0:
64,0,110875,1,0,1:0:0:0:
192,0,110928,1,0,1:0:0:0:
448,0,111035,1,0,1:0:0:0:
64,0,111035,1,0,1:0:0:0:
320,0,111089,1,0,1:0:0:0:
192,0,111143,1,0,1:0:0:0:
64,0,111196,1,0,1:0:0:0:
448,0,111250,1,0,1:0:0:0:
320,0,111250,1,0,1:0:0:0:
192,0,111357,1,0,1:0:0:0:
64,0,111357,1,0,1:0:0:0:
320,0,111464,1,0,1:0:0:0:
64,0,111464,1,0,1:0:0:0:
448,0,111571,1,0,1:0:0:0:
192,0,111571,1,0,1:0:0:0:
320,0,111678,1,0,1:0:0:0:
64,0,111678,1,0,1:0:0:0:
448,0,111785,1,0,1:0:0:0:
320,0,111839,1,0,1:0:0:0:
192,0,111893,1,0,1:0:0:0:
64,0,111893,1,0,1:0:0:0:
448,0,111946,1,0,1:0:0:0:
320,0,112000,1,0,1:0:0:0:
192,0,112053,1,0,1:0:0:0:
448,0,112107,1,0,1:0:0:0:
64,0,112107,1,0,1:0:0:0:
448,0,112214,1,0,1:0:0:0:
192,0,112214,1,0,1:0:0:0:
320,0,112321,1,0,1:0:0:0:
64,0,112321,1,0,1:0:0:0:
192,0,112428,1,0,1:0:0:0:
448,0,112535,1,0,1:0:0:0:
320,0,112535,1,0,1:0:0:0:
64,0,112589,1,0,1:0:0:0:
192,0,112643,1,0,1:0:0:0:
448,0,112750,1,0,1:0:0:0:
64,0,112750,1,0,1:0:0:0:
320,0,112803,1,0,1:0:0:0:
192,0,112857,1,0,1:0:0:0:
64,0,112910,1,0,1:0:0:0:
448,0,112964,1,0,1:0:0:0:
320,0,112964,1,0,1:0:0:0:
192,0,113071,1,0,1:0:0:0:
448,0,113178,1,0,1:0:0:0:
320,0,113178,1,0,1:0:0:0:
64,0,113178,1,0,1:0:0:0:
192,0,113285,1,0,1:0:0:0:
64,0,113285,1,0,1:0:0:0:
448,0,113393,1,0,1:0:0:0:
320,0,113393,1,0,1:0:0:0:
192,0,113500,1,0,1:0:0:0:
448,0,113553,1,0,1:0:0:0:
320,0,113607,1,0,1:0:0:0:
64,0,113607,1,0,1:0:0:0:
192,0,113660,1,0,1:0:0:0:
448,0,113714,1,0,1:0:0:0:
64,0,113768,1,0,1:0:0:0:
320,0,113821,1,0,1:0:0:0:
192,0,113821,1,0,1:0:0:0:
320,0,113928,1,0,1:0:0:0:
64,0,113928,1,0,1:0:0:0:
448,0,114035,1,0,1:0:0:0:
192,0,114035,1,0,1:0:0:0:
320,0,114143,1,0,1:0:0:0:
192,0,114250,1,0,1:0:0:0:
64,0,114250,1,0,1:0:0:0:
448,0,114303,1,0,1:0:0:0:
320,0,114357,1,0,1:0:0:0:
448,0,114464,1,0,1:0:0:0:
64,0,114464,1,0,1:0:0:0:
192,0,114518,1,0,1:0:0:0:
320,0,114571,1,0,1:0:0:0:
448,0,114625,1,0,1:0:0:0:
192,0,114678,1,0,1:0:0:0:
64,0,114678,1,0,1:0:0:0:
448,0,114785,1,0,1:0:0:0:
320,0,114785,1,0,1:0:0:0:
448,0,114893,1,0,1:0:0:0:
64,0,114893,1,0,1:0:0:0:
320,0,115000,1,0,1:0:0:0:
192,0,115000,1,0,1:0:0:0:
448,0,115107,1,0,1:0:0:0:
64,0,115107,1,0,1:0:0:0:
192,0,115214,1,0,1:0:0:0:
64,0,115268,1,0,1:0:0:0:
448,0,115321,1,0,1:0:0:0:
320,0,115321,1,0,1:0:0:0:
64,0,115375,1,0,1:0:0:0:
192,0,115428,1,0,1:0:0:0:
320,0,115482,1,0,1:0:0:0:
448,0,115535,1,0,1:0:0:0:
64,0,115535,1,0,1:0:0:0:
320,0,115643,1,0,1:0:0:0:
192,0,115643,1,0,1:0:0:0:
448,0,115750,128,0,115857:0:0:0:0:
64,0,115750,128,0,115857:0:0:0:0:
320,0,115857,1,0,1:0:0:0:
192,0,115857,1,0,1:0:0:0:
448,0,115964,128,0,116071:0:0:0:0:
64,0,115964,128,0,116071:0:0:0:0:
320,0,116178,1,0,1:0:0:0:
192,0,116178,1,0,1:0:0:0:
448,0,116285,128,0,116393:0:0:0:0:
64,0,116285,128,0,116393:0:0:0:0:
320,0,116393,1,0,1:0:0:0:
192,0,116393,1,0,1:0:0:0:
448,0,116607,1,0,1:0:0:0:
320,0,116607,1,0,1:0:0:0:
192,0,116607,1,0,1:0:0:0:
192,0,116714,1,0,1:0:0:0:
64,0,116714,1,0,1:0:0:0:
448,0,116821,1,0,1:0:0:0:
320,0,116821,1,0,1:0:0:0:
192,0,116928,1,0,1:0:0:0:
320,0,116982,1,0,1:0:0:0:
448,0,117035,1,0,1:0:0:0:
64,0,117035,1,0,1:0:0:0:
192,0,117089,1,0,1:0:0:0:
320,0,117143,1,0,1:0:0:0:
448,0,117196,1,0,1:0:0:0:
192,0,117250,1,0,1:0:0:0:
64,0,117250,1,0,1:0:0:0:
448,0,117357,1,0,1:0:0:0:
192,0,117357,1,0,1:0:0:0:
320,0,117464,1,0,1:0:0:0:
64,0,117464,1,0,1:0:0:0:
192,0,117571,1,0,1:0:0:0:
448,0,117678,1,0,1:0:0:0:
320,0,117678,1,0,1:0:0:0:
64,0,117732,1,0,1:0:0:0:
192,0,117785,1,0,1:0:0:0:
448,0,117893,1,0,1:0:0:0:
64,0,117893,1,0,1:0:0:0:
320,0,117946,1,0,1:0:0:0:
192,0,118000,1,0,1:0:0:0:
64,0,118053,1,0,1:0:0:0:
448,0,118107,1,0,1:0:0:0:
320,0,118107,1,0,1:0:0:0:
192,0,118214,1,0,1:0:0:0:
64,0,118214,1,0,1:0:0:0:
320,0,118321,1,0,1:0:0:0:
64,0,118321,1,0,1:0:0:0:
448,0,118428,1,0,1:0:0:0:
192,0,118428,1,0,1:0:0:0:
320,0,118535,1,0,1:0:0:0:
64,0,118535,1,0,1:0:0:0:
448,0,118643,1,0,1:0:0:0:
320,0,118696,1,0,1:0:0:0:
192,0,118750,1,0,1:0:0:0:
64,0,118750,1,0,1:0:0:0:
448,0,118803,1,0,1:0:0:0:
320,0,118857,1,0,1:0:0:0:
192,0,118910,1,0,1:0:0:0:
448,0,118964,1,0,1:0:0:0:
64,0,118964,1,0,1:0:0:0:
448,0,119071,1,0,1:0:0:0:
192,0,119071,1,0,1:0:0:0:
320,0,119178,1,0,1:0:0:0:
64,0,119178,1,0,1:0:0:0:
192,0,119285,1,0,1:0:0:0:
448,0,119393,1,0,1:0:0:0:
320,0,119393,1,0,1:0:0:0:
64,0,119446,1,0,1:0:0:0:
192,0,119500,1,0,1:0:0:0:
448,0,119607,1,0,1:0:0:0:
64,0,119607,1,0,1:0:0:0:
320,0,119660,1,0,1:0:0:0:
192,0,119714,1,0,1:0:0:0:
64,0,119768,1,0,1:0:0:0:
448,0,119821,1,0,1:0:0:0:
320,0,119821,1,0,1:0:0:0:
192,0,119928,1,0,1:0:0:0:
448,0,120035,1,0,1:0:0:0:
320,0,120035,1,0,1:0:0:0:
64,0,120035,1,0,1:0:0:0:
192,0,120143,1,0,1:0:0:0:
64,0,120143,1,0,1:0:0:0:
448,0,120250,1,0,1:0:0:0:
320,0,120250,1,0,1:0:0:0:
192,0,120357,1,0,1:0:0:0:
448,0,120410,1,0,1:0:0:0:
320,0,120464,1,0,1:0:0:0:
64,0,120464,1,0,1:0:0:0:
192,0,120518,1,0,1:0:0:0:
448,0,120571,1,0,1:0:0:0:
64,0,120625,1,0,1:0:0:0:
320,0,120678,1,0,1:0:0:0:
192,0,120678,1,0,1:0:0:0:
320,0,120785,1,0,1:0:0:0:
64,0,120785,1,0,1:0:0:0:
448,0,120893,1,0,1:0:0:0:
192,0,120893,1,0,1:0:0:0:
320,0,121000,1,0,1:0:0:0:
192,0,121107,1,0,1:0:0:0:
64,0,121107,1,0,1:0:0:0:
448,0,121160,1,0,1:0:0:0:
320,0,121214,1,0,1:0:0:0:
448,0,121321,1,0,1:0:0:0:
64,0,121321,1,0,1:0:0:0:
192,0,121375,1,0,1:0:0:0:
320,0,121428,1,0,1:0:0:0:
448,0,121482,1,0,1:0:0:0:
192,0,121535,1,0,1:0:0:0:
64,0,121535,1,0,1:0:0:0:
448,0,121643,1,0,1:0:0:0:
320,0,121643,1,0,1:0:0:0:
448,0,121750,1,0,1:0:0:0:
64,0,121750,1,0,1:0:0:0:
320,0,121857,1,0,1:0:0:0:
192,0,121857,1,0,1:0:0:0:
448,0,121964,1,0,1:0:0:0:
64,0,121964,1,0,1:0:0:0:
192,0,122071,1,0,1:0:0:0:
448,0,122178,1,0,1:0:0:0:
320,0,122178,1,0,1:0:0:0:
192,0,122285,1,0,1:0:0:0:
64,0,122285,1,0,1:0:0:0:
448,0,122393,1,0,1:0:0:0:
320,0,122393,1,0,1:0:0:0:
64,0,122500,1,0,1:0:0:0:
448,0,122607,1,0,1:0:0:0:
192,0,122607,1,0,1:0:0:0:
64,0,122714,1,0,1:0:0:0:
448,0,122821,1,0,1:0:0:0:
320,0,122821,1,0,1:0:0:0:
192,0,122821,1,0,1:0:0:0:
320,192,123035,1,0,0:0:0:0:
192,192,123035,1,0,0:0:0:0:
64,192,123035,1,0,0:0:0:0:
64,192,123250,1,0,0:0:0:0:
320,192,123250,1,0,0:0:0:0:
448,192,123250,1,0,0:0:0:0:
448,0,123464,1,0,1:0:0:0:
320,0,123464,1,0,1:0:0:0:
192,0,123464,1,0,1:0:0:0:
448,0,123571,1,0,1:0:0:0:
320,0,123571,1,0,1:0:0:0:
192,0,123678,1,0,1:0:0:0:
64,0,123678,1,0,1:0:0:0:
320,0,123785,1,0,1:0:0:0:
64,0,123839,1,0,1:0:0:0:
448,0,123893,1,0,1:0:0:0:
192,0,123893,1,0,1:0:0:0:
320,0,123946,1,0,1:0:0:0:
64,0,124000,1,0,1:0:0:0:
448,0,124053,1,0,1:0:0:0:
320,0,124107,1,0,1:0:0:0:
192,0,124107,1,0,1:0:0:0:
448,0,124214,1,0,1:0:0:0:
192,0,124214,1,0,1:0:0:0:
320,0,124321,1,0,1:0:0:0:
64,0,124321,1,0,1:0:0:0:
192,0,124428,1,0,1:0:0:0:
448,0,124535,1,0,1:0:0:0:
320,0,124535,1,0,1:0:0:0:
64,0,124589,1,0,1:0:0:0:
192,0,124643,1,0,1:0:0:0:
448,0,124750,1,0,1:0:0:0:
64,0,124750,1,0,1:0:0:0:
320,0,124803,1,0,1:0:0:0:
192,0,124857,1,0,1:0:0:0:
64,0,124910,1,0,1:0:0:0:
448,0,124964,1,0,1:0:0:0:
320,0,124964,1,0,1:0:0:0:
192,0,125071,1,0,1:0:0:0:
64,0,125071,1,0,1:0:0:0:
320,0,125178,1,0,1:0:0:0:
64,0,125178,1,0,1:0:0:0:
448,0,125285,1,0,1:0:0:0:
192,0,125285,1,0,1:0:0:0:
320,0,125393,1,0,1:0:0:0:
64,0,125393,1,0,1:0:0:0:
448,0,125500,1,0,1:0:0:0:
320,0,125553,1,0,1:0:0:0:
192,0,125607,1,0,1:0:0:0:
64,0,125607,1,0,1:0:0:0:
448,0,125660,1,0,1:0:0:0:
320,0,125714,1,0,1:0:0:0:
192,0,125768,1,0,1:0:0:0:
448,0,125821,1,0,1:0:0:0:
64,0,125821,1,0,1:0:0:0:
448,0,125928,1,0,1:0:0:0:
192,0,125928,1,0,1:0:0:0:
320,0,126035,1,0,1:0:0:0:
64,0,126035,1,0,1:0:0:0:
192,0,126143,1,0,1:0:0:0:
448,0,126250,1,0,1:0:0:0:
320,0,126250,1,0,1:0:0:0:
64,0,126303,1,0,1:0:0:0:
192,0,126357,1,0,1:0:0:0:
448,0,126464,1,0,1:0:0:0:
64,0,126464,1,0,1:0:0:0:
320,0,126518,1,0,1:0:0:0:
192,0,126571,1,0,1:0:0:0:
64,0,126625,1,0,1:0:0:0:
448,0,126678,1,0,1:0:0:0:
320,0,126678,1,0,1:0:0:0:
192,0,126785,1,0,1:0:0:0:
448,0,126893,1,0,1:0:0:0:
320,0,126893,1,0,1:0:0:0:
64,0,126893,1,0,1:0:0:0:
192,0,127000,1,0,1:0:0:0:
64,0,127000,1,0,1:0:0:0:
448,0,127107,1,0,1:0:0:0:
320,0,127107,1,0,1:0:0:0:
192,0,127214,1,0,1:0:0:0:
448,0,127268,1,0,1:0:0:0:
320,0,127321,1,0,1:0:0:0:
64,0,127321,1,0,1:0:0:0:
192,0,127375,1,0,1:0:0:0:
448,0,127428,1,0,1:0:0:0:
64,0,127482,1,0,1:0:0:0:
320,0,127535,1,0,1:0:0:0:
192,0,127535,1,0,1:0:0:0:
320,0,127643,1,0,1:0:0:0:
64,0,127643,1,0,1:0:0:0:
448,0,127750,1,0,1:0:0:0:
192,0,127750,1,0,1:0:0:0:
320,0,127857,1,0,1:0:0:0:
192,0,127964,1,0,1:0:0:0:
64,0,127964,1,0,1:0:0:0:
448,0,128018,1,0,1:0:0:0:
320,0,128071,1,0,1:0:0:0:
448,0,128178,1,0,1:0:0:0:
64,0,128178,1,0,1:0:0:0:
192,0,128232,1,0,1:0:0:0:
320,0,128285,1,0,1:0:0:0:
448,0,128339,1,0,1:0:0:0:
192,0,128393,1,0,1:0:0:0:
64,0,128393,1,0,1:0:0:0:
448,0,128500,1,0,1:0:0:0:
320,0,128500,1,0,1:0:0:0:
448,0,128607,1,0,1:0:0:0:
64,0,128607,1,0,1:0:0:0:
320,0,128714,1,0,1:0:0:0:
192,0,128714,1,0,1:0:0:0:
448,0,128821,1,0,1:0:0:0:
64,0,128821,1,0,1:0:0:0:
192,0,128928,1,0,1:0:0:0:
64,0,128982,1,0,1:0:0:0:
448,0,129035,1,0,1:0:0:0:
320,0,129035,1,0,1:0:0:0:
64,0,129089,1,0,1:0:0:0:
192,0,129143,1,0,1:0:0:0:
320,0,129196,1,0,1:0:0:0:
448,0,129250,1,0,1:0:0:0:
64,0,129250,1,0,1:0:0:0:
320,0,129357,1,0,1:0:0:0:
192,0,129357,1,0,1:0:0:0:
448,192,129464,128,0,129571:0:0:0:0:
64,192,129464,128,0,129571:0:0:0:0:
320,0,129571,1,0,1:0:0:0:
192,0,129571,1,0,1:0:0:0:
64,192,129678,128,0,129785:0:0:0:0:
448,192,129678,128,0,129785:0:0:0:0:
448,192,129893,128,0,130000:0:0:0:0:
64,192,129893,128,0,130000:0:0:0:0:
320,0,130000,1,0,1:0:0:0:
192,0,130000,1,0,1:0:0:0:
64,192,130107,128,0,130214:0:0:0:0:
448,192,130107,128,0,130214:0:0:0:0:
448,0,130321,1,0,1:0:0:0:
320,0,130321,1,0,1:0:0:0:
192,0,130321,1,0,1:0:0:0:
192,0,130428,1,0,1:0:0:0:
64,0,130428,1,0,1:0:0:0:
448,0,130535,1,0,1:0:0:0:
320,0,130535,1,0,1:0:0:0:
192,0,130643,1,0,1:0:0:0:
320,0,130696,1,0,1:0:0:0:
448,0,130750,1,0,1:0:0:0:
64,0,130750,1,0,1:0:0:0:
192,0,130803,1,0,1:0:0:0:
320,0,130857,1,0,1:0:0:0:
448,0,130910,1,0,1:0:0:0:
192,0,130964,1,0,1:0:0:0:
64,0,130964,1,0,1:0:0:0:
448,0,131071,1,0,1:0:0:0:
192,0,131071,1,0,1:0:0:0:
320,0,131178,1,0,1:0:0:0:
64,0,131178,1,0,1:0:0:0:
192,0,131285,1,0,1:0:0:0:
448,0,131393,1,0,1:0:0:0:
320,0,131393,1,0,1:0:0:0:
64,0,131446,1,0,1:0:0:0:
192,0,131500,1,0,1:0:0:0:
448,0,131607,1,0,1:0:0:0:
64,0,131607,1,0,1:0:0:0:
320,0,131660,1,0,1:0:0:0:
192,0,131714,1,0,1:0:0:0:
64,0,131768,1,0,1:0:0:0:
448,0,131821,1,0,1:0:0:0:
320,0,131821,1,0,1:0:0:0:
192,0,131928,1,0,1:0:0:0:
64,0,131928,1,0,1:0:0:0:
320,0,132035,1,0,1:0:0:0:
64,0,132035,1,0,1:0:0:0:
448,0,132143,1,0,1:0:0:0:
192,0,132143,1,0,1:0:0:0:
320,0,132250,1,0,1:0:0:0:
64,0,132250,1,0,1:0:0:0:
448,0,132357,1,0,1:0:0:0:
320,0,132410,1,0,1:0:0:0:
192,0,132464,1,0,1:0:0:0:
64,0,132464,1,0,1:0:0:0:
448,0,132518,1,0,1:0:0:0:
320,0,132571,1,0,1:0:0:0:
192,0,132625,1,0,1:0:0:0:
448,0,132678,1,0,1:0:0:0:
64,0,132678,1,0,1:0:0:0:
448,0,132785,1,0,1:0:0:0:
192,0,132785,1,0,1:0:0:0:
320,0,132893,1,0,1:0:0:0:
64,0,132893,1,0,1:0:0:0:
192,0,133000,1,0,1:0:0:0:
448,0,133107,1,0,1:0:0:0:
320,0,133107,1,0,1:0:0:0:
64,0,133160,1,0,1:0:0:0:
192,0,133214,1,0,1:0:0:0:
448,0,133321,1,0,1:0:0:0:
64,0,133321,1,0,1:0:0:0:
320,0,133375,1,0,1:0:0:0:
192,0,133428,1,0,1:0:0:0:
64,0,133482,1,0,1:0:0:0:
448,0,133535,1,0,1:0:0:0:
320,0,133535,1,0,1:0:0:0:
192,0,133643,1,0,1:0:0:0:
448,0,133750,1,0,1:0:0:0:
320,0,133750,1,0,1:0:0:0:
64,0,133750,1,0,1:0:0:0:
192,0,133857,1,0,1:0:0:0:
64,0,133857,1,0,1:0:0:0:
448,0,133964,1,0,1:0:0:0:
320,0,133964,1,0,1:0:0:0:
192,0,134071,1,0,1:0:0:0:
448,0,134125,1,0,1:0:0:0:
320,0,134178,1,0,1:0:0:0:
64,0,134178,1,0,1:0:0:0:
192,0,134232,1,0,1:0:0:0:
448,0,134285,1,0,1:0:0:0:
64,0,134339,1,0,1:0:0:0:
320,0,134393,1,0,1:0:0:0:
192,0,134393,1,0,1:0:0:0:
320,0,134500,1,0,1:0:0:0:
64,0,134500,1,0,1:0:0:0:
448,0,134607,1,0,1:0:0:0:
192,0,134607,1,0,1:0:0:0:
320,0,134714,1,0,1:0:0:0:
192,0,134821,1,0,1:0:0:0:
64,0,134821,1,0,1:0:0:0:
448,0,134875,1,0,1:0:0:0:
320,0,134928,1,0,1:0:0:0:
448,0,135035,1,0,1:0:0:0:
64,0,135035,1,0,1:0:0:0:
192,0,135089,1,0,1:0:0:0:
320,0,135143,1,0,1:0:0:0:
448,0,135196,1,0,1:0:0:0:
192,0,135250,1,0,1:0:0:0:
64,0,135250,1,0,1:0:0:0:
448,0,135357,1,0,1:0:0:0:
320,0,135357,1,0,1:0:0:0:
448,0,135464,1,0,1:0:0:0:
64,0,135464,1,0,1:0:0:0:
448,0,135678,1,0,1:0:0:0:
192,192,135678,128,0,135785:0:0:0:0:
448,0,135893,1,0,1:0:0:0:
320,0,135893,1,0,1:0:0:0:
192,192,136000,1,0,0:0:0:0:
320,192,136107,128,0,136214:0:0:0:0:
192,192,136214,1,0,0:0:0:0:
64,192,136214,1,0,0:0:0:0:
448,192,136321,1,0,0:0:0:0:
64,192,136428,1,0,0:0:0:0:
320,0,136535,1,0,1:0:0:0:
192,0,136535,1,0,1:0:0:0:
448,192,136589,1,0,0:0:0:0:
320,192,136643,1,0,0:0:0:0:
192,0,136750,1,0,1:0:0:0:
64,0,136750,1,0,1:0:0:0:
448,192,136803,1,0,0:0:0:0:
192,192,136857,1,0,0:0:0:0:
64,0,136964,1,0,1:0:0:0:
448,192,137018,1,0,0:0:0:0:
320,192,137071,1,0,0:0:0:0:
448,0,137178,1,0,1:0:0:0:
192,0,137178,1,0,1:0:0:0:
64,0,137178,1,0,1:0:0:0:
320,0,137285,1,0,1:0:0:0:
192,0,137393,1,0,1:0:0:0:
192,0,137500,1,0,1:0:0:0:
448,0,137607,1,0,1:0:0:0:
320,0,137607,1,0,1:0:0:0:
64,0,137607,1,0,1:0:0:0:
192,0,137714,1,0,1:0:0:0:
320,0,137821,1,0,1:0:0:0:
320,0,137928,1,0,1:0:0:0:
448,0,138035,1,0,1:0:0:0:
192,0,138035,1,0,1:0:0:0:
64,0,138035,1,0,1:0:0:0:
320,0,138143,1,0,1:0:0:0:
192,0,138250,1,0,1:0:0:0:
192,0,138357,1,0,1:0:0:0:
320,0,138464,1,0,1:0:0:0:
64,0,138464,1,0,1:0:0:0:
192,0,138678,1,0,1:0:0:0:
448,0,138785,1,0,1:0:0:0:
64,0,138785,1,0,1:0:0:0:
448,0,138893,1,0,1:0:0:0:
320,0,138893,1,0,1:0:0:0:
192,0,138893,1,0,1:0:0:0:
64,0,138964,1,0,1:0:0:0:
192,0,139035,1,0,1:0:0:0:
320,0,139107,1,0,1:0:0:0:
192,0,139178,1,0,1:0:0:0:
64,0,139214,1,0,1:0:0:0:
448,0,139321,1,0,1:0:0:0:
320,0,139321,1,0,1:0:0:0:
64,0,139428,1,0,1:0:0:0:
448,0,139535,1,0,1:0:0:0:
192,0,139535,1,0,1:0:0:0:
320,0,139589,1,0,1:0:0:0:
192,0,139643,1,0,1:0:0:0:
64,0,139696,1,0,1:0:0:0:
320,0,139750,1,0,1:0:0:0:
448,0,139803,1,0,1:0:0:0:
192,0,139857,1,0,1:0:0:0:
320,0,139910,1,0,1:0:0:0:
64,0,139964,1,0,1:0:0:0:
448,0,140018,1,0,1:0:0:0:
192,0,140071,1,0,1:0:0:0:
320,0,140125,1,0,1:0:0:0:
448,0,140178,1,0,1:0:0:0:
64,0,140250,1,0,1:0:0:0:
448,0,140321,1,0,1:0:0:0:
320,0,140393,1,0,1:0:0:0:
64,0,140393,1,0,1:0:0:0:
192,0,140500,1,0,1:0:0:0:
448,0,140607,1,0,1:0:0:0:
320,0,140607,1,0,1:0:0:0:
64,0,140607,1,0,1:0:0:0:
192,0,140714,1,0,1:0:0:0:
320,0,140821,1,0,1:0:0:0:
320,0,140928,1,0,1:0:0:0:
448,0,141035,1,0,1:0:0:0:
192,0,141035,1,0,1:0:0:0:
64,0,141035,1,0,1:0:0:0:
320,0,141143,1,0,1:0:0:0:
192,0,141250,1,0,1:0:0:0:
192,0,141357,1,0,1:0:0:0:
448,0,141464,1,0,1:0:0:0:
320,0,141464,1,0,1:0:0:0:
64,0,141464,1,0,1:0:0:0:
192,0,141571,1,0,1:0:0:0:
320,0,141678,1,0,1:0:0:0:
320,0,141785,1,0,1:0:0:0:
192,0,141893,1,0,1:0:0:0:
64,0,141893,1,0,1:0:0:0:
192,192,142107,1,0,0:0:0:0:
448,0,142214,1,0,1:0:0:0:
320,0,142214,1,0,1:0:0:0:
320,0,142321,1,0,1:0:0:0:
192,0,142321,1,0,1:0:0:0:
64,0,142321,1,0,1:0:0:0:
448,0,142393,1,0,1:0:0:0:
320,0,142464,1,0,1:0:0:0:
192,0,142535,1,0,1:0:0:0:
320,0,142607,1,0,1:0:0:0:
448,192,142643,1,0,0:0:0:0:
64,0,142750,1,0,1:0:0:0:
192,192,142750,1,0,0:0:0:0:
448,0,142857,1,0,1:0:0:0:
320,0,142964,1,0,1:0:0:0:
64,0,142964,1,0,1:0:0:0:
192,0,143017,1,0,1:0:0:0:
320,0,143071,1,0,1:0:0:0:
448,0,143125,1,0,1:0:0:0:
64,0,143232,1,0,1:0:0:0:
192,0,143285,1,0,1:0:0:0:
320,0,143339,1,0,1:0:0:0:
448,0,143392,1,0,1:0:0:0:
64,0,143446,1,0,1:0:0:0:
320,0,143500,1,0,1:0:0:0:
192,0,143553,1,0,1:0:0:0:
64,0,143607,1,0,1:0:0:0:
448,0,143678,1,0,1:0:0:0:
64,0,143750,1,0,1:0:0:0:
448,0,143821,1,0,1:0:0:0:
320,0,143821,1,0,1:0:0:0:
192,0,143928,1,0,1:0:0:0:
448,0,144035,1,0,1:0:0:0:
320,0,144035,1,0,1:0:0:0:
64,0,144035,1,0,1:0:0:0:
192,0,144142,1,0,1:0:0:0:
320,0,144250,1,0,1:0:0:0:
320,0,144357,1,0,1:0:0:0:
448,0,144464,1,0,1:0:0:0:
192,0,144464,1,0,1:0:0:0:
64,0,144464,1,0,1:0:0:0:
320,0,144571,1,0,1:0:0:0:
192,0,144678,1,0,1:0:0:0:
192,0,144785,1,0,1:0:0:0:
448,0,144892,1,0,1:0:0:0:
320,0,144892,1,0,1:0:0:0:
64,0,144892,1,0,1:0:0:0:
192,0,145000,1,0,1:0:0:0:
320,0,145107,1,0,1:0:0:0:
320,0,145214,1,0,1:0:0:0:
192,0,145321,1,0,1:0:0:0:
64,0,145321,1,0,1:0:0:0:
192,192,145535,1,0,0:0:0:0:
448,0,145642,1,0,1:0:0:0:
64,0,145642,1,0,1:0:0:0:
448,0,145750,1,0,1:0:0:0:
320,0,145750,1,0,1:0:0:0:
192,0,145750,1,0,1:0:0:0:
64,0,145821,1,0,1:0:0:0:
192,0,145892,1,0,1:0:0:0:
320,0,145964,1,0,1:0:0:0:
448,0,146017,1,0,1:0:0:0:
64,0,146071,1,0,1:0:0:0:
192,0,146125,1,0,1:0:0:0:
448,0,146178,1,0,1:0:0:0:
320,0,146178,1,0,1:0:0:0:
192,0,146285,1,0,1:0:0:0:
64,0,146285,1,0,1:0:0:0:
448,0,146339,1,0,1:0:0:0:
320,0,146392,1,0,1:0:0:0:
192,0,146500,1,0,1:0:0:0:
64,0,146553,1,0,1:0:0:0:
448,0,146607,1,0,1:0:0:0:
320,0,146607,1,0,1:0:0:0:
192,0,146714,1,0,1:0:0:0:
448,0,146767,1,0,1:0:0:0:
192,0,146821,1,0,1:0:0:0:
64,0,146821,1,0,1:0:0:0:
320,0,146928,1,0,1:0:0:0:
448,0,147035,1,0,1:0:0:0:
192,0,147035,1,0,1:0:0:0:
64,0,147089,1,0,1:0:0:0:
320,0,147142,1,0,1:0:0:0:
192,0,147250,1,0,1:0:0:0:
64,0,147250,1,0,1:0:0:0:
448,0,147357,1,0,1:0:0:0:
320,0,147464,1,0,1:0:0:0:
192,0,147464,1,0,1:0:0:0:
64,0,147464,1,0,1:0:0:0:
192,0,147678,1,0,1:0:0:0:
192,0,147785,1,0,1:0:0:0:
64,0,147892,1,0,1:0:0:0:
64,0,148000,1,0,1:0:0:0:
64,0,148107,1,0,1:0:0:0:
64,0,148214,1,0,1:0:0:0:
448,0,148321,1,0,1:0:0:0:
320,0,148321,1,0,1:0:0:0:
192,0,148321,1,0,1:0:0:0:
320,0,148535,1,0,1:0:0:0:
320,0,148642,1,0,1:0:0:0:
448,0,148750,1,0,1:0:0:0:
448,0,148857,1,0,1:0:0:0:
448,0,148964,1,0,1:0:0:0:
448,0,149071,1,0,1:0:0:0:
320,0,149178,1,0,1:0:0:0:
192,0,149178,1,0,1:0:0:0:
64,0,149178,1,0,1:0:0:0:
448,0,149285,1,0,1:0:0:0:
192,0,149392,1,0,1:0:0:0:
64,0,149392,1,0,1:0:0:0:
192,0,149500,1,0,1:0:0:0:
64,0,149500,1,0,1:0:0:0:
448,0,149607,1,0,1:0:0:0:
320,0,149607,1,0,1:0:0:0:
64,0,149607,1,0,1:0:0:0:
192,0,149714,1,0,1:0:0:0:
448,0,149821,1,0,1:0:0:0:
320,0,149821,1,0,1:0:0:0:
448,0,149928,1,0,1:0:0:0:
320,0,149928,1,0,1:0:0:0:
448,0,150035,1,0,1:0:0:0:
192,0,150035,1,0,1:0:0:0:
64,0,150035,1,0,1:0:0:0:
320,0,150142,1,0,1:0:0:0:
64,0,150250,1,0,1:0:0:0:
192,0,150357,1,0,1:0:0:0:
64,0,150357,1,0,1:0:0:0:
64,0,150464,1,0,1:0:0:0:
192,0,150464,1,0,1:0:0:0:
320,192,150464,128,0,150571:0:0:0:0:
448,192,150464,128,0,150571:0:0:0:0:
320,0,150678,1,0,1:0:0:0:
448,0,150678,1,0,1:0:0:0:
192,192,150678,128,0,150785:0:0:0:0:
64,192,150678,128,0,150785:0:0:0:0:
448,0,150892,1,0,1:0:0:0:
320,0,150892,1,0,1:0:0:0:
192,0,150892,1,0,1:0:0:0:
448,0,151000,1,0,1:0:0:0:
64,0,151107,1,0,1:0:0:0:
192,0,151160,1,0,1:0:0:0:
320,0,151214,1,0,1:0:0:0:
448,0,151267,1,0,1:0:0:0:
192,0,151321,1,0,1:0:0:0:
64,0,151321,1,0,1:0:0:0:
448,0,151375,1,0,1:0:0:0:
320,0,151428,1,0,1:0:0:0:
192,0,151464,1,0,1:0:0:0:
64,0,151500,1,0,1:0:0:0:
448,0,151535,1,0,1:0:0:0:
320,0,151642,1,0,1:0:0:0:
64,0,151642,1,0,1:0:0:0:
192,0,151750,1,0,1:0:0:0:
448,0,151803,1,0,1:0:0:0:
64,0,151821,1,0,1:0:0:0:
320,0,151892,1,0,1:0:0:0:
192,0,151964,1,0,1:0:0:0:
64,0,151964,1,0,1:0:0:0:
192,0,152071,1,0,1:0:0:0:
64,0,152071,1,0,1:0:0:0:
320,0,152178,1,0,1:0:0:0:
448,0,152178,1,0,1:0:0:0:
64,0,152178,1,0,1:0:0:0:
192,0,152178,1,0,1:0:0:0:
448,0,152285,1,0,1:0:0:0:
320,0,152285,1,0,1:0:0:0:
448,0,152392,1,0,1:0:0:0:
320,0,152392,1,0,1:0:0:0:
192,0,152428,1,0,1:0:0:0:
64,0,152500,1,0,1:0:0:0:
320,0,152571,1,0,1:0:0:0:
448,0,152607,1,0,1:0:0:0:
192,0,152607,1,0,1:0:0:0:
192,0,152714,1,0,1:0:0:0:
448,0,152821,1,0,1:0:0:0:
320,0,152875,1,0,1:0:0:0:
192,0,152928,1,0,1:0:0:0:
64,0,152982,1,0,1:0:0:0:
448,0,153035,1,0,1:0:0:0:
320,0,153035,1,0,1:0:0:0:
64,0,153089,1,0,1:0:0:0:
192,0,153142,1,0,1:0:0:0:
320,0,153178,1,0,1:0:0:0:
448,0,153214,1,0,1:0:0:0:
64,0,153250,1,0,1:0:0:0:
320,0,153357,1,0,1:0:0:0:
192,0,153357,1,0,1:0:0:0:
448,0,153464,1,0,1:0:0:0:
320,0,153517,1,0,1:0:0:0:
64,0,153535,1,0,1:0:0:0:
192,0,153607,1,0,1:0:0:0:
448,0,153678,1,0,1:0:0:0:
320,0,153678,1,0,1:0:0:0:
448,0,153785,1,0,1:0:0:0:
320,0,153785,1,0,1:0:0:0:
320,0,153892,1,0,1:0:0:0:
448,0,153892,1,0,1:0:0:0:
64,0,153892,1,0,1:0:0:0:
192,0,153892,1,0,1:0:0:0:
192,0,154000,1,0,1:0:0:0:
64,0,154000,1,0,1:0:0:0:
192,0,154107,1,0,1:0:0:0:
64,0,154107,1,0,1:0:0:0:
320,0,154178,1,0,1:0:0:0:
448,0,154250,1,0,1:0:0:0:
320,0,154321,1,0,1:0:0:0:
192,0,154321,1,0,1:0:0:0:
64,0,154321,1,0,1:0:0:0:
192,0,154428,1,0,1:0:0:0:
64,0,154535,1,0,1:0:0:0:
192,0,154589,1,0,1:0:0:0:
320,0,154642,1,0,1:0:0:0:
448,0,154696,1,0,1:0:0:0:
192,0,154750,1,0,1:0:0:0:
64,0,154750,1,0,1:0:0:0:
448,0,154803,1,0,1:0:0:0:
320,0,154857,1,0,1:0:0:0:
192,0,154892,1,0,1:0:0:0:
64,0,154928,1,0,1:0:0:0:
448,0,154964,1,0,1:0:0:0:
320,0,155071,1,0,1:0:0:0:
192,0,155071,1,0,1:0:0:0:
64,0,155178,1,0,1:0:0:0:
448,0,155285,1,0,1:0:0:0:
320,0,155285,1,0,1:0:0:0:
192,0,155392,1,0,1:0:0:0:
64,0,155392,1,0,1:0:0:0:
192,0,155500,1,0,1:0:0:0:
64,0,155500,1,0,1:0:0:0:
320,0,155607,1,0,1:0:0:0:
448,0,155607,1,0,1:0:0:0:
64,0,155607,1,0,1:0:0:0:
192,0,155607,1,0,1:0:0:0:
448,0,155714,1,0,1:0:0:0:
320,0,155714,1,0,1:0:0:0:
448,0,155821,1,0,1:0:0:0:
320,0,155821,1,0,1:0:0:0:
192,0,155875,1,0,1:0:0:0:
64,0,155928,1,0,1:0:0:0:
320,0,155982,1,0,1:0:0:0:
448,0,156035,1,0,1:0:0:0:
192,0,156035,1,0,1:0:0:0:
192,0,156142,1,0,1:0:0:0:
448,0,156250,1,0,1:0:0:0:
320,0,156303,1,0,1:0:0:0:
192,0,156357,1,0,1:0:0:0:
64,0,156410,1,0,1:0:0:0:
448,0,156464,1,0,1:0:0:0:
320,0,156464,1,0,1:0:0:0:
64,0,156517,1,0,1:0:0:0:
192,0,156571,1,0,1:0:0:0:
320,0,156607,1,0,1:0:0:0:
448,0,156642,1,0,1:0:0:0:
64,0,156678,1,0,1:0:0:0:
448,0,156785,1,0,1:0:0:0:
192,0,156785,1,0,1:0:0:0:
320,0,156892,1,0,1:0:0:0:
192,0,157000,1,0,1:0:0:0:
64,0,157000,1,0,1:0:0:0:
448,0,157107,1,0,1:0:0:0:
320,0,157107,1,0,1:0:0:0:
192,0,157214,1,0,1:0:0:0:
64,0,157214,1,0,1:0:0:0:
320,0,157267,1,0,1:0:0:0:
448,0,157321,1,0,1:0:0:0:
320,0,157375,1,0,1:0:0:0:
192,0,157428,1,0,1:0:0:0:
64,0,157482,1,0,1:0:0:0:
448,0,157535,1,0,1:0:0:0:
192,0,157535,1,0,1:0:0:0:
320,0,157589,1,0,1:0:0:0:
64,0,157642,1,0,1:0:0:0:
448,0,157750,1,0,1:0:0:0:
320,0,157750,1,0,1:0:0:0:
192,0,157750,1,0,1:0:0:0:
448,0,157857,1,0,1:0:0:0:
64,0,157964,1,0,1:0:0:0:
192,0,158017,1,0,1:0:0:0:
320,0,158071,1,0,1:0:0:0:
448,0,158125,1,0,1:0:0:0:
192,0,158178,1,0,1:0:0:0:
64,0,158178,1,0,1:0:0:0:
448,0,158232,1,0,1:0:0:0:
320,0,158285,1,0,1:0:0:0:
192,0,158321,1,0,1:0:0:0:
64,0,158357,1,0,1:0:0:0:
448,0,158392,1,0,1:0:0:0:
320,0,158500,1,0,1:0:0:0:
192,0,158500,1,0,1:0:0:0:
64,0,158607,1,0,1:0:0:0:
448,0,158660,1,0,1:0:0:0:
192,0,158678,1,0,1:0:0:0:
64,0,158750,1,0,1:0:0:0:
448,0,158821,1,0,1:0:0:0:
320,0,158821,1,0,1:0:0:0:
448,0,158928,1,0,1:0:0:0:
320,0,158928,1,0,1:0:0:0:
320,0,159035,1,0,1:0:0:0:
448,0,159035,1,0,1:0:0:0:
64,0,159035,1,0,1:0:0:0:
192,0,159035,1,0,1:0:0:0:
192,0,159142,1,0,1:0:0:0:
64,0,159142,1,0,1:0:0:0:
192,0,159250,1,0,1:0:0:0:
64,0,159250,1,0,1:0:0:0:
320,0,159285,1,0,1:0:0:0:
448,0,159357,1,0,1:0:0:0:
192,0,159428,1,0,1:0:0:0:
320,0,159464,1,0,1:0:0:0:
64,0,159464,1,0,1:0:0:0:
64,0,159571,1,0,1:0:0:0:
448,0,159678,1,0,1:0:0:0:
320,0,159732,1,0,1:0:0:0:
192,0,159785,1,0,1:0:0:0:
64,0,159839,1,0,1:0:0:0:
448,0,159892,1,0,1:0:0:0:
320,0,159892,1,0,1:0:0:0:
64,0,159946,1,0,1:0:0:0:
192,0,160000,1,0,1:0:0:0:
320,0,160035,1,0,1:0:0:0:
448,0,160071,1,0,1:0:0:0:
64,0,160107,1,0,1:0:0:0:
320,0,160214,1,0,1:0:0:0:
192,0,160214,1,0,1:0:0:0:
64,0,160321,1,0,1:0:0:0:
448,0,160375,1,0,1:0:0:0:
192,0,160392,1,0,1:0:0:0:
320,0,160464,1,0,1:0:0:0:
192,0,160535,1,0,1:0:0:0:
64,0,160535,1,0,1:0:0:0:
192,0,160642,1,0,1:0:0:0:
64,0,160642,1,0,1:0:0:0:
320,0,160750,1,0,1:0:0:0:
448,0,160750,1,0,1:0:0:0:
64,0,160750,1,0,1:0:0:0:
192,0,160750,1,0,1:0:0:0:
448,0,160857,1,0,1:0:0:0:
320,0,160857,1,0,1:0:0:0:
448,0,160964,1,0,1:0:0:0:
320,0,160964,1,0,1:0:0:0:
192,0,161035,1,0,1:0:0:0:
64,0,161107,1,0,1:0:0:0:
448,0,161178,1,0,1:0:0:0:
320,0,161178,1,0,1:0:0:0:
192,0,161178,1,0,1:0:0:0:
320,0,161285,1,0,1:0:0:0:
64,0,161392,1,0,1:0:0:0:
192,0,161446,1,0,1:0:0:0:
320,0,161500,1,0,1:0:0:0:
448,0,161553,1,0,1:0:0:0:
192,0,161607,1,0,1:0:0:0:
64,0,161607,1,0,1:0:0:0:
448,0,161660,1,0,1:0:0:0:
320,0,161714,1,0,1:0:0:0:
192,0,161750,1,0,1:0:0:0:
64,0,161785,1,0,1:0:0:0:
448,0,161821,1,0,1:0:0:0:
320,0,161928,1,0,1:0:0:0:
192,0,161928,1,0,1:0:0:0:
448,0,162035,1,0,1:0:0:0:
192,0,162142,1,0,1:0:0:0:
64,0,162142,1,0,1:0:0:0:
448,0,162250,1,0,1:0:0:0:
320,0,162250,1,0,1:0:0:0:
448,0,162357,1,0,1:0:0:0:
320,0,162357,1,0,1:0:0:0:
320,0,162464,1,0,1:0:0:0:
448,0,162464,1,0,1:0:0:0:
64,0,162464,1,0,1:0:0:0:
192,0,162464,1,0,1:0:0:0:
192,0,162571,1,0,1:0:0:0:
64,0,162571,1,0,1:0:0:0:
192,0,162678,1,0,1:0:0:0:
64,0,162678,1,0,1:0:0:0:
448,0,162732,1,0,1:0:0:0:
320,0,162785,1,0,1:0:0:0:
192,0,162839,1,0,1:0:0:0:
448,0,162892,1,0,1:0:0:0:
64,0,162892,1,0,1:0:0:0:
192,0,162946,1,0,1:0:0:0:
320,0,163000,1,0,1:0:0:0:
448,0,163035,1,0,1:0:0:0:
64,0,163053,1,0,1:0:0:0:
320,0,163107,1,0,1:0:0:0:
192,0,163107,1,0,1:0:0:0:
192,0,163214,1,0,1:0:0:0:
448,0,163321,128,0,163428:0:0:0:0:
320,0,163321,1,0,1:0:0:0:
320,0,163535,1,0,1:0:0:0:
64,0,163535,1,0,1:0:0:0:
192,0,163589,1,0,1:0:0:0:
448,0,163642,1,0,1:0:0:0:
320,0,163678,1,0,1:0:0:0:
64,0,163696,1,0,1:0:0:0:
448,0,163750,1,0,1:0:0:0:
192,0,163750,1,0,1:0:0:0:
192,0,163857,1,0,1:0:0:0:
448,0,163964,128,0,164071:0:0:0:0:
320,0,163964,1,0,1:0:0:0:
64,0,164071,1,0,1:0:0:0:
192,192,164178,128,0,164232:0:0:0:0:
192,192,164392,128,0,164446:0:0:0:0:
448,0,164607,1,0,1:0:0:0:
320,0,164607,1,0,1:0:0:0:
192,0,164607,1,0,1:0:0:0:
448,0,164714,1,0,1:0:0:0:
64,0,164821,1,0,1:0:0:0:
192,0,164875,1,0,1:0:0:0:
320,0,164928,1,0,1:0:0:0:
448,0,164982,1,0,1:0:0:0:
192,0,165035,1,0,1:0:0:0:
64,0,165035,1,0,1:0:0:0:
448,0,165089,1,0,1:0:0:0:
320,0,165142,1,0,1:0:0:0:
192,0,165178,1,0,1:0:0:0:
64,0,165214,1,0,1:0:0:0:
448,0,165250,1,0,1:0:0:0:
320,0,165357,1,0,1:0:0:0:
64,0,165357,1,0,1:0:0:0:
192,0,165464,1,0,1:0:0:0:
448,0,165517,1,0,1:0:0:0:
64,0,165535,1,0,1:0:0:0:
320,0,165607,1,0,1:0:0:0:
192,0,165678,1,0,1:0:0:0:
64,0,165678,1,0,1:0:0:0:
192,0,165785,1,0,1:0:0:0:
64,0,165785,1,0,1:0:0:0:
320,0,165892,1,0,1:0:0:0:
448,0,165892,1,0,1:0:0:0:
64,0,165892,1,0,1:0:0:0:
192,0,165892,1,0,1:0:0:0:
448,0,166000,1,0,1:0:0:0:
320,0,166000,1,0,1:0:0:0:
448,0,166107,1,0,1:0:0:0:
320,0,166107,1,0,1:0:0:0:
192,0,166142,1,0,1:0:0:0:
64,0,166214,1,0,1:0:0:0:
320,0,166285,1,0,1:0:0:0:
448,0,166321,1,0,1:0:0:0:
192,0,166321,1,0,1:0:0:0:
192,0,166428,1,0,1:0:0:0:
448,0,166535,1,0,1:0:0:0:
320,0,166589,1,0,1:0:0:0:
192,0,166642,1,0,1:0:0:0:
64,0,166696,1,0,1:0:0:0:
448,0,166750,1,0,1:0:0:0:
320,0,166750,1,0,1:0:0:0:
64,0,166803,1,0,1:0:0:0:
192,0,166857,1,0,1:0:0:0:
320,0,166892,1,0,1:0:0:0:
448,0,166928,1,0,1:0:0:0:
64,0,166964,1,0,1:0:0:0:
320,0,167071,1,0,1:0:0:0:
192,0,167071,1,0,1:0:0:0:
448,0,167178,1,0,1:0:0:0:
320,0,167232,1,0,1:0:0:0:
64,0,167250,1,0,1:0:0:0:
192,0,167321,1,0,1:0:0:0:
448,0,167392,1,0,1:0:0:0:
320,0,167392,1,0,1:0:0:0:
448,0,167500,1,0,1:0:0:0:
320,0,167500,1,0,1:0:0:0:
320,0,167607,1,0,1:0:0:0:
448,0,167607,1,0,1:0:0:0:
64,0,167607,1,0,1:0:0:0:
192,0,167607,1,0,1:0:0:0:
192,0,167714,1,0,1:0:0:0:
64,0,167714,1,0,1:0:0:0:
192,0,167821,1,0,1:0:0:0:
64,0,167821,1,0,1:0:0:0:
320,0,167892,1,0,1:0:0:0:
448,0,167964,1,0,1:0:0:0:
320,0,168035,1,0,1:0:0:0:
192,0,168035,1,0,1:0:0:0:
64,0,168035,1,0,1:0:0:0:
192,0,168142,1,0,1:0:0:0:
64,0,168250,1,0,1:0:0:0:
192,0,168303,1,0,1:0:0:0:
320,0,168357,1,0,1:0:0:0:
448,0,168410,1,0,1:0:0:0:
192,0,168464,1,0,1:0:0:0:
64,0,168464,1,0,1:0:0:0:
448,0,168517,1,0,1:0:0:0:
320,0,168571,1,0,1:0:0:0:
192,0,168607,1,0,1:0:0:0:
64,0,168642,1,0,1:0:0:0:
448,0,168678,1,0,1:0:0:0:
320,0,168785,1,0,1:0:0:0:
192,0,168785,1,0,1:0:0:0:
64,0,168892,1,0,1:0:0:0:
448,0,169000,1,0,1:0:0:0:
320,0,169000,1,0,1:0:0:0:
192,0,169107,1,0,1:0:0:0:
64,0,169107,1,0,1:0:0:0:
192,0,169214,1,0,1:0:0:0:
64,0,169214,1,0,1:0:0:0:
320,0,169321,1,0,1:0:0:0:
448,0,169321,1,0,1:0:0:0:
64,0,169321,1,0,1:0:0:0:
192,0,169321,1,0,1:0:0:0:
448,0,169428,1,0,1:0:0:0:
320,0,169428,1,0,1:0:0:0:
448,0,169535,1,0,1:0:0:0:
320,0,169535,1,0,1:0:0:0:
192,0,169589,1,0,1:0:0:0:
64,0,169642,1,0,1:0:0:0:
320,0,169696,1,0,1:0:0:0:
448,0,169750,1,0,1:0:0:0:
192,0,169750,1,0,1:0:0:0:
192,0,169857,1,0,1:0:0:0:
448,0,169964,1,0,1:0:0:0:
320,0,170017,1,0,1:0:0:0:
192,0,170071,1,0,1:0:0:0:
64,0,170125,1,0,1:0:0:0:
448,0,170178,1,0,1:0:0:0:
320,0,170178,1,0,1:0:0:0:
64,0,170232,1,0,1:0:0:0:
192,0,170285,1,0,1:0:0:0:
320,0,170321,1,0,1:0:0:0:
448,0,170357,1,0,1:0:0:0:
64,0,170392,1,0,1:0:0:0:
448,0,170500,1,0,1:0:0:0:
192,0,170500,1,0,1:0:0:0:
320,0,170607,1,0,1:0:0:0:
192,0,170714,1,0,1:0:0:0:
64,0,170714,1,0,1:0:0:0:
448,0,170821,1,0,1:0:0:0:
320,0,170821,1,0,1:0:0:0:
192,0,170928,1,0,1:0:0:0:
64,0,170928,1,0,1:0:0:0:
320,0,170982,1,0,1:0:0:0:
448,0,171035,1,0,1:0:0:0:
320,0,171089,1,0,1:0:0:0:
192,0,171142,1,0,1:0:0:0:
64,0,171196,1,0,1:0:0:0:
448,0,171250,1,0,1:0:0:0:
192,0,171250,1,0,1:0:0:0:
320,0,171303,1,0,1:0:0:0:
64,0,171357,1,0,1:0:0:0:
448,0,171464,1,0,1:0:0:0:
320,0,171464,1,0,1:0:0:0:
192,0,171464,1,0,1:0:0:0:
448,0,171571,1,0,1:0:0:0:
64,0,171678,1,0,1:0:0:0:
192,0,171732,1,0,1:0:0:0:
320,0,171785,1,0,1:0:0:0:
448,0,171839,1,0,1:0:0:0:
192,0,171892,1,0,1:0:0:0:
64,0,171892,1,0,1:0:0:0:
448,0,171946,1,0,1:0:0:0:
320,0,172000,1,0,1:0:0:0:
192,0,172035,1,0,1:0:0:0:
64,0,172071,1,0,1:0:0:0:
448,0,172107,1,0,1:0:0:0:
320,0,172214,1,0,1:0:0:0:
192,0,172214,1,0,1:0:0:0:
64,0,172321,1,0,1:0:0:0:
448,0,172375,1,0,1:0:0:0:
192,0,172392,1,0,1:0:0:0:
64,0,172464,1,0,1:0:0:0:
448,0,172535,1,0,1:0:0:0:
320,0,172535,1,0,1:0:0:0:
448,0,172642,1,0,1:0:0:0:
320,0,172642,1,0,1:0:0:0:
320,0,172750,1,0,1:0:0:0:
448,0,172750,1,0,1:0:0:0:
64,0,172750,1,0,1:0:0:0:
192,0,172750,1,0,1:0:0:0:
192,0,172857,1,0,1:0:0:0:
64,0,172857,1,0,1:0:0:0:
192,0,172964,1,0,1:0:0:0:
64,0,172964,1,0,1:0:0:0:
320,0,173000,1,0,1:0:0:0:
448,0,173071,1,0,1:0:0:0:
192,0,173142,1,0,1:0:0:0:
320,0,173178,1,0,1:0:0:0:
64,0,173178,1,0,1:0:0:0:
64,0,173285,1,0,1:0:0:0:
448,0,173392,1,0,1:0:0:0:
320,0,173446,1,0,1:0:0:0:
192,0,173500,1,0,1:0:0:0:
64,0,173553,1,0,1:0:0:0:
448,0,173607,1,0,1:0:0:0:
320,0,173607,1,0,1:0:0:0:
64,0,173660,1,0,1:0:0:0:
192,0,173714,1,0,1:0:0:0:
320,0,173750,1,0,1:0:0:0:
448,0,173785,1,0,1:0:0:0:
64,0,173821,1,0,1:0:0:0:
320,0,173928,1,0,1:0:0:0:
192,0,173928,1,0,1:0:0:0:
64,0,174035,1,0,1:0:0:0:
448,0,174089,1,0,1:0:0:0:
192,0,174107,1,0,1:0:0:0:
320,0,174178,1,0,1:0:0:0:
192,0,174250,1,0,1:0:0:0:
64,0,174250,1,0,1:0:0:0:
192,0,174357,1,0,1:0:0:0:
64,0,174357,1,0,1:0:0:0:
320,0,174464,1,0,1:0:0:0:
448,0,174464,1,0,1:0:0:0:
64,0,174464,1,0,1:0:0:0:
192,0,174464,1,0,1:0:0:0:
448,0,174571,1,0,1:0:0:0:
320,0,174571,1,0,1:0:0:0:
448,0,174678,1,0,1:0:0:0:
320,0,174678,1,0,1:0:0:0:
192,0,174750,1,0,1:0:0:0:
64,0,174821,1,0,1:0:0:0:
448,0,174892,1,0,1:0:0:0:
320,0,174892,1,0,1:0:0:0:
192,0,174892,1,0,1:0:0:0:
320,0,175000,1,0,1:0:0:0:
64,0,175107,1,0,1:0:0:0:
192,0,175160,1,0,1:0:0:0:
320,0,175214,1,0,1:0:0:0:
448,0,175267,1,0,1:0:0:0:
192,0,175321,1,0,1:0:0:0:
64,0,175321,1,0,1:0:0:0:
448,0,175375,1,0,1:0:0:0:
320,0,175428,1,0,1:0:0:0:
192,0,175464,1,0,1:0:0:0:
64,0,175500,1,0,1:0:0:0:
448,0,175535,1,0,1:0:0:0:
320,0,175642,1,0,1:0:0:0:
192,0,175642,1,0,1:0:0:0:
320,0,175750,1,0,1:0:0:0:
64,0,175750,1,0,1:0:0:0:
192,0,175857,1,0,1:0:0:0:
448,0,175964,1,0,1:0:0:0:
320,0,175964,1,0,1:0:0:0:
192,0,176071,1,0,1:0:0:0:
64,0,176071,1,0,1:0:0:0:
320,0,176125,1,0,1:0:0:0:
448,0,176178,1,0,1:0:0:0:
320,0,176232,1,0,1:0:0:0:
192,0,176285,1,0,1:0:0:0:
64,0,176339,1,0,1:0:0:0:
448,0,176392,1,0,1:0:0:0:
192,0,176392,1,0,1:0:0:0:
448,0,176500,1,0,1:0:0:0:
320,0,176607,1,0,1:0:0:0:
64,0,176607,1,0,1:0:0:0:
192,0,176660,1,0,1:0:0:0:
64,0,176714,1,0,1:0:0:0:
448,0,176821,1,0,1:0:0:0:
320,0,176821,1,0,1:0:0:0:
192,0,176928,1,0,1:0:0:0:
64,0,176928,1,0,1:0:0:0:
320,0,176982,1,0,1:0:0:0:
448,0,177035,1,0,1:0:0:0:
320,0,177089,1,0,1:0:0:0:
192,0,177142,1,0,1:0:0:0:
64,0,177196,1,0,1:0:0:0:
448,0,177250,1,0,1:0:0:0:
192,0,177250,1,0,1:0:0:0:
448,0,177357,1,0,1:0:0:0:
320,0,177464,1,0,1:0:0:0:
64,0,177464,1,0,1:0:0:0:
192,0,177517,1,0,1:0:0:0:
64,0,177571,1,0,1:0:0:0:
448,0,177678,1,0,1:0:0:0:
320,0,177678,1,0,1:0:0:0:
192,0,177785,1,0,1:0:0:0:
64,0,177785,1,0,1:0:0:0:
320,0,177839,1,0,1:0:0:0:
448,0,177892,1,0,1:0:0:0:
320,0,177946,1,0,1:0:0:0:
192,0,178000,1,0,1:0:0:0:
64,0,178053,1,0,1:0:0:0:
448,0,178107,1,0,1:0:0:0:
192,0,178107,1,0,1:0:0:0:
320,0,178160,1,0,1:0:0:0:
448,0,178214,1,0,1:0:0:0:
320,0,178321,1,0,1:0:0:0:
192,0,178321,1,0,1:0:0:0:
64,0,178321,1,0,1:0:0:0:
448,0,178428,1,0,1:0:0:0:
320,0,178535,1,0,1:0:0:0:
192,0,178535,1,0,1:0:0:0:
320,0,178642,1,0,1:0:0:0:
448,0,178750,1,0,1:0:0:0:
192,0,178750,1,0,1:0:0:0:
64,0,178750,1,0,1:0:0:0:
64,0,178857,1,0,1:0:0:0:
448,0,178964,1,0,1:0:0:0:
320,0,179071,1,0,1:0:0:0:
64,0,179071,1,0,1:0:0:0:
192,0,179178,1,0,1:0:0:0:
448,0,179285,1,0,1:0:0:0:
320,0,179392,1,0,1:0:0:0:
64,0,179392,1,0,1:0:0:0:
448,0,179500,1,0,1:0:0:0:
320,0,179607,1,0,1:0:0:0:
192,0,179607,1,0,1:0:0:0:
64,0,179607,1,0,1:0:0:0:
192,0,179714,1,0,1:0:0:0:
448,0,179821,1,0,1:0:0:0:
320,0,179821,1,0,1:0:0:0:
320,0,179928,1,0,1:0:0:0:
448,0,180035,1,0,1:0:0:0:
64,0,180035,1,0,1:0:0:0:
320,0,180142,1,0,1:0:0:0:
192,0,180250,1,0,1:0:0:0:
64,0,180250,1,0,1:0:0:0:
192,0,180357,1,0,1:0:0:0:
448,0,180464,1,0,1:0:0:0:
320,0,180464,1,0,1:0:0:0:
64,0,180464,1,0,1:0:0:0:
448,0,180571,1,0,1:0:0:0:
192,0,180678,1,0,1:0:0:0:
320,0,180785,1,0,1:0:0:0:
64,0,180785,1,0,1:0:0:0:
192,0,180892,1,0,1:0:0:0:
448,0,181000,1,0,1:0:0:0:
320,0,181107,1,0,1:0:0:0:
64,0,181107,1,0,1:0:0:0:
448,0,181214,1,0,1:0:0:0:
320,0,181321,1,0,1:0:0:0:
192,0,181321,1,0,1:0:0:0:
64,0,181321,1,0,1:0:0:0:
192,0,181428,1,0,1:0:0:0:
448,0,181535,1,0,1:0:0:0:
320,0,181535,1,0,1:0:0:0:
320,0,181642,1,0,1:0:0:0:
448,0,181750,1,0,1:0:0:0:
64,0,181750,1,0,1:0:0:0:
192,0,181857,1,0,1:0:0:0:
320,0,181964,1,0,1:0:0:0:
64,0,181964,1,0,1:0:0:0:
64,0,182071,1,0,1:0:0:0:
448,0,182178,1,0,1:0:0:0:
320,0,182178,1,0,1:0:0:0:
192,0,182178,1,0,1:0:0:0:
192,0,182285,1,0,1:0:0:0:
64,0,182392,1,0,1:0:0:0:
320,0,182500,1,0,1:0:0:0:
192,0,182500,1,0,1:0:0:0:
64,0,182607,1,0,1:0:0:0:
448,0,182714,1,0,1:0:0:0:
320,0,182821,1,0,1:0:0:0:
192,0,182821,1,0,1:0:0:0:
448,0,182928,1,0,1:0:0:0:
320,0,183035,1,0,1:0:0:0:
192,0,183035,1,0,1:0:0:0:
64,0,183035,1,0,1:0:0:0:
64,0,183142,1,0,1:0:0:0:
448,0,183250,1,0,1:0:0:0:
192,0,183250,1,0,1:0:0:0:
192,0,183357,1,0,1:0:0:0:
320,0,183464,1,0,1:0:0:0:
64,0,183464,1,0,1:0:0:0:
448,0,183571,1,0,1:0:0:0:
320,0,183678,1,0,1:0:0:0:
192,0,183678,1,0,1:0:0:0:
320,0,183785,1,0,1:0:0:0:
448,0,183892,1,0,1:0:0:0:
192,0,183892,1,0,1:0:0:0:
64,0,183892,1,0,1:0:0:0:
64,0,184000,1,0,1:0:0:0:
320,0,184107,1,0,1:0:0:0:
448,0,184214,1,0,1:0:0:0:
192,0,184214,1,0,1:0:0:0:
64,0,184321,1,0,1:0:0:0:
448,0,184428,1,0,1:0:0:0:
192,0,184428,1,0,1:0:0:0:
320,0,184535,1,0,1:0:0:0:
64,0,184535,1,0,1:0:0:0:
192,0,184642,1,0,1:0:0:0:
64,0,184642,1,0,1:0:0:0:
448,0,184750,1,0,1:0:0:0:
64,0,184750,1,0,1:0:0:0:
448,0,184857,1,0,1:0:0:0:
320,0,184857,1,0,1:0:0:0:
448,0,184964,1,0,1:0:0:0:
192,0,184964,1,0,1:0:0:0:
192,0,185071,1,0,1:0:0:0:
448,0,185178,1,0,1:0:0:0:
320,0,185178,1,0,1:0:0:0:
64,0,185178,1,0,1:0:0:0:
192,0,185285,1,0,1:0:0:0:
320,0,185392,1,0,1:0:0:0:
64,0,185392,1,0,1:0:0:0:
320,0,185500,1,0,1:0:0:0:
448,0,185607,1,0,1:0:0:0:
192,0,185607,1,0,1:0:0:0:
64,0,185607,1,0,1:0:0:0:
64,0,185714,1,0,1:0:0:0:
448,0,185821,1,0,1:0:0:0:
320,0,185928,1,0,1:0:0:0:
64,0,185928,1,0,1:0:0:0:
192,0,186035,1,0,1:0:0:0:
448,0,186142,1,0,1:0:0:0:
320,0,186250,1,0,1:0:0:0:
64,0,186250,1,0,1:0:0:0:
448,0,186357,1,0,1:0:0:0:
320,0,186464,1,0,1:0:0:0:
192,0,186464,1,0,1:0:0:0:
64,0,186464,1,0,1:0:0:0:
192,0,186571,1,0,1:0:0:0:
448,0,186678,1,0,1:0:0:0:
320,0,186678,1,0,1:0:0:0:
320,0,186785,1,0,1:0:0:0:
448,0,186892,1,0,1:0:0:0:
64,0,186892,1,0,1:0:0:0:
320,0,187000,1,0,1:0:0:0:
192,0,187107,1,0,1:0:0:0:
64,0,187107,1,0,1:0:0:0:
192,0,187214,1,0,1:0:0:0:
448,0,187321,1,0,1:0:0:0:
320,0,187321,1,0,1:0:0:0:
64,0,187321,1,0,1:0:0:0:
448,0,187428,1,0,1:0:0:0:
192,0,187535,1,0,1:0:0:0:
320,0,187642,1,0,1:0:0:0:
64,0,187642,1,0,1:0:0:0:
192,0,187750,1,0,1:0:0:0:
448,0,187857,1,0,1:0:0:0:
320,0,187964,1,0,1:0:0:0:
64,0,187964,1,0,1:0:0:0:
448,0,188071,1,0,1:0:0:0:
320,0,188178,1,0,1:0:0:0:
192,0,188178,1,0,1:0:0:0:
64,0,188178,1,0,1:0:0:0:
192,0,188285,1,0,1:0:0:0:
448,0,188392,1,0,1:0:0:0:
320,0,188392,1,0,1:0:0:0:
320,0,188500,1,0,1:0:0:0:
448,0,188607,1,0,1:0:0:0:
64,0,188607,1,0,1:0:0:0:
192,0,188714,1,0,1:0:0:0:
320,0,188821,1,0,1:0:0:0:
64,0,188821,1,0,1:0:0:0:
64,0,188928,1,0,1:0:0:0:
448,0,189035,1,0,1:0:0:0:
320,0,189035,1,0,1:0:0:0:
192,0,189035,1,0,1:0:0:0:
192,0,189142,1,0,1:0:0:0:
64,0,189250,1,0,1:0:0:0:
320,0,189357,1,0,1:0:0:0:
192,0,189357,1,0,1:0:0:0:
64,0,189464,1,0,1:0:0:0:
448,0,189571,1,0,1:0:0:0:
320,0,189678,1,0,1:0:0:0:
192,0,189678,1,0,1:0:0:0:
448,0,189785,1,0,1:0:0:0:
320,0,189892,1,0,1:0:0:0:
192,0,189892,1,0,1:0:0:0:
64,0,189892,1,0,1:0:0:0:
64,0,190000,1,0,1:0:0:0:
448,0,190107,1,0,1:0:0:0:
192,0,190107,1,0,1:0:0:0:
192,0,190214,1,0,1:0:0:0:
320,0,190321,1,0,1:0:0:0:
64,0,190321,1,0,1:0:0:0:
448,0,190428,1,0,1:0:0:0:
320,0,190535,1,0,1:0:0:0:
192,0,190535,1,0,1:0:0:0:
320,0,190642,1,0,1:0:0:0:
448,0,190750,1,0,1:0:0:0:
192,0,190750,1,0,1:0:0:0:
64,0,190750,1,0,1:0:0:0:
64,0,190857,1,0,1:0:0:0:
192,0,190964,1,0,1:0:0:0:
448,0,191071,1,0,1:0:0:0:
320,0,191071,1,0,1:0:0:0:
64,0,191178,1,0,1:0:0:0:
448,0,191285,1,0,1:0:0:0:
320,0,191285,1,0,1:0:0:0:
192,0,191392,1,0,1:0:0:0:
64,0,191392,1,0,1:0:0:0:
192,0,191500,1,0,1:0:0:0:
64,0,191500,1,0,1:0:0:0:
320,0,191607,1,0,1:0:0:0:
448,0,191607,1,0,1:0:0:0:
64,0,191607,1,0,1:0:0:0:
192,0,191607,1,0,1:0:0:0:
448,0,191714,1,0,1:0:0:0:
320,0,191714,1,0,1:0:0:0:
192,0,191821,1,0,1:0:0:0:
64,0,191821,1,0,1:0:0:0:
192,0,191928,1,0,1:0:0:0:
448,0,192035,1,0,1:0:0:0:
320,0,192035,1,0,1:0:0:0:
64,0,192035,1,0,1:0:0:0:
192,0,192142,1,0,1:0:0:0:
448,0,192250,1,0,1:0:0:0:
320,0,192250,1,0,1:0:0:0:
320,0,192357,1,0,1:0:0:0:
448,0,192464,1,0,1:0:0:0:
192,0,192464,1,0,1:0:0:0:
64,0,192464,1,0,1:0:0:0:
64,0,192571,1,0,1:0:0:0:
448,0,192678,1,0,1:0:0:0:
320,0,192785,1,0,1:0:0:0:
64,0,192785,1,0,1:0:0:0:
192,0,192892,1,0,1:0:0:0:
448,0,193000,1,0,1:0:0:0:
320,0,193107,1,0,1:0:0:0:
64,0,193107,1,0,1:0:0:0:
448,0,193214,1,0,1:0:0:0:
320,0,193321,1,0,1:0:0:0:
192,0,193321,1,0,1:0:0:0:
64,0,193321,1,0,1:0:0:0:
192,0,193428,1,0,1:0:0:0:
448,0,193535,1,0,1:0:0:0:
320,0,193535,1,0,1:0:0:0:
320,0,193642,1,0,1:0:0:0:
448,0,193750,1,0,1:0:0:0:
64,0,193750,1,0,1:0:0:0:
320,0,193857,1,0,1:0:0:0:
192,0,193964,1,0,1:0:0:0:
64,0,193964,1,0,1:0:0:0:
192,0,194071,1,0,1:0:0:0:
448,0,194178,1,0,1:0:0:0:
320,0,194178,1,0,1:0:0:0:
64,0,194178,1,0,1:0:0:0:
448,0,194285,1,0,1:0:0:0:
192,0,194392,1,0,1:0:0:0:
320,0,194500,1,0,1:0:0:0:
64,0,194500,1,0,1:0:0:0:
192,0,194607,1,0,1:0:0:0:
448,0,194714,1,0,1:0:0:0:
320,0,194821,1,0,1:0:0:0:
64,0,194821,1,0,1:0:0:0:
448,0,194928,1,0,1:0:0:0:
320,0,195035,1,0,1:0:0:0:
192,0,195035,1,0,1:0:0:0:
64,0,195035,1,0,1:0:0:0:
192,0,195142,1,0,1:0:0:0:
448,0,195250,1,0,1:0:0:0:
320,0,195250,1,0,1:0:0:0:
320,0,195357,1,0,1:0:0:0:
448,0,195464,1,0,1:0:0:0:
64,0,195464,1,0,1:0:0:0:
192,0,195571,1,0,1:0:0:0:
320,0,195678,1,0,1:0:0:0:
64,0,195678,1,0,1:0:0:0:
64,0,195785,1,0,1:0:0:0:
448,0,195892,1,0,1:0:0:0:
320,0,195892,1,0,1:0:0:0:
192,0,195892,1,0,1:0:0:0:
192,0,196000,1,0,1:0:0:0:
64,0,196107,1,0,1:0:0:0:
320,0,196214,1,0,1:0:0:0:
192,0,196214,1,0,1:0:0:0:
64,0,196321,1,0,1:0:0:0:
448,0,196428,1,0,1:0:0:0:
320,0,196535,1,0,1:0:0:0:
192,0,196535,1,0,1:0:0:0:
448,0,196642,1,0,1:0:0:0:
320,0,196750,1,0,1:0:0:0:
192,0,196750,1,0,1:0:0:0:
64,0,196750,1,0,1:0:0:0:
64,0,196857,1,0,1:0:0:0:
448,0,196964,1,0,1:0:0:0:
192,0,196964,1,0,1:0:0:0:
192,0,197071,1,0,1:0:0:0:
320,0,197178,1,0,1:0:0:0:
64,0,197178,1,0,1:0:0:0:
448,0,197285,1,0,1:0:0:0:
320,0,197392,1,0,1:0:0:0:
192,0,197392,1,0,1:0:0:0:
320,0,197500,1,0,1:0:0:0:
448,0,197607,1,0,1:0:0:0:
192,0,197607,1,0,1:0:0:0:
64,0,197607,1,0,1:0:0:0:
64,0,197714,1,0,1:0:0:0:
320,0,197821,1,0,1:0:0:0:
448,0,197928,1,0,1:0:0:0:
192,0,197928,1,0,1:0:0:0:
64,0,198035,1,0,1:0:0:0:
448,0,198142,1,0,1:0:0:0:
192,0,198142,1,0,1:0:0:0:
320,0,198250,1,0,1:0:0:0:
64,0,198250,1,0,1:0:0:0:
192,0,198357,1,0,1:0:0:0:
64,0,198357,1,0,1:0:0:0:
448,0,198464,1,0,1:0:0:0:
64,0,198464,1,0,1:0:0:0:
448,0,198571,1,0,1:0:0:0:
320,0,198571,1,0,1:0:0:0:
448,0,198678,1,0,1:0:0:0:
192,0,198678,1,0,1:0:0:0:
192,0,198785,1,0,1:0:0:0:
448,0,198892,1,0,1:0:0:0:
320,0,198892,1,0,1:0:0:0:
64,0,198892,1,0,1:0:0:0:
192,0,199000,1,0,1:0:0:0:
320,0,199107,1,0,1:0:0:0:
64,0,199107,1,0,1:0:0:0:
320,0,199214,1,0,1:0:0:0:
448,0,199321,1,0,1:0:0:0:
192,0,199321,1,0,1:0:0:0:
64,0,199321,1,0,1:0:0:0:
64,0,199428,1,0,1:0:0:0:
448,0,199535,1,0,1:0:0:0:
320,0,199642,1,0,1:0:0:0:
64,0,199642,1,0,1:0:0:0:
192,0,199750,1,0,1:0:0:0:
448,0,199857,1,0,1:0:0:0:
320,0,199964,1,0,1:0:0:0:
64,0,199964,1,0,1:0:0:0:
448,0,200071,1,0,1:0:0:0:
320,0,200178,1,0,1:0:0:0:
192,0,200178,1,0,1:0:0:0:
64,0,200178,1,0,1:0:0:0:
192,0,200285,1,0,1:0:0:0:
448,0,200392,1,0,1:0:0:0:
320,0,200392,1,0,1:0:0:0:
320,0,200500,1,0,1:0:0:0:
448,0,200607,1,0,1:0:0:0:
64,0,200607,1,0,1:0:0:0:
320,0,200714,1,0,1:0:0:0:
192,0,200821,1,0,1:0:0:0:
64,0,200821,1,0,1:0:0:0:
192,0,200928,1,0,1:0:0:0:
448,0,201035,1,0,1:0:0:0:
320,0,201035,1,0,1:0:0:0:
64,0,201035,1,0,1:0:0:0:
448,0,201142,1,0,1:0:0:0:
192,0,201250,1,0,1:0:0:0:
320,0,201357,1,0,1:0:0:0:
64,0,201357,1,0,1:0:0:0:
192,0,201464,1,0,1:0:0:0:
448,0,201571,1,0,1:0:0:0:
320,0,201678,1,0,1:0:0:0:
64,0,201678,1,0,1:0:0:0:
448,0,201785,1,0,1:0:0:0:
320,0,201892,1,0,1:0:0:0:
192,0,201892,1,0,1:0:0:0:
64,0,201892,1,0,1:0:0:0:
192,0,202000,1,0,1:0:0:0:
448,0,202107,1,0,1:0:0:0:
320,0,202107,1,0,1:0:0:0:
320,0,202214,1,0,1:0:0:0:
448,0,202321,1,0,1:0:0:0:
64,0,202321,1,0,1:0:0:0:
192,0,202428,1,0,1:0:0:0:
320,0,202535,1,0,1:0:0:0:
64,0,202535,1,0,1:0:0:0:
64,0,202642,1,0,1:0:0:0:
448,0,202750,1,0,1:0:0:0:
320,0,202750,1,0,1:0:0:0:
192,0,202750,1,0,1:0:0:0:
192,0,202857,1,0,1:0:0:0:
64,0,202964,1,0,1:0:0:0:
320,0,203071,1,0,1:0:0:0:
192,0,203071,1,0,1:0:0:0:
64,0,203178,1,0,1:0:0:0:
448,0,203285,1,0,1:0:0:0:
320,0,203392,1,0,1:0:0:0:
192,0,203392,1,0,1:0:0:0:
448,0,203500,1,0,1:0:0:0:
320,0,203607,1,0,1:0:0:0:
192,0,203607,1,0,1:0:0:0:
64,0,203607,1,0,1:0:0:0:
64,0,203714,1,0,1:0:0:0:
448,0,203821,1,0,1:0:0:0:
192,0,203821,1,0,1:0:0:0:
192,0,203928,1,0,1:0:0:0:
320,0,204035,1,0,1:0:0:0:
64,0,204035,1,0,1:0:0:0:
448,0,204142,1,0,1:0:0:0:
320,0,204250,1,0,1:0:0:0:
192,0,204250,1,0,1:0:0:0:
320,0,204357,1,0,1:0:0:0:
448,0,204464,1,0,1:0:0:0:
64,0,204464,1,0,1:0:0:0:
64,0,204571,1,0,1:0:0:0:
320,0,204678,1,0,1:0:0:0:
192,0,204785,1,0,1:0:0:0:
64,0,204892,1,0,1:0:0:0:
448,0,205000,1,0,1:0:0:0:
320,0,205107,1,0,1:0:0:0:
192,0,205214,1,0,1:0:0:0:
64,0,205214,1,0,1:0:0:0:
448,0,205321,1,0,1:0:0:0:
320,0,205428,1,0,1:0:0:0:
192,0,205428,1,0,1:0:0:0:
448,0,205535,1,0,1:0:0:0:
448,0,205642,1,0,1:0:0:0:
320,0,205750,1,0,1:0:0:0:
192,0,205750,1,0,1:0:0:0:
64,0,205750,1,0,1:0:0:0:
192,0,205964,1,0,1:0:0:0:
64,0,205964,1,0,1:0:0:0:
64,0,206178,1,0,1:0:0:0:
64,0,206500,1,0,1:0:0:0:
64,0,206821,1,0,1:0:0:0:
64,0,207142,1,0,1:0:0:0:
