osu file format v14

[General]
AudioFilename: audio.mp3
AudioLeadIn: 0
PreviewTime: 147352
Countdown: 1
SampleSet: Normal
StackLeniency: 0.3
Mode: 0
LetterboxInBreaks: 0
WidescreenStoryboard: 0

[Editor]
Bookmarks: 15149,26674,37522,38878,48369,65996,69386,80912,91759,112776,114810,124810,145996,147352,169047,190742,192776
DistanceSpacing: 1
BeatDivisor: 2
GridSize: 4
TimelineZoom: 1

[Metadata]
Title:RISE
TitleUnicode:RISE
Artist:The Glitch Mob, Mako, and The Word Alive
ArtistUnicode:The Glitch Mob, Mako, and The Word Alive
Creator:N0thing
Version:test
Source:
Tags:
BeatmapID:1800979
BeatmapSetID:860782

[Difficulty]
HPDrainRate:6
CircleSize:4
OverallDifficulty:6
ApproachRate:8.2
SliderMultiplier:0.999999904632566
SliderTickRate:1

[Events]
//Background and Video events
0,0,"latest.jpg",0,0
//Break Periods
//Storyboard Layer 0 (Background)
//Storyboard Layer 1 (Fail)
//Storyboard Layer 2 (Pass)
//Storyboard Layer 3 (Foreground)
//Storyboard Sound Samples

[TimingPoints]
1590,338.983050847458,4,1,0,80,1,0
5658,-66.6666666666667,4,1,0,80,0,0
15149,-200,4,1,0,80,0,0
26674,-133.333333333333,4,1,0,80,0,0
28030,-200,4,1,0,80,0,0
28708,-133.333333333333,4,1,0,80,0,0
30742,-200,4,1,0,80,0,0
31081,-133.333333333333,4,1,0,80,0,0
37522,-100,4,1,0,80,0,0
38878,-133.333333333333,4,1,0,80,0,0
39217,-100,4,1,0,80,0,0
41590,-133.333333333333,4,1,0,80,0,0
42098,-100,4,1,0,80,0,0
49725,-133.333333333333,4,1,0,80,0,0
50403,-57.1428571428571,4,1,0,80,0,1
50573,-57.1428571428571,4,1,0,80,0,0
51081,-133.333333333333,4,1,0,80,0,0
51759,-57.1428571428571,4,1,0,80,0,1
51928,-57.1428571428571,4,1,0,80,0,0
52437,-133.333333333333,4,1,0,80,0,0
53115,-57.1428571428571,4,1,0,80,0,0
53454,-133.333333333333,4,1,0,80,0,0
55827,-57.1428571428571,4,1,0,80,0,1
59217,-57.1428571428571,4,1,0,80,0,0
60573,-133.333333333333,4,1,0,80,0,0
61251,-57.1428571428571,4,1,0,80,0,1
61420,-57.1428571428571,4,1,0,80,0,0
61929,-133.333333333333,4,1,0,80,0,0
62606,-57.1428571428571,4,1,0,80,0,1
62776,-57.1428571428571,4,1,0,80,0,0
63285,-133.333333333333,4,1,0,80,0,0
63963,-57.1428571428571,4,1,0,80,0,0
64301,-133.333333333333,4,1,0,80,0,0
66674,-57.1428571428571,4,1,0,80,0,1
70064,-133.333333333333,4,1,0,80,0,0
80912,-100,4,1,0,80,0,0
82268,-133.333333333333,4,1,0,80,0,0
82946,-100,4,1,0,80,0,0
84980,-133.333333333333,4,1,0,80,0,0
85488,-100,4,1,0,80,0,0
87691,-133.333333333333,4,1,0,80,0,0
88200,-100,4,1,0,80,0,0
90403,-133.333333333333,4,1,0,80,0,0
90573,-100,4,1,0,80,0,0
93115,-133.333333333333,4,1,0,80,0,0
93793,-57.1428571428571,4,1,0,80,0,1
93962,-57.1428571428571,4,1,0,80,0,0
94471,-133.333333333333,4,1,0,80,0,0
95149,-57.1428571428571,4,1,0,80,0,1
95318,-57.1428571428571,4,1,0,80,0,0
95827,-133.333333333333,4,1,0,80,0,0
96505,-57.1428571428571,4,1,0,80,0,0
97183,-133.333333333333,4,1,0,80,0,0
99217,-57.1428571428571,4,1,0,80,0,1
102606,-133.333333333333,4,1,0,80,0,0
104640,-57.1428571428571,4,1,0,80,0,1
104810,-57.1428571428571,4,1,0,80,0,0
105319,-133.333333333333,4,1,0,80,0,0
105996,-57.1428571428571,4,1,0,80,0,1
106166,-57.1428571428571,4,1,0,80,0,0
106674,-133.333333333333,4,1,0,80,0,0
107352,-57.1428571428571,4,1,0,80,0,0
107691,-133.333333333333,4,1,0,80,0,0
110064,-57.1428571428571,4,1,0,80,0,1
112776,-133.333333333333,4,1,0,80,0,0
114810,-133.333333333333,4,1,0,80,0,0
124810,-153.846153846154,4,1,0,80,0,0
148708,-133.333333333333,4,1,0,80,0,0
149386,-57.1428571428571,4,1,0,80,0,1
149556,-57.1428571428571,4,1,0,80,0,0
150064,-133.333333333333,4,1,0,80,0,0
150742,-57.1428571428571,4,1,0,80,0,1
150912,-57.1428571428571,4,1,0,80,0,0
151420,-133.333333333333,4,1,0,80,0,0
152098,-57.1428571428571,4,1,0,80,0,0
152776,-133.333333333333,4,1,0,80,0,0
154810,-57.1428571428571,4,1,0,80,0,1
158200,-133.333333333333,4,1,0,80,0,0
160234,-57.1428571428571,4,1,0,80,0,1
160403,-57.1428571428571,4,1,0,80,0,0
160912,-133.333333333333,4,1,0,80,0,0
161590,-57.1428571428571,4,1,0,80,0,1
161759,-57.1428571428571,4,1,0,80,0,0
162268,-133.333333333333,4,1,0,80,0,0
162946,-57.1428571428571,4,1,0,80,0,0
163623,-133.333333333333,4,1,0,80,0,0
165657,-57.1428571428571,4,1,0,80,0,0
170403,-133.333333333333,4,1,0,80,0,0
171081,-100,4,1,0,80,0,0
171759,-133.333333333333,4,1,0,80,0,0
172437,-100,4,1,0,80,0,0
173115,-133.333333333333,4,1,0,80,0,0
176505,-100,4,1,0,80,0,0
178200,-133.333333333333,4,1,0,80,0,0
181929,-100,4,1,0,80,0,0
182607,-133.333333333333,4,1,0,80,0,0
183285,-100,4,1,0,80,0,0
183963,-133.333333333333,4,1,0,80,0,0
192776,-100,4,1,0,80,0,0
193454,-133.333333333333,4,1,0,80,0,0
194132,-100,4,1,0,80,0,0

[HitObjects]
364,50,5996,5,0,0:0:0:0:
310,120,6166,1,0,0:0:0:0:
402,126,6335,2,0,L|309:121,1,74.9999957084652
356,202,6674,2,0,L|308:116,1,74.9999957084652
265,199,7013,2,0,L|317:120,1,74.9999957084652
224,117,7352,6,0,L|124:116,1,74.9999957084652
175,39,7691,2,0,L|133:119,1,74.9999957084652
84,40,8030,1,0,0:0:0:0:
132,116,8200,1,0,0:0:0:0:
44,116,8369,2,0,L|139:116,1,74.9999957084652
91,195,8708,6,0,L|144:272,1,74.9999957084652
52,273,9047,1,0,0:0:0:0:
146,274,9217,1,0,0:0:0:0:
100,351,9386,2,0,L|152:261,1,74.9999957084652
189,349,9725,1,0,0:0:0:0:
141,270,9895,1,0,0:0:0:0:
229,267,10064,6,0,L|329:262,1,74.9999957084652
273,186,10403,2,0,L|322:274,1,74.9999957084652
364,181,10742,1,0,0:0:0:0:
317,264,10912,1,0,0:0:0:0:
406,259,11081,2,0,L|314:264,1,74.9999957084652
364,336,11420,5,0,0:0:0:0:
271,334,11590,1,0,0:0:0:0:
226,253,11759,1,0,0:0:0:0:
274,179,11929,1,0,0:0:0:0:
226,100,12098,2,0,L|137:100,1,74.9999957084652
179,179,12437,2,0,L|90:177,1,74.9999957084652
142,259,12776,5,0,0:0:0:0:
231,256,12946,1,0,0:0:0:0:
274,179,13115,1,0,0:0:0:0:
226,100,13285,1,0,0:0:0:0:
273,20,13454,2,0,L|364:20,1,74.9999957084652
320,100,13793,2,0,L|408:99,1,74.9999957084652
368,179,14132,5,0,0:0:0:0:
320,253,14302,1,0,0:0:0:0:
226,253,14471,1,0,0:0:0:0:
274,327,14641,1,0,0:0:0:0:
415,253,14810,1,0,0:0:0:0:
370,328,14980,1,0,0:0:0:0:
320,224,15064,5,0,0:0:0:0:
388,100,15827,1,0,0:0:0:0:
410,182,16166,1,0,0:0:0:0:
492,203,16505,1,0,0:0:0:0:
512,285,16844,1,0,0:0:0:0:
454,347,17183,2,0,P|407:367|353:352,1,99.9999904632566
183,361,18539,1,0,0:0:0:0:
241,201,19217,5,0,0:0:0:0:
111,222,19725,1,0,0:0:0:0:
69,232,19895,2,0,P|49:279|64:333,1,99.9999904632566
78,156,21251,5,0,0:0:0:0:
137,95,21590,1,0,0:0:0:0:
69,43,21929,1,0,0:0:0:0:
195,29,22437,1,0,0:0:0:0:
237,27,22606,2,0,P|261:72|252:127,1,99.9999904632566
422,83,23962,5,0,0:0:0:0:
398,164,24302,1,0,0:0:0:0:
479,188,24641,1,0,0:0:0:0:
426,293,25149,1,0,0:0:0:0:
399,326,25318,2,0,P|406:350|428:366,1,49.9999952316283
380,204,25996,5,0,0:0:0:0:
189,262,26674,6,0,L|159:320,2,49.9999971389768
277,257,27352,2,0,P|286:293|316:333,1,74.9999957084652,0|0,2:0|2:0,2:0:0:0:
322,351,27861,1,0,0:0:0:0:
392,266,28030,6,0,P|382:202|348:176,1,99.9999904632566
434,30,29386,1,0,0:0:0:0:
480,180,29725,1,0,0:0:0:0:
427,239,29895,1,0,0:0:0:0:
496,279,30064,2,0,L|507:376,1,74.9999957084652
509,380,30573,1,0,0:0:0:0:
378,294,30742,6,0,P|351:291|325:295,1,49.9999952316283
240,363,31420,1,0,0:0:0:0:
91,193,32098,1,0,0:0:0:0:
179,122,32437,1,0,0:0:0:0:
112,31,32776,2,0,P|151:15|190:18,1,74.9999957084652
275,80,33454,2,0,P|259:164|281:240,1,149.99999141693
426,151,34641,5,0,0:0:0:0:
471,215,34810,1,0,0:0:0:0:
393,352,35149,1,0,0:0:0:0:
312,243,35488,2,0,P|270:235|232:246,1,74.9999957084652
163,355,36166,2,0,P|121:363|83:352,1,74.9999957084652
10,279,36844,1,0,0:0:0:0:
234,146,37522,6,0,L|288:123,2,49.9999952316283
161,188,38030,1,0,0:0:0:0:
136,294,38200,2,0,L|196:281,1,49.9999952316283
273,258,38539,1,0,0:0:0:0:
362,234,38708,1,0,0:0:0:0:
341,107,38878,6,0,P|368:70|399:51,1,74.9999957084652
482,54,39386,1,0,0:0:0:0:
426,135,39556,1,0,0:0:0:0:
267,42,39895,2,0,L|240:96,1,49.9999952316283
148,113,40234,2,0,L|172:69,1,49.9999952316283
212,160,40572,1,0,0:0:0:0:
116,189,40742,1,0,0:0:0:0:
90,285,40912,2,0,L|136:267,1,49.9999952316283
237,296,41251,2,0,L|190:313,1,49.9999952316283
236,377,41590,6,0,P|271:371|311:386,1,74.9999957084652
392,334,42098,1,0,0:0:0:0:
480,288,42267,2,0,L|462:242,1,49.9999952316283
367,206,42606,2,0,L|384:253,1,49.9999952316283
434,166,42945,1,0,0:0:0:0:
385,78,43115,1,0,0:0:0:0:
293,117,43284,1,0,0:0:0:0:
244,29,43454,1,0,0:0:0:0:
193,115,43623,5,0,0:0:0:0:
18,17,43962,1,0,0:0:0:0:
114,201,44301,2,0,P|115:226|125:249,1,49.9999952316283
201,313,44641,1,0,0:0:0:0:
275,246,44810,1,0,0:0:0:0:
235,153,44980,1,0,0:0:0:0:
310,338,45319,1,0,0:0:0:0:
457,203,45657,5,0,0:0:0:0:
401,119,45827,1,0,0:0:0:0:
301,119,45996,1,0,0:0:0:0:
501,119,46335,1,0,0:0:0:0:
322,28,46674,1,0,0:0:0:0:
345,226,47013,2,0,P|365:263|363:289,1,49.9999952316283
287,332,47352,1,0,0:0:0:0:
203,276,47522,1,0,0:0:0:0:
230,180,47691,5,0,0:0:0:0:
154,114,47860,1,0,0:0:0:0:
76,177,48030,1,0,0:0:0:0:
99,274,48200,1,0,0:0:0:0:
55,363,48369,5,0,0:0:0:0:
83,144,48708,1,0,0:0:0:0:
205,326,49047,1,0,0:0:0:0:
3,237,49386,1,0,0:0:0:0:
205,326,49725,6,0,B|220:327|223:321|223:321|201:302|200:270,1,74.9999957084652
163,135,50403,2,0,B|175:126|167:115|167:115|226:77|284:-4,1,174.999984979629
455,48,51081,2,0,B|467:57|465:64|465:64|436:64|411:84,1,74.9999957084652
267,182,51759,2,0,B|268:197|254:198|254:198|276:280|238:364,1,174.999984979629
423,227,52437,6,0,B|411:206|408:174|408:174|393:184|397:206,1,74.9999957084652
252,333,53115,2,0,B|276:332|276:332|294:299|339:278,1,87.4999924898145
355,271,53454,1,0,0:0:0:0:
443,143,53793,2,0,L|421:93,1,37.4999978542326
335,98,54132,1,0,0:0:0:0:
283,20,54302,1,0,0:0:0:0:
138,32,54471,2,0,P|115:98|146:173,1,149.99999141693
143,170,55488,1,0,0:0:0:0:
74,312,55827,6,0,B|35:241|143:172|143:172|229:114|160:9,1,349.999969959258
291,86,56844,1,0,0:0:0:0:
393,24,57183,2,0,P|469:86|492:177,1,174.999984979629
438,288,57861,1,0,0:0:0:0:
321,326,58200,1,0,0:0:0:0:
199,285,58539,2,0,P|111:273|55:342,1,174.999984979629
143,357,59217,5,0,0:0:0:0:
170,148,59556,1,0,0:0:0:0:
292,318,59895,1,0,0:0:0:0:
94,247,60234,1,0,0:0:0:0:
292,318,60573,6,0,B|307:319|310:313|310:313|288:294|287:262,1,74.9999957084652
265,126,61251,2,0,B|277:117|269:106|269:106|328:68|386:-13,1,174.999984979629
144,15,61929,2,0,B|127:13|123:25|123:25|148:46|152:80,1,74.9999957084652
203,250,62607,2,0,B|192:262|200:274|200:274|145:299|72:380,1,174.999984979629
252,363,63285,6,0,B|273:351|305:348|305:348|295:333|273:337,1,74.9999957084652
48,199,63963,2,0,B|72:200|72:200|90:233|135:254,1,87.4999924898145
153,264,64302,1,0,0:0:0:0:
269,115,64640,2,0,L|303:153,1,37.4999978542326
293,216,64980,1,0,0:0:0:0:
369,240,65149,1,0,0:0:0:0:
259,334,65318,2,0,P|222:334|191:313,1,74.9999957084652
293,216,65996,2,0,P|329:215|360:236,1,74.9999957084652
489,309,66674,6,0,B|528:238|420:169|420:169|334:111|403:6,1,349.999969959258
261,51,67691,1,0,0:0:0:0:
137,17,68030,2,0,P|61:79|38:170,1,174.999984979629
58,285,68708,1,0,0:0:0:0:
170,342,69047,1,0,0:0:0:0:
272,277,69386,2,0,P|360:265|416:334,1,174.999984979629
444,169,70064,6,0,L|386:25,1,149.99999141693
265,66,71081,1,0,0:0:0:0:
141,34,71420,2,0,L|92:121,1,74.9999957084652
6,181,72098,2,0,P|16:260|85:312,1,149.99999141693
190,276,73115,1,0,0:0:0:0:
190,276,73454,1,0,0:0:0:0:
375,228,73963,1,0,0:0:0:0:
375,228,74132,2,0,P|385:186|405:152,1,74.9999957084652
510,89,74810,1,0,0:0:0:0:
438,333,75488,5,0,0:0:0:0:
354,236,75827,1,0,0:0:0:0:
250,309,76166,1,0,0:0:0:0:
91,203,76674,1,0,0:0:0:0:
58,164,76844,2,0,P|62:84|111:32,1,149.99999141693
364,6,78200,1,0,0:0:0:0:
462,86,78539,1,0,0:0:0:0:
467,213,78878,2,0,P|432:273|350:299,1,149.99999141693
361,44,80234,5,0,0:0:0:0:
177,98,80742,5,0,0:0:0:0:
118,160,80912,1,0,0:0:0:0:
173,223,81081,2,0,L|211:262,1,49.9999952316283
111,277,81420,1,0,0:0:0:0:
165,342,81590,2,0,L|201:378,1,49.9999952316283
259,316,81929,1,0,0:0:0:0:
325,368,82098,1,0,0:0:0:0:
258,154,82268,6,0,P|282:108|325:87,1,74.9999957084652
406,96,82776,1,0,0:0:0:0:
334,166,82946,1,0,0:0:0:0:
479,28,83285,1,0,0:0:0:0:
466,227,83623,1,0,0:0:0:0:
393,125,83792,1,0,0:0:0:0:
512,164,83962,1,0,0:0:0:0:
393,203,84132,1,0,0:0:0:0:
467,100,84302,2,0,P|486:76|504:61,1,49.9999952316283
369,57,84640,5,0,0:0:0:0:
296,134,84810,1,0,0:0:0:0:
208,63,84980,6,0,P|165:51|122:68,1,74.9999957084652
76,138,85488,1,0,0:0:0:0:
119,228,85658,1,0,0:0:0:0:
36,46,85996,1,0,0:0:0:0:
201,158,86335,6,0,L|254:197,1,49.9999952316283
248,287,86674,2,0,L|198:252,1,49.9999952316283
126,198,87013,1,0,0:0:0:0:
325,200,87352,1,0,0:0:0:0:
180,335,87691,6,0,P|144:358|99:363,1,74.9999957084652
107,286,88200,1,0,0:0:0:0:
17,329,88369,1,0,0:0:0:0:
197,242,88708,1,0,0:0:0:0:
350,370,89047,1,0,0:0:0:0:
392,278,89217,1,0,0:0:0:0:
483,317,89386,1,0,0:0:0:0:
297,241,89725,1,0,0:0:0:0:
495,219,90064,1,0,0:0:0:0:
359,176,90403,6,0,P|357:154|341:134,1,37.4999978542326
262,90,90742,1,0,0:0:0:0:
209,175,90912,1,0,0:0:0:0:
275,248,91081,5,0,0:0:0:0:
238,341,91251,1,0,0:0:0:0:
138,349,91420,1,0,0:0:0:0:
81,266,91590,1,0,0:0:0:0:
138,349,91759,5,0,0:0:0:0:
326,223,92098,1,0,0:0:0:0:
100,221,92437,1,0,0:0:0:0:
279,356,92776,1,0,0:0:0:0:
100,221,93115,6,0,B|92:208|95:202|95:202|123:213|151:199,1,74.9999957084652
339,185,93793,2,0,B|350:175|369:174|369:174|390:111|452:39,1,174.999984979629
484,272,94471,2,0,B|475:284|468:283|468:283|466:254|444:231,1,74.9999957084652
337,68,95149,2,0,B|321:67|321:54|321:54|251:56|158:23,1,174.999984979629,0|0,2:0|2:0,2:0:0:0:
65,175,95827,6,0,B|58:198|37:222|37:222|54:226|67:208,1,74.9999957084652
255,141,96505,2,0,B|246:163|246:163|209:170|175:206,1,87.4999924898145
168,222,96844,1,0,0:0:0:0:
350,366,97183,2,0,L|391:321,1,37.4999978542326
463,295,97522,1,0,0:0:0:0:
386,207,97691,1,0,0:0:0:0:
468,116,97861,2,0,P|419:60|347:53,1,149.99999141693
317,72,98878,1,0,0:0:0:0:
75,94,99217,6,0,B|50:171|169:218|169:218|264:258|217:375,1,349.999969959258
358,248,100234,1,0,0:0:0:0:
495,249,100573,2,0,P|456:339|375:386,1,174.999984979629
258,307,101251,1,0,0:0:0:0:
130,370,101590,1,0,0:0:0:0:
33,255,101929,2,0,P|21:167|90:111,1,174.999984979629
229,295,102606,5,0,0:0:0:0:
361,124,102946,1,0,0:0:0:0:
418,299,103284,1,0,0:0:0:0:
247,179,103623,1,0,0:0:0:0:
417,299,103963,6,0,B|418:314|413:317|413:317|393:296|361:296,1,74.9999957084652
185,236,104641,2,0,B|172:246|157:234|157:234|110:299|22:322,1,174.999984979629
46,141,105319,2,0,B|41:124|52:118|52:118|77:139|111:137,1,74.9999957084652
286,187,105997,2,0,B|295:174|306:181|306:181|340:120|417:57,1,174.999984979629
368,268,106675,6,0,B|354:288|349:319|349:319|335:308|340:287,1,74.9999957084652
133,177,107353,2,0,B|157:178|157:178|175:211|220:232,1,87.4999924898145
234,244,107692,1,0,0:0:0:0:
411,59,108030,2,0,L|435:107,1,37.4999978542326
384,170,108369,1,0,0:0:0:0:
453,230,108539,1,0,0:0:0:0:
409,356,108708,2,0,P|370:362|337:344,1,74.9999957084652
210,266,109386,2,0,P|248:259|281:277,1,74.9999957084652
77,338,110064,6,0,B|38:267|146:198|146:198|232:140|163:35,1,349.999969959258
302,88,111081,1,0,0:0:0:0:
450,76,111420,2,0,P|398:159|406:252,1,174.999984979629
485,337,112098,1,0,0:0:0:0:
348,368,112437,5,0,0:0:0:0:
220,321,112776,2,0,L|146:337,1,74.9999957084652
74,356,113284,1,0,0:0:0:0:
37,364,113454,1,0,0:0:0:0:
18,215,113793,1,0,0:0:0:0:
101,90,114132,1,0,0:0:0:0:
109,126,114301,1,0,0:0:0:0:
69,193,115149,5,0,0:0:0:0:
148,237,115319,2,0,B|187:243|187:243|254:275|254:275|296:284,1,149.99999141693
197,143,116166,1,0,0:0:0:0:
271,184,116336,2,0,B|310:190|310:190|377:222|377:222|419:231,1,149.99999141693
410,138,117183,1,0,0:0:0:0:
490,6,117861,5,0,0:0:0:0:
411,50,118031,2,0,B|372:56|372:56|305:88|305:88|263:97,1,149.99999141693
387,143,118878,1,0,0:0:0:0:
308,187,119048,2,0,B|266:229|337:298|382:256,1,149.99999141693
378,341,119895,1,0,0:0:0:0:
459,213,120573,5,0,0:0:0:0:
380,257,120743,2,0,B|341:263|341:263|274:295|274:295|232:304,1,149.99999141693
331,163,121590,1,0,0:0:0:0:
257,204,121760,2,0,B|218:210|218:210|151:242|151:242|109:251,1,149.99999141693
120,161,122607,1,0,0:0:0:0:
40,22,123285,5,0,0:0:0:0:
119,66,123455,2,0,B|158:72|158:72|225:104|225:104|267:113,1,149.99999141693
143,159,124302,1,0,0:0:0:0:
222,203,124471,2,0,P|235:232|232:247,1,37.4999978542326
161,259,124810,6,0,L|175:365,1,97.49998623848
197,337,125488,2,0,L|332:330,2,129.999981651307
155,274,127352,1,0,0:0:0:0:
134,305,127522,2,0,L|-8:319,1,129.999981651307
87,112,130234,1,0,0:0:0:0:
61,139,130403,2,0,L|39:334,1,194.99997247696
354,113,132945,1,0,0:0:0:0:
378,125,133115,2,0,L|403:320,1,194.99997247696
216,237,135658,5,0,0:0:0:0:
121,260,135827,2,0,L|86:195,1,64.9999908256534
22,171,136335,2,0,P|57:136|112:133,1,97.49998623848
145,136,137013,1,0,0:0:0:0:
312,149,137522,1,0,0:0:0:0:
317,192,137691,2,0,L|327:271,1,64.9999908256534
331,303,138200,1,0,0:0:0:0:
286,318,138369,2,0,L|191:346,2,97.49998623848
264,249,139556,2,0,P|165:181|237:88,1,259.999963302613
296,160,141251,6,0,L|326:222,1,64.9999908256534
379,337,141929,1,0,0:0:0:0:
387,259,142268,1,0,0:0:0:0:
319,291,142607,2,0,P|259:308|188:281,1,129.999981651307
87,321,143624,1,0,0:0:0:0:
82,193,143963,6,0,L|93:236,1,32.4999954128267
172,253,144302,1,0,0:0:0:0:
163,342,144471,2,0,L|226:325,1,64.9999908256534
330,259,145149,1,0,0:0:0:0:
373,249,145319,2,0,B|407:157|407:157|413:140|427:137|437:147|433:159,1,129.999981651307
55,21,147352,5,0,0:0:0:0:
83,240,147691,1,0,0:0:0:0:
205,58,148030,1,0,0:0:0:0:
3,147,148369,1,0,0:0:0:0:
205,58,148708,6,0,B|220:57|223:63|223:63|201:82|200:114,1,74.9999957084652
163,249,149386,2,0,B|175:258|167:269|167:269|226:307|284:388,1,174.999984979629
455,336,150064,2,0,B|467:327|465:320|465:320|436:320|411:300,1,74.9999957084652
267,202,150742,2,0,B|268:187|254:186|254:186|276:104|238:20,1,174.999984979629
423,157,151420,6,0,B|411:178|408:210|408:210|393:200|397:178,1,74.9999957084652
202,79,152098,2,0,B|226:80|226:80|244:113|289:134,1,87.4999924898145
311,142,152437,1,0,0:0:0:0:
390,306,152776,2,0,L|356:349,1,37.4999978542326
298,295,153115,1,0,0:0:0:0:
246,358,153284,1,0,0:0:0:0:
94,319,153454,2,0,P|96:246|147:193,1,149.99999141693
148,194,154471,1,0,0:0:0:0:
80,56,154810,6,0,B|41:127|149:196|149:196|235:254|166:359,1,349.999969959258
313,248,155827,1,0,0:0:0:0:
394,346,156166,2,0,P|470:284|493:193,1,174.999984979629
364,144,156844,1,0,0:0:0:0:
299,35,157183,1,0,0:0:0:0:
170,51,157522,2,0,P|87:84|73:172,1,174.999984979629
302,197,158200,5,0,0:0:0:0:
169,359,158539,1,0,0:0:0:0:
155,151,158878,1,0,0:0:0:0:
286,316,159217,1,0,0:0:0:0:
155,151,159556,6,0,B|153:136|159:132|159:132|179:153|211:153,1,74.9999957084652
351,191,160234,2,0,B|360:179|371:187|371:187|409:128|490:70,1,174.999984979629
490,274,160912,2,0,B|494:290|482:296|482:296|458:273|424:273,1,74.9999957084652
225,219,161590,2,0,B|216:231|205:223|205:223|167:282|86:340,1,174.999984979629
97,140,162268,6,0,B|108:119|111:87|111:87|126:97|122:119,1,74.9999957084652
299,257,162946,2,0,B|275:256|275:256|257:223|212:202,1,87.4999924898145
194,194,163285,1,0,0:0:0:0:
366,50,163623,2,0,L|393:98,1,37.4999978542326
343,156,163963,1,0,0:0:0:0:
412,196,164132,1,0,0:0:0:0:
397,325,164302,2,0,P|351:323|316:296,1,74.9999957084652
233,173,164979,2,0,P|279:175|314:202,1,74.9999957084652
400,68,165657,6,0,B|425:145|306:192|306:192|211:232|258:349,1,349.999969959258
168,214,166675,1,0,0:0:0:0:
26,313,167013,2,0,P|29:214|96:155,1,174.999984979629
93,46,167691,1,0,0:0:0:0:
225,86,168030,1,0,0:0:0:0:
350,33,168370,2,0,P|445:69|488:156,1,174.999984979629
359,146,169047,5,0,0:0:0:0:
260,232,169386,1,0,0:0:0:0:
373,258,169725,1,0,0:0:0:0:
282,157,170064,1,0,0:0:0:0:
373,258,170403,6,0,B|376:276|366:285|366:285|305:298,1,74.9999957084652
169,318,171081,2,0,L|56:336,1,99.9999904632566
56,207,171759,2,0,B|52:188|62:179|62:179|123:166,1,74.9999957084652
259,138,172437,2,0,L|372:120,1,99.9999904632566
331,218,173115,2,0,L|348:253,1,37.4999978542326
370,292,173454,1,0,0:0:0:0:
245,320,173793,2,0,P|202:332|166:361,1,74.9999957084652
79,272,174471,2,0,P|31:261|8:238,1,74.9999957084652
75,184,174980,2,0,L|115:70,1,112.499993562698
255,192,175827,5,0,0:0:0:0:
321,42,176505,2,0,P|359:77|421:87,1,99.9999904632566
476,183,177183,1,0,0:0:0:0:
379,352,177522,2,0,B|351:322|373:257|373:257|389:206|338:169,1,199.999980926513
247,264,178539,1,0,0:0:0:0:
157,200,178878,1,0,0:0:0:0:
254,162,179217,5,0,0:0:0:0:
169,283,179556,1,0,0:0:0:0:
308,299,179895,2,0,L|397:247,1,74.9999957084652
252,138,180573,1,0,0:0:0:0:
422,163,180912,1,0,0:0:0:0:
279,225,181251,6,0,B|261:234|261:234|227:242|207:267,1,74.9999957084652
347,313,181928,2,0,L|419:264,1,74.9999957084652
349,107,182606,2,0,B|338:90|338:90|334:60|294:13,1,99.9999904632566
234,174,183284,2,0,L|278:238,1,74.9999957084652
157,251,183962,2,0,B|142:230|142:230|108:206|102:159,1,99.9999904632566
122,24,184641,5,0,0:0:0:0:
179,155,184980,1,0,0:0:0:0:
64,229,185319,2,0,B|81:267|105:291|137:307|184:298,1,149.99999141693
228,173,186674,2,0,B|219:154|207:142|191:134|168:138,1,74.9999957084652
160,232,187352,6,0,L|266:24,1,224.999987125396
280,0,188708,1,0,0:0:0:0:
313,141,189386,1,0,0:0:0:0:
421,38,190064,1,0,0:0:0:0:
421,38,190403,1,0,0:0:0:0:
453,253,191081,1,0,0:0:0:0:
314,298,191420,1,0,0:0:0:0:
305,320,191590,1,0,0:0:0:0:
239,203,192098,6,0,L|199:128,1,74.9999957084652
68,252,192776,2,0,L|156:205,1,99.9999904632566
144,295,193454,2,0,L|183:370,1,74.9999957084652
320,250,194132,2,0,L|231:296,1,99.9999904632566
