osu file format v14

[General]
AudioFilename: The Ghost Of 3.13 - Sleep Prelude.mp3
AudioLeadIn: 0
PreviewTime: 32516
Countdown: 0
SampleSet: Soft
StackLeniency: 0.7
Mode: 0
LetterboxInBreaks: 0
WidescreenStoryboard: 0

[Editor]
DistanceSpacing: 1.5
BeatDivisor: 16
GridSize: 32
TimelineZoom: 0.1

[Metadata]
Title:Sleep Prelude
TitleUnicode:Sleep Prelude
Artist:The Ghost Of 3.13
ArtistUnicode:The Ghost Of 3.13
Creator:AmigoDoChroome
Version:Sleepless
Source:
Tags:ambient music box old​ lost​ unfinished​ broken
BeatmapID:924730
BeatmapSetID:373570

[Difficulty]
HPDrainRate:5
CircleSize:5
OverallDifficulty:6
ApproachRate:7
SliderMultiplier:2.00000000596046
SliderTickRate:1

[Events]
//Background and Video events
0,0,"Background.jpg",0,0
//Break Periods
//Storyboard Layer 0 (Background)
//Storyboard Layer 1 (Fail)
//Storyboard Layer 2 (Pass)
//Storyboard Layer 3 (Foreground)
//Storyboard Sound Samples

[TimingPoints]
516,800,4,2,1,13,1,0
716,-100,4,2,1,8,0,0
916,-100,4,2,1,13,0,0
4916,-100,4,2,1,5,0,0
5316,-100,4,2,1,13,0,0
8716,-100,4,2,1,6,0,0
8916,-100,4,2,1,13,0,0
11816,-100,4,2,1,5,0,0
12916,-100,4,2,1,13,0,0
15116,-100,4,2,1,7,0,0
15316,-100,4,2,1,13,0,0
32516,-100,4,2,1,20,0,0
50116,-100,4,2,1,10,0,0
50516,-100,4,2,1,5,0,0

[Colours]
Combo1 : 101,83,78
Combo2 : 192,192,192
Combo3 : 205,199,180
Combo4 : 126,134,121
SliderBorder : 120,120,120
SliderTrackOverride : 81,81,81

[HitObjects]
48,44,516,6,0,B|64:68|72:94,1,50.0000001490115,2|0,0:0|0:0,0:0:0:0:
137,117,916,2,0,P|99:158|53:160,2,100.000000298023,2|0|2,0:0|0:0|0:0,0:0:0:0:
260,28,2116,2,0,B|304:44|304:44|360:32,1,100.000000298023,0|2,0:0|0:0,0:0:0:0:
356,32,3716,5,0,0:0:0:0:
427,166,4116,2,0,B|444:208|422:239|422:239|452:248|489:286|482:337,1,200.000000596046,2|0,0:0|0:0,0:0:0:0:
312,356,5316,2,0,P|288:360|256:356,1,50.0000001490115,0|2,0:0|0:0,0:0:0:0:
464,72,6516,2,0,L|464:88,6,12.5000000372529
440,40,6916,6,0,B|408:48|408:48|320:32,1,100.000000298023,2|0,0:0|0:0,0:0:0:0:
212,112,7716,1,2,0:0:0:0:
76,48,8116,1,0,0:0:0:0:
40,192,8516,2,0,L|43:249,1,50.0000001490115,2|0,0:0|0:0,0:0:0:0:
108,284,8916,2,0,L|112:184,1,100.000000298023,2|0,0:0|0:0,0:0:0:0:
376,328,10116,6,0,P|428:344|488:316,1,100.000000298023,0|2,0:0|0:0,0:0:0:0:
256,48,11716,2,0,L|256:80,1,25.0000000745058,2|0,0:0|0:0,0:0:0:0:
24,300,12916,2,0,L|24:284,6,12.5000000372529,0|0|0|0|0|0|0,0:0|0:0|0:0|0:0|0:0|0:0|0:0,0:0:0:0:
16,336,13316,6,0,P|64:347|113:335,1,100.000000298023,2|0,0:0|0:0,0:0:0:0:
246,363,14116,2,0,P|233:315|244:267,1,100.000000298023,2|0,0:0|0:0,0:0:0:0:
292,124,14916,2,0,L|288:72,1,50.0000001490115,2|0,0:0|0:0,0:0:0:0:
216,56,15316,2,0,B|221:128|221:128|204:168,1,100.000000298023,2|0,0:0|0:0,0:0:0:0:
300,320,16516,6,0,P|352:336|412:308,1,100.000000298023,0|2,0:0|0:0,0:0:0:0:
482,337,17316,2,0,B|489:286|452:248|422:239|422:239|444:208|424:156,1,200.000000596046,2|2,0:0|0:0,0:0:0:0:
128,152,19316,2,0,L|124:172,6,12.5000000372529,0|0|0|0|0|0|0,0:0|0:0|0:0|0:0|0:0|0:0|0:0,0:0:0:0:
100,128,19716,6,0,L|200:124,1,100.000000298023,2|0,0:0|0:0,0:0:0:0:
332,44,20516,1,2,0:0:0:0:
172,308,21316,1,2,0:0:0:0:
10,46,22116,1,2,0:0:0:0:
428,208,23316,1,2,0:0:0:0:
428,208,24116,6,0,L|376:232,1,50.0000001490115,2|0,0:0|0:0,0:0:0:0:
304,356,24716,2,0,L|252:332,1,50.0000001490115,2|0,0:0|0:0,0:0:0:0:
100,124,25716,2,0,L|101:108,6,12.5000000372529
80,156,26116,6,0,B|148:160|148:160|179:151,1,100.000000298023,2|0,0:0|0:0,0:0:0:0:
204,300,26916,1,2,0:0:0:0:
306,29,27716,1,2,0:0:0:0:
500,240,28516,1,2,0:0:0:0:
500,240,29716,1,2,0:0:0:0:
485,245,30516,6,0,B|461:253|461:253|386:243,1,100.000000298023
313,268,31116,2,0,P|309:240|313:212,1,50.0000001490115,2|0,0:0|0:0,0:0:0:0:
84,40,32116,2,0,P|83:67|72:96,1,50.0000001490115
135,156,32516,6,0,P|58:126|8:182,1,150.000000447035,2|0,0:0|0:0,0:0:0:0:
76,192,33316,1,2,0:0:0:0:
120,336,33716,1,0,0:0:0:0:
240,244,34116,2,0,L|240:188,1,50.0000001490115,2|0,0:0|0:0,0:0:0:0:
260,120,34516,1,2,0:0:0:0:
408,156,34916,1,2,0:0:0:0:
420,172,35716,6,0,L|424:280,1,100.000000298023,0|2,0:0|0:0,0:0:0:0:
224,344,37316,2,0,P|199:348|175:344,1,50.0000001490115,0|2,0:0|0:0,0:0:0:0:
224,116,38516,2,0,L|218:131,6,12.5000000372529
256,96,38916,5,2,0:0:0:0:
328,144,39116,1,2,0:0:0:0:
408,128,39316,1,2,0:0:0:0:
496,272,39716,2,0,B|504:328|504:328|488:376,1,100.000000298023,2|0,0:0|0:0,0:0:0:0:
320,360,40516,2,0,B|306:318|306:318|314:262,1,100.000000298023,0|2,0:0|0:0,0:0:0:0:
448,196,41316,1,0,0:0:0:0:
176,68,42116,6,0,P|126:62|78:75,1,100.000000298023,0|2,0:0|0:0,0:0:0:0:
84,216,42916,2,0,P|133:221|181:208,1,100.000000298023
336,224,43716,2,0,L|344:292,1,50.0000001490115,2|0,0:0|0:0,0:0:0:0:
416,268,44116,2,0,L|424:200,1,50.0000001490115,2|0,0:0|0:0,0:0:0:0:
488,120,44916,2,0,L|482:70,1,50.0000001490115,0|0,0:0|0:0,0:0:0:0:
504,24,45316,6,0,P|456:36|404:24,1,100.000000298023,2|0,0:0|0:0,0:0:0:0:
336,24,45916,2,0,P|288:36|236:24,1,100.000000298023,2|0,0:0|0:0,0:0:0:0:
164,12,46516,1,2,0:0:0:0:
40,96,46916,2,0,L|48:156,1,50.0000001490115,0|2,0:0|0:0,0:0:0:0:
76,352,47716,2,0,L|84:248,1,100.000000298023,2|0,0:0|0:0,0:0:0:0:
348,348,48916,6,0,L|340:244,1,100.000000298023,2|0,0:0|0:0,0:0:0:0:
436,132,49716,2,0,P|364:195|274:164,1,200.000000596046
