osu file format v14

[General]
AudioFilename: The Ghost Of 3.13 - Sleep Prelude.mp3
AudioLeadIn: 0
PreviewTime: 32516
Countdown: 0
SampleSet: Soft
StackLeniency: 0.7
Mode: 0
LetterboxInBreaks: 0
WidescreenStoryboard: 0

[Editor]
DistanceSpacing: 1.5
BeatDivisor: 16
GridSize: 32
TimelineZoom: 0.1

[Metadata]
Title:Sleep Prelude
TitleUnicode:Sleep Prelude
Artist:The Ghost Of 3.13
ArtistUnicode:The Ghost Of 3.13
Creator:AmigoDoChroome
Version:Normal
Source:
Tags:ambient music box old​ lost​ unfinished​ broken
BeatmapID:924729
BeatmapSetID:373570

[Difficulty]
HPDrainRate:4
CircleSize:4
OverallDifficulty:4
ApproachRate:5
SliderMultiplier:1.50000000596046
SliderTickRate:1

[Events]
//Background and Video events
0,0,"Background.jpg",0,0
//Break Periods
//Storyboard Layer 0 (Background)
//Storyboard Layer 1 (Fail)
//Storyboard Layer 2 (Pass)
//Storyboard Layer 3 (Foreground)
//Storyboard Sound Samples

[TimingPoints]
516,800,4,2,1,13,1,0
32516,-100,4,2,1,20,0,0
50116,-100,4,2,1,10,0,0
50516,-100,4,2,1,5,0,0

[Colours]
Combo1 : 101,83,78
Combo2 : 192,192,192
Combo3 : 205,199,180
Combo4 : 126,134,121
SliderBorder : 120,120,120
SliderTrackOverride : 81,81,81

[HitObjects]
160,88,516,6,0,L|168:184,1,75.000000298023,2|0,0:0|0:0,0:0:0:0:
260,224,1316,2,0,L|260:128,1,75.000000298023,2|0,0:0|0:0,0:0:0:0:
356,96,2116,2,0,L|348:192,1,75.000000298023
56,328,3716,6,0,L|152:336,1,75.000000298023,0|2,0:0|0:0,0:0:0:0:
464,312,5316,1,0,0:0:0:0:
232,60,6516,1,0,0:0:0:0:
180,160,6916,6,0,P|171:196|173:233,1,75.000000298023,2|0,0:0|0:0,0:0:0:0:
284,236,7716,2,0,P|286:198|278:162,1,75.000000298023,2|0,0:0|0:0,0:0:0:0:
232,60,8516,2,0,B|268:68|268:68|305:60,1,75.000000298023,0|2,0:0|0:0,0:0:0:0:
468,328,10116,6,0,L|474:253,1,75.000000298023,2|0,0:0|0:0,0:0:0:0:
200,56,11716,1,0,0:0:0:0:
420,312,12916,2,0,L|420:264,1,37.5000001490115
384,228,13316,6,0,P|340:236|296:224,1,75.000000298023,2|0,0:0|0:0,0:0:0:0:
308,116,14116,2,0,P|344:108|381:114,1,75.000000298023,2|0,0:0|0:0,0:0:0:0:
488,152,14916,2,0,B|482:189|482:189|491:226,1,75.000000298023,0|2,0:0|0:0,0:0:0:0:
156,196,16516,6,0,B|160:232|160:232|148:272,1,75.000000298023,2|0,0:0|0:0,0:0:0:0:
76,356,17316,1,2,0:0:0:0:
300,360,18116,1,2,0:0:0:0:
496,89,19316,2,0,L|496:33,1,37.5000001490115
444,28,19716,6,0,P|404:36|356:24,1,75.000000298023,2|0,0:0|0:0,0:0:0:0:
260,28,20516,1,2,0:0:0:0:
52,110,21316,1,2,0:0:0:0:
152,312,22116,1,2,0:0:0:0:
472,204,23316,5,2,0:0:0:0:
356,12,24116,2,0,P|276:24|200:12,1,150.000000596046,2|0,0:0|0:0,0:0:0:0:
380,160,25716,2,0,L|380:204,1,37.5000001490115
360,252,26116,6,0,L|260:256,1,75.000000298023,2|0,0:0|0:0,0:0:0:0:
196,324,26916,1,2,0:0:0:0:
124,108,27716,1,2,0:0:0:0:
196,324,28516,1,2,0:0:0:0:
408,60,29716,6,0,L|424:228,1,150.000000596046,2|2,0:0|0:0,0:0:0:0:
348,292,30916,2,0,L|344:250,1,37.5000001490115,2|2,0:0|0:0,0:0:0:0:
128,80,32116,1,0,0:0:0:0:
68,172,32516,6,0,B|87:193|135:177|135:177|183:193|210:169,1,150.000000596046,2|2,0:0|0:0,0:0:0:0:
278,83,33716,1,2,0:0:0:0:
368,140,34116,2,0,P|376:184|368:220,1,75.000000298023,0|2,0:0|0:0,0:0:0:0:
304,304,34916,1,2,0:0:0:0:
84,332,35716,6,0,L|80:240,1,75.000000298023,0|2,0:0|0:0,0:0:0:0:
408,340,37316,2,0,L|405:302,1,37.5000001490115,2|0,0:0|0:0,0:0:0:0:
492,36,38516,2,0,L|489:74,1,37.5000001490115
440,100,38916,6,0,L|437:62,1,37.5000001490115,2|0,0:0|0:0,0:0:0:0:
384,48,39316,2,0,B|344:40|344:40|308:48,1,75.000000298023,0|2,0:0|0:0,0:0:0:0:
240,136,40116,1,0,0:0:0:0:
128,156,40516,2,0,P|61:151|28:76,1,150.000000596046
32,308,42116,6,0,L|20:396,1,75.000000298023,0|2,0:0|0:0,0:0:0:0:
136,384,42916,2,0,L|124:296,1,75.000000298023
208,232,43716,1,2,0:0:0:0:
296,300,44116,2,0,L|360:300,1,37.5000001490115,2|0,0:0|0:0,0:0:0:0:
464,192,44916,2,0,L|400:188,1,37.5000001490115
376,168,45316,6,0,B|337:176|337:176|296:168,1,75.000000298023,2|0,0:0|0:0,0:0:0:0:
248,172,45916,2,0,L|184:176,1,37.5000001490115
219,62,46516,6,0,B|180:54|180:54|139:62,1,75.000000298023,2|0,0:0|0:0,0:0:0:0:
89,64,47116,2,0,P|70:66|49:64,1,37.5000001490115
24,174,47716,1,2,0:0:0:0:
320,340,48916,6,0,P|356:345|393:340,1,75.000000298023
492,288,49716,2,0,B|498:244|498:244|473:190|473:190|478:144,1,150.000000596046
