osu file format v14

[General]
AudioFilename: audio.mp3
AudioLeadIn: 0
PreviewTime: -1
Countdown: 1
SampleSet: Normal
StackLeniency: 0.7
Mode: 0
LetterboxInBreaks: 0
WidescreenStoryboard: 1

[Editor]
Bookmarks: 16920,17075,17307,17501,17734,18005,18237,18470,18974,19672,19904,20137,20369,20602,20834,21067,21299,21532,21765,22113,22462,22695,23199,23431,29344,30236,82794
DistanceSpacing: 0.1
BeatDivisor: 4
GridSize: 8
TimelineZoom: 2.2

[Metadata]
Title:THE HERO!!! (Super Bass Boosted Remix)
TitleUnicode:THE HERO!!! (Super Bass Boosted Remix)
Artist:The Ghost Music
ArtistUnicode:The Ghost Music
Creator:PandaHung143
Version:Botak Man
Source:
Tags:
BeatmapID:1689031
BeatmapSetID:721850

[Difficulty]
HPDrainRate:4
CircleSize:4.3
OverallDifficulty:8.5
ApproachRate:9.5
SliderMultiplier:1.99999990463257
SliderTickRate:2

[Events]
//Background and Video events
0,0,"Serious Punch.jpg",0,0
//Break Periods
2,82934,93384
//Storyboard Layer 0 (Background)
//Storyboard Layer 1 (Fail)
//Storyboard Layer 2 (Pass)
//Storyboard Layer 3 (Foreground)
//Storyboard Sound Samples

[TimingPoints]
0,468.75,4,1,0,100,1,0

[HitObjects]
88,61,234,5,0,0:0:0:0:
119,96,468,1,0,0:0:0:0:
188,142,703,1,0,0:0:0:0:
316,159,937,1,0,0:0:0:0:
385,65,1171,5,0,0:0:0:0:
345,96,1406,1,0,0:0:0:0:
265,144,1640,1,0,0:0:0:0:
147,176,1875,1,0,0:0:0:0:
128,299,2109,5,0,0:0:0:0:
159,287,2343,1,0,0:0:0:0:
239,229,2578,1,0,0:0:0:0:
372,163,2812,1,0,0:0:0:0:
366,306,3046,5,0,0:0:0:0:
331,283,3281,1,0,0:0:0:0:
250,213,3515,1,0,0:0:0:0:
116,140,3750,1,0,0:0:0:0:
252,307,3984,5,0,0:0:0:0:
262,315,4218,1,0,0:0:0:0:
262,315,4453,1,0,0:0:0:0:
262,315,4687,1,0,0:0:0:0:
137,184,4921,6,8,L|136:60,2,99.9999952316283
375,193,5625,1,8,0:0:0:0:
375,193,5859,5,4,0:0:0:0:
136,84,6093,2,4,L|135:202,2,99.9999952316283
357,309,6796,5,8,0:0:0:0:
311,262,7031,1,4,0:0:0:0:
268,213,7265,1,8,0:0:0:0:
233,157,7500,1,4,0:0:0:0:
268,213,7734,5,4,0:0:0:0:
233,157,7968,1,4,0:0:0:0:
194,106,8203,1,4,0:0:0:0:
164,51,8437,1,4,0:0:0:0:
98,306,8671,5,8,0:0:0:0:
210,201,8906,1,8,0:0:0:0:
152,253,9140,1,8,0:0:0:0:
269,149,9375,1,8,0:0:0:0:
393,47,9609,5,4,0:0:0:0:
290,137,9843,1,8,0:0:0:0:
341,89,10078,1,4,0:0:0:0:
242,188,10312,1,8,0:0:0:0:
369,322,10546,5,4,0:0:0:0:
369,322,10781,1,8,0:0:0:0:
369,322,11015,1,4,0:0:0:0:
369,322,11250,1,8,0:0:0:0:
361,78,11484,5,4,0:0:0:0:
361,78,11718,1,8,0:0:0:0:
361,78,11953,1,4,0:0:0:0:
361,78,12187,1,8,0:0:0:0:
152,80,12421,5,4,0:0:0:0:
152,80,12656,1,8,0:0:0:0:
152,80,12890,1,4,0:0:0:0:
152,80,13125,1,8,0:0:0:0:
258,302,13359,5,4,0:0:0:0:
256,192,13593,1,4,0:0:0:0:
258,302,13828,5,4,0:0:0:0:
376,192,14296,1,0,0:0:0:0:
256,296,14648,1,0,0:0:0:0:
368,192,15000,1,0,0:0:0:0:
251,293,15234,6,8,P|147:227|169:179,2,199.999990463257,8|0|0,0:0|0:0|0:0,0:0:0:0:
125,166,16640,5,0,0:0:0:0:
128,254,16875,1,0,0:0:0:0:
201,257,17109,5,0,0:0:0:0:
204,161,17343,1,0,0:0:0:0:
277,161,17578,5,0,0:0:0:0:
272,256,17812,1,0,0:0:0:0:
336,157,18046,5,0,0:0:0:0:
338,261,18281,1,0,0:0:0:0:
409,102,18515,6,4,L|414:224,2,99.9999952316283
250,191,19218,1,0,0:0:0:0:
257,192,19453,1,8,0:0:0:0:
131,137,19687,5,8,0:0:0:0:
357,133,19921,1,8,0:0:0:0:
167,280,20156,1,8,0:0:0:0:
254,45,20390,1,8,0:0:0:0:
330,261,20625,1,8,0:0:0:0:
166,128,20859,5,8,0:0:0:0:
184,252,21093,1,8,0:0:0:0:
319,129,21328,1,8,0:0:0:0:
299,259,21562,1,8,0:0:0:0:
152,112,21796,6,0,L|151:240,1,99.9999952316283
151,211,22265,5,8,0:0:0:0:
151,211,22500,6,0,L|154:88,1,99.9999952316283
152,96,22968,1,8,0:0:0:0:
152,96,23203,6,0,L|152:225,1,99.9999952316283
152,256,23671,1,0,0:0:0:0:
212,253,23906,6,4,L|247:254,3,33.3333317438761
378,66,24609,6,8,P|408:112|369:158,1,99.9999952316283
332,199,25078,2,8,P|308:143|350:122,1,99.9999952316283
88,200,25546,5,8,0:0:0:0:
104,224,25781,1,4,0:0:0:0:
120,248,26015,1,4,0:0:0:0:
129,258,26250,2,8,P|152:308|197:271,1,99.9999952316283
217,256,26718,1,12,0:0:0:0:
232,232,26953,1,4,0:0:0:0:
257,195,27187,2,8,P|288:168|319:206,1,99.9999952316283
320,200,27656,1,2,0:0:0:0:
416,192,27890,5,8,0:0:0:0:
352,104,28007,1,0,0:0:0:0:
256,64,28125,1,8,0:0:0:0:
152,112,28242,1,8,0:0:0:0:
104,192,28359,1,8,0:0:0:0:
152,280,28476,1,8,0:0:0:0:
256,336,28593,1,8,0:0:0:0:
344,288,28710,1,0,0:0:0:0:
400,192,28828,1,0,0:0:0:0:
184,128,28945,5,0,0:0:0:0:
176,240,29062,1,8,0:0:0:0:
304,128,29179,1,8,0:0:0:0:
304,240,29296,1,8,0:0:0:0:
168,136,29609,1,0,0:0:0:0:
320,136,29687,1,0,0:0:0:0:
168,272,29765,1,0,0:0:0:0:
320,272,30000,1,0,0:0:0:0:
96,64,30234,6,0,L|96:208,4,99.9999952316283
104,64,31406,1,0,0:0:0:0:
320,64,31640,6,8,P|368:104|328:128,1,99.9999952316283
160,128,32109,2,8,P|136:176|184:176,1,99.9999952316283
344,168,32578,2,8,P|384:176|360:224,1,99.9999952316283
176,224,33046,2,8,P|136:256|192:280,1,99.9999952316283
88,88,33515,6,8,L|88:216,2,99.9999952316283
88,88,34218,1,0,0:0:0:0:
88,188,34453,1,0,0:0:0:0:
256,136,34687,6,8,L|256:192,1,49.9999976158142
256,248,34921,2,0,L|256:192,1,49.9999976158142
296,160,35156,2,8,L|256:192,1,49.9999976158142
215,219,35390,2,0,L|256:192,1,49.9999976158142
296,224,35625,2,8,L|256:192,1,49.9999976158142
216,152,35859,2,0,L|256:192,1,49.9999976158143
295,222,36093,2,8,L|255:190,1,49.9999976158143
304,232,36328,1,0,0:0:0:0:
80,152,36554,5,8,0:0:0:0:
168,216,36679,1,0,0:0:0:0:
80,272,36796,1,0,0:0:0:0:
168,152,36914,5,0,0:0:0:0:
248,216,37031,1,0,0:0:0:0:
168,280,37148,1,0,0:0:0:0:
248,152,37265,5,0,0:0:0:0:
248,280,37382,1,0,0:0:0:0:
280,136,37500,5,8,0:0:0:0:
248,168,37617,1,0,0:0:0:0:
296,176,37734,1,0,0:0:0:0:
248,136,37851,5,0,0:0:0:0:
256,208,37968,1,8,0:0:0:0:
312,168,38085,1,0,0:0:0:0:
304,104,38203,5,0,0:0:0:0:
192,184,38320,1,0,0:0:0:0:
320,240,38437,1,8,0:0:0:0:
200,80,38554,5,0,0:0:0:0:
232,272,38671,1,0,0:0:0:0:
384,144,38789,1,0,0:0:0:0:
296,96,38906,5,8,0:0:0:0:
184,192,39023,1,0,0:0:0:0:
328,232,39140,1,0,0:0:0:0:
320,320,39616,5,8,0:0:0:0:
416,248,39848,1,8,0:0:0:0:
256,256,40081,5,8,0:0:0:0:
352,168,40313,1,8,0:0:0:0:
304,144,40546,5,8,0:0:0:0:
200,248,40664,1,0,0:0:0:0:
312,184,40781,1,0,0:0:0:0:
200,192,40898,1,0,0:0:0:0:
312,232,41015,1,8,0:0:0:0:
216,144,41132,1,0,0:0:0:0:
256,264,41250,1,0,0:0:0:0:
272,136,41367,1,0,0:0:0:0:
256,192,41484,1,8,0:0:0:0:
360,192,41601,5,0,0:0:0:0:
360,304,41718,1,0,0:0:0:0:
256,304,41835,1,0,0:0:0:0:
256,192,41953,1,8,0:0:0:0:
112,72,42187,6,0,L|240:72,1,99.9999952316285
400,144,42656,2,8,L|288:144,1,99.9999952316285
112,144,43007,2,0,L|232:144,1,99.9999952316285
304,80,43359,2,8,L|408:80,1,99.9999952316285
408,216,43710,2,0,L|304:216,1,99.9999952316285
136,216,44062,2,8,L|240:216,1,99.9999952316285
368,288,44531,2,8,L|256:288,1,99.9999952316285,4|8,0:0|0:0,0:0:0:0:
120,336,44882,2,0,L|240:336,1,99.9999952316285,8|0,0:0|0:0,0:0:0:0:
112,80,45234,5,8,0:0:0:0:
371,83,45351,1,0,0:0:0:0:
193,152,45468,1,0,0:0:0:0:
289,158,45585,5,0,0:0:0:0:
124,240,45703,1,8,0:0:0:0:
368,238,45820,1,0,0:0:0:0:
188,326,45937,5,0,0:0:0:0:
297,331,46054,1,0,0:0:0:0:
245,41,46171,1,8,0:0:0:0:
247,115,46289,5,0,0:0:0:0:
249,190,46406,1,0,0:0:0:0:
248,264,46523,1,0,0:0:0:0:
248,336,46640,1,8,0:0:0:0:
200,48,46875,2,0,L|328:48,1,99.9999952316285
232,136,47343,5,8,0:0:0:0:
288,136,47460,1,0,0:0:0:0:
232,192,47578,1,0,0:0:0:0:
288,192,47695,1,8,0:0:0:0:
232,248,47812,1,0,0:0:0:0:
288,248,47929,1,0,0:0:0:0:
256,136,48046,6,8,L|256:272,1,99.9999952316285
176,104,48515,2,4,P|248:88|272:136,1,99.9999952316285
344,104,48984,2,8,P|304:80|264:112,1,99.9999952316285
176,144,49453,1,0,0:0:0:0:
320,192,49570,1,0,0:0:0:0:
264,352,49687,1,8,0:0:0:0:
112,280,49804,1,0,0:0:0:0:
248,160,49921,1,0,0:0:0:0:
296,272,50039,1,8,0:0:0:0:
184,320,50156,1,0,0:0:0:0:
136,216,50273,1,0,0:0:0:0:
216,240,50390,1,8,0:0:0:0:
184,104,50742,6,4,L|264:104,1,49.9999976158143
296,216,50976,6,0,L|304:160,1,49.9999976158143
160,264,51210,6,4,L|224:264,1,49.9999976158143
120,144,51445,6,0,L|104:208,1,49.9999976158143
248,112,51679,6,4,L|192:96,1,49.9999976158143
320,120,51914,5,0,0:0:0:0:
368,168,52031,1,0,0:0:0:0:
400,264,52148,6,4,L|400:208,1,49.9999976158143
295,332,52382,6,0,L|352:312,1,49.9999976158143
216,288,52617,5,4,0:0:0:0:
160,224,52734,1,8,0:0:0:0:
160,112,52851,6,0,L|144:160,1,49.9999976158143,8|0,0:0|0:0,0:0:0:0:
224,56,53085,6,0,L|312:40,1,49.9999976158143
288,120,53320,5,4,0:0:0:0:
224,136,53437,1,8,0:0:0:0:
240,208,53554,6,8,L|296:200,1,49.9999976158143
304,272,53789,5,0,0:0:0:0:
240,280,53906,1,4,0:0:0:0:
440,160,54023,1,8,0:0:0:0:
80,224,54140,1,8,0:0:0:0:
144,64,54375,6,4,L|208:64,1,49.9999976158143
328,64,54609,2,0,L|400:64,1,49.9999976158143
240,184,54843,1,4,0:0:0:0:
288,184,54960,1,0,0:0:0:0:
240,232,55078,1,0,0:0:0:0:
288,184,55195,1,4,0:0:0:0:
285,235,55312,1,0,0:0:0:0:
256,192,55429,12,0,56367,0:0:0:0:
128,56,56484,5,8,0:0:0:0:
128,192,56601,1,0,0:0:0:0:
272,200,56718,1,0,0:0:0:0:
280,64,56835,1,0,0:0:0:0:
432,72,56953,1,8,0:0:0:0:
432,208,57070,1,0,0:0:0:0:
424,336,57187,1,0,0:0:0:0:
264,336,57304,1,0,0:0:0:0:
89,332,57421,1,8,0:0:0:0:
208,72,57890,5,8,0:0:0:0:
272,72,58007,1,0,0:0:0:0:
152,128,58125,1,0,0:0:0:0:
328,120,58242,1,0,0:0:0:0:
104,184,58359,1,8,0:0:0:0:
376,176,58476,1,0,0:0:0:0:
152,248,58593,1,0,0:0:0:0:
320,248,58710,1,0,0:0:0:0:
208,296,58828,1,8,0:0:0:0:
272,296,58945,1,0,0:0:0:0:
240,240,59062,5,0,0:0:0:0:
280,184,59179,1,0,0:0:0:0:
320,136,59296,1,8,0:0:0:0:
376,160,59414,1,0,0:0:0:0:
392,224,59531,1,0,0:0:0:0:
368,288,59648,1,0,0:0:0:0:
296,320,59765,1,8,0:0:0:0:
184,304,59882,1,0,0:0:0:0:
120,216,60000,1,0,0:0:0:0:
168,104,60117,1,0,0:0:0:0:
264,56,60234,1,8,0:0:0:0:
32,64,60468,1,0,0:0:0:0:
32,64,60703,1,0,0:0:0:0:
56,328,60937,6,8,L|136:256,1,99.9999952316285
176,208,61406,2,4,L|272:128,1,99.9999952316285
312,112,61757,2,4,L|408:192,1,99.9999952316285
432,224,62109,2,4,L|336:320,1,99.9999952316285
248,336,62460,2,4,L|128:344,1,99.9999952316285
168,48,62812,2,4,L|296:48,1,99.9999952316285
224,224,63281,6,0,P|216:176|248:200,1,99.9999952316285
128,160,63750,1,0,0:0:0:0:
128,124,63867,1,0,0:0:0:0:
136,160,63984,1,0,0:0:0:0:
137,124,64101,1,0,0:0:0:0:
144,160,64218,1,0,0:0:0:0:
145,125,64335,1,0,0:0:0:0:
152,160,64453,1,0,0:0:0:0:
150,125,64570,1,0,0:0:0:0:
160,160,64687,1,0,0:0:0:0:
375,128,64804,5,0,0:0:0:0:
377,160,64921,1,0,0:0:0:0:
360,127,65039,1,0,0:0:0:0:
359,164,65156,1,0,0:0:0:0:
341,127,65273,1,0,0:0:0:0:
339,166,65390,1,0,0:0:0:0:
256,192,65859,5,0,0:0:0:0:
88,128,66093,2,8,L|88:192,1,49.9999976158143
88,288,66328,2,0,L|88:232,1,49.9999976158143
160,288,66562,6,8,L|160:224,1,49.9999976158143
232,144,66796,2,0,L|232:200,1,49.9999976158143
160,144,67031,6,8,L|160:208,1,49.9999976158143
304,144,67265,2,0,L|304:208,1,49.9999976158143
232,288,67500,6,8,L|232:232,1,49.9999976158143
240,136,67734,5,0,0:0:0:0:
216,160,67851,1,8,0:0:0:0:
256,168,67968,5,0,0:0:0:0:
208,112,68085,1,8,0:0:0:0:
224,200,68203,5,0,0:0:0:0:
288,136,68320,1,8,0:0:0:0:
272,64,68437,5,0,0:0:0:0:
144,168,68554,1,8,0:0:0:0:
312,232,68671,5,0,0:0:0:0:
128,40,68789,1,8,0:0:0:0:
176,320,68906,5,0,0:0:0:0:
408,152,69023,1,0,0:0:0:0:
282,100,69140,5,8,0:0:0:0:
335,313,69257,1,0,0:0:0:0:
98,185,69375,1,0,0:0:0:0:
128,48,69492,5,8,0:0:0:0:
312,232,69609,1,0,0:0:0:0:
144,168,69726,1,0,0:0:0:0:
300,51,69843,5,8,0:0:0:0:
328,144,69960,1,0,0:0:0:0:
208,232,70078,1,0,0:0:0:0:
192,112,70195,5,8,0:0:0:0:
264,128,70312,1,0,0:0:0:0:
224,160,70429,1,0,0:0:0:0:
272,176,70546,5,8,0:0:0:0:
256,152,70664,1,0,0:0:0:0:
204,180,70781,5,0,0:0:0:0:
287,108,70898,1,8,0:0:0:0:
159,220,71015,5,0,0:0:0:0:
323,81,71132,1,0,0:0:0:0:
103,286,71250,5,8,0:0:0:0:
240,184,71367,1,0,0:0:0:0:
212,148,71484,5,0,0:0:0:0:
281,212,71601,1,8,0:0:0:0:
167,120,71718,5,0,0:0:0:0:
318,248,71835,1,8,0:0:0:0:
115,62,71953,5,0,0:0:0:0:
369,286,72070,1,8,0:0:0:0:
224,176,72187,5,0,0:0:0:0:
256,144,72304,1,8,0:0:0:0:
280,160,72421,1,0,0:0:0:0:
272,208,72539,1,8,0:0:0:0:
232,208,72656,1,0,0:0:0:0:
224,160,72773,5,8,0:0:0:0:
248,144,72890,1,0,0:0:0:0:
280,160,73007,1,0,0:0:0:0:
272,208,73125,1,8,0:0:0:0:
228,197,73242,1,0,0:0:0:0:
169,147,73359,5,0,0:0:0:0:
248,88,73476,1,8,0:0:0:0:
315,151,73593,1,0,0:0:0:0:
289,235,73710,1,0,0:0:0:0:
193,242,73828,1,8,0:0:0:0:
141,190,73945,5,0,0:0:0:0:
208,110,74062,1,0,0:0:0:0:
295,123,74179,1,8,0:0:0:0:
311,234,74296,1,0,0:0:0:0:
203,263,74414,1,0,0:0:0:0:
124,192,74531,5,8,0:0:0:0:
250,73,74648,1,0,0:0:0:0:
373,194,74765,1,8,0:0:0:0:
323,305,74882,1,0,0:0:0:0:
180,295,75000,1,8,0:0:0:0:
64,184,75117,5,0,0:0:0:0:
152,96,75234,1,8,0:0:0:0:
248,16,75351,1,0,0:0:0:0:
368,112,75468,1,8,0:0:0:0:
424,192,75585,5,0,0:0:0:0:
376,312,75703,1,0,0:0:0:0:
264,352,75820,1,8,0:0:0:0:
144,288,75937,1,0,0:0:0:0:
96,192,76054,1,0,0:0:0:0:
88,72,76171,6,8,L|136:112,1,49.9999976158143
392,344,76406,6,0,L|328:288,1,49.9999976158143
96,344,76640,6,8,L|168:296,1,49.9999976158143
392,80,76875,6,0,L|328:152,1,49.9999976158143
256,360,77109,6,8,L|256:296,1,49.9999976158143
432,192,77343,6,0,L|368:192,1,49.9999976158143
88,192,77578,6,8,L|144:192,1,49.9999976158143
256,32,77812,2,0,L|256:88,1,49.9999976158143
204,209,78046,6,0,L|307:229,2,99.9999952316285
256,128,78750,1,4,0:0:0:0:
80,168,78984,2,8,L|168:80,1,99.9999952316285
248,56,79453,2,4,L|352:56,1,99.9999952316285
408,240,79804,2,4,L|304:336,1,99.9999952316285
272,328,80156,2,4,L|152:256,1,99.9999952316285
304,192,80625,2,8,L|184:192,1,99.9999952316285
200,128,80976,1,0,0:0:0:0:
248,152,81093,2,4,L|248:216,5,49.9999976158143
256,192,81796,12,0,82734,0:0:0:0:
257,188,93984,5,0,0:0:0:0:
282,190,94218,1,0,0:0:0:0:
330,189,94453,1,0,0:0:0:0:
119,82,94687,5,0,0:0:0:0:
173,82,94921,1,0,0:0:0:0:
236,84,95156,1,0,0:0:0:0:
389,306,95390,5,0,0:0:0:0:
336,305,95625,1,0,0:0:0:0:
270,304,95859,1,0,0:0:0:0:
157,142,96093,6,0,L|158:249,2,99.9999952316285
233,142,96796,5,0,0:0:0:0:
232,186,97031,1,0,0:0:0:0:
232,235,97265,1,0,0:0:0:0:
233,280,97500,1,0,0:0:0:0:
372,225,97734,6,0,L|370:106,2,99.9999952316285
368,119,98437,1,0,0:0:0:0:
369,153,98671,1,0,0:0:0:0:
373,200,98906,1,0,0:0:0:0:
373,238,99140,1,0,0:0:0:0:
96,51,99375,6,0,L|210:51,1,99.9999952316285
117,51,99843,2,0,L|226:48,1,99.9999952316285
140,51,100195,2,0,L|246:49,1,99.9999952316285
163,52,100546,2,0,L|287:49,1,99.9999952316285
287,54,101015,2,0,L|177:55,1,99.9999952316285
256,192,101367,12,0,102187,0:0:0:0:
84,173,102421,6,0,L|118:108,1,49.9999976158143
141,75,102656,6,0,L|206:55,1,49.9999976158143
261,52,102890,2,0,L|326:89,1,49.9999976158143
365,135,103125,5,0,0:0:0:0:
419,186,103242,1,0,0:0:0:0:
437,252,103359,6,0,L|401:301,1,49.9999976158143
348,333,103593,5,0,0:0:0:0:
277,337,103710,1,0,0:0:0:0:
208,313,103828,6,0,L|148:262,1,49.9999976158143
183,211,104062,6,0,L|257:188,1,49.9999976158143
288,171,104296,2,0,L|201:137,1,49.9999976158143
198,134,104531,5,0,0:0:0:0:
212,140,104648,1,0,0:0:0:0:
237,146,104765,1,0,0:0:0:0:
261,160,104882,1,0,0:0:0:0:
296,177,105000,1,0,0:0:0:0:
318,185,105117,1,0,0:0:0:0:
352,202,105234,2,0,L|403:222,8,49.9999976158143
256,192,106406,12,0,107109,0:0:0:0:
215,192,107343,6,0,L|332:191,1,99.9999952316285
314,191,107695,2,0,L|212:191,1,99.9999952316285
288,191,108046,2,0,L|186:189,1,99.9999952316285
180,193,108398,2,0,L|283:191,1,99.9999952316285
279,191,108750,1,0,0:0:0:0:
88,64,108984,5,0,0:0:0:0:
357,306,109218,1,0,0:0:0:0:
365,66,109453,1,0,0:0:0:0:
105,303,109687,5,0,0:0:0:0:
228,184,109921,1,0,0:0:0:0:
228,184,110156,1,0,0:0:0:0:
231,75,110390,5,0,0:0:0:0:
229,304,110625,1,0,0:0:0:0:
103,193,110859,1,0,0:0:0:0:
345,195,111093,5,0,0:0:0:0:
458,189,111328,1,0,0:0:0:0:
236,200,111562,1,0,0:0:0:0:
256,192,111796,12,0,112500,0:0:0:0:
100,75,112734,6,0,L|97:147,1,49.9999976158143
172,77,112968,2,0,L|172:135,1,49.9999976158143
244,75,113203,6,0,L|247:137,1,49.9999976158143
317,69,113437,2,0,L|317:124,1,49.9999976158143
63,217,113671,6,0,L|110:180,1,49.9999976158143
135,223,113906,2,0,L|86:178,1,49.9999976158143
205,189,114140,6,0,L|268:232,1,49.9999976158143
296,187,114375,2,0,L|228:232,1,49.9999976158143
210,122,114609,5,0,0:0:0:0:
292,124,114726,1,0,0:0:0:0:
212,204,114843,1,0,0:0:0:0:
290,208,114960,1,0,0:0:0:0:
164,89,115078,5,0,0:0:0:0:
343,89,115195,1,0,0:0:0:0:
169,248,115312,1,0,0:0:0:0:
346,251,115429,1,0,0:0:0:0:
126,64,115546,5,0,0:0:0:0:
381,56,115664,1,0,0:0:0:0:
125,283,115781,1,0,0:0:0:0:
385,286,115898,1,0,0:0:0:0:
223,181,116015,6,0,P|259:146|280:189,1,99.9999952316285
401,68,116484,5,0,0:0:0:0:
366,93,116601,1,0,0:0:0:0:
410,106,116718,1,0,0:0:0:0:
108,79,116835,5,0,0:0:0:0:
108,79,116952,1,0,0:0:0:0:
108,79,117070,1,0,0:0:0:0:
112,302,117187,5,0,0:0:0:0:
121,269,117304,1,0,0:0:0:0:
147,292,117421,1,0,0:0:0:0:
390,298,117538,5,0,0:0:0:0:
390,298,117656,1,0,0:0:0:0:
390,298,117773,1,0,0:0:0:0:
255,189,117890,5,0,0:0:0:0:
248,184,118125,6,0,L|139:185,1,99.9999952316285
248,188,118594,2,0,L|250:82,1,99.9999952316285
248,188,118945,6,0,L|326:117,1,99.9999952316285
248,188,119297,2,0,L|350:192,1,99.9999952316285
248,188,119649,6,0,L|320:294,1,99.9999952316285
239,188,120000,2,0,L|142:278,1,99.9999952316285
233,191,120468,6,0,L|128:191,1,99.9999952316285
233,191,120937,2,0,L|133:99,1,99.9999952316285
217,331,121406,1,0,0:0:0:0:
217,331,121640,1,0,0:0:0:0:
177,36,121875,5,0,0:0:0:0:
325,38,121992,1,0,0:0:0:0:
169,110,122109,5,0,0:0:0:0:
331,114,122226,1,0,0:0:0:0:
180,194,122343,5,0,0:0:0:0:
334,194,122460,1,0,0:0:0:0:
185,283,122578,5,0,0:0:0:0:
338,269,122695,1,0,0:0:0:0:
190,362,122812,5,0,0:0:0:0:
344,357,122929,1,0,0:0:0:0:
256,192,123046,12,0,123750,0:0:0:0:
243,274,123984,5,0,0:0:0:0:
243,108,124101,1,0,0:0:0:0:
167,258,124218,5,0,0:0:0:0:
309,137,124335,1,0,0:0:0:0:
162,189,124453,5,0,0:0:0:0:
335,196,124570,1,0,0:0:0:0:
176,123,124687,5,0,0:0:0:0:
318,262,124804,1,0,0:0:0:0:
256,198,124921,5,0,0:0:0:0:
256,198,125156,1,0,0:0:0:0:
125,57,125390,6,0,L|184:57,1,49.9999976158143
394,128,125625,2,0,L|322:129,1,49.9999976158143
125,253,125859,6,0,L|198:251,1,49.9999976158143
256,198,126093,2,0,L|254:143,1,49.9999976158143
399,309,126328,6,0,L|324:309,1,49.9999976158143
387,53,126562,2,0,L|337:54,1,49.9999976158143
135,151,126796,6,0,L|207:150,8,49.9999976158143
329,92,127968,6,0,P|384:78|368:126,1,99.9999952316285
172,269,128320,2,0,P|166:328|215:315,1,99.9999952316285
152,138,128671,6,0,P|124:91|164:98,1,99.9999952316285
329,258,129140,2,0,P|381:280|344:308,1,99.9999952316285
235,192,129609,5,0,0:0:0:0:
295,192,129726,1,0,0:0:0:0:
265,164,129843,1,0,0:0:0:0:
267,213,129960,5,0,0:0:0:0:
235,192,130078,1,0,0:0:0:0:
295,192,130195,1,0,0:0:0:0:
265,164,130312,5,0,0:0:0:0:
267,213,130429,1,0,0:0:0:0:
233,162,130546,1,0,0:0:0:0:
301,164,130664,5,0,0:0:0:0:
299,231,130781,1,0,0:0:0:0:
234,229,130898,1,0,0:0:0:0:
194,196,131015,5,0,0:0:0:0:
267,130,131132,1,0,0:0:0:0:
337,200,131250,1,0,0:0:0:0:
270,269,131367,5,0,0:0:0:0:
194,124,131484,1,0,0:0:0:0:
337,128,131601,1,0,0:0:0:0:
341,270,131718,5,0,0:0:0:0:
195,269,131835,1,0,0:0:0:0:
228,197,131953,2,0,L|288:198,7,49.9999976158143
327,258,132890,6,0,L|278:216,1,49.9999976158143
332,136,133125,6,0,L|263:180,1,49.9999976158143
183,131,133359,2,0,L|250:181,1,49.9999976158143
185,254,133593,6,0,L|248:210,1,49.9999976158143
257,125,133828,2,0,L|257:188,1,49.9999976158143
334,193,134062,6,0,L|257:193,1,49.9999976158143
257,260,134296,2,0,L|256:189,1,49.9999976158143
191,193,134531,6,0,L|255:193,1,49.9999976158143
255,192,134765,2,0,L|204:243,1,49.9999976158143
255,192,135000,6,0,L|299:225,1,49.9999976158143
250,188,135234,2,0,L|303:151,1,49.9999976158143
250,188,135468,6,0,L|185:140,1,49.9999976158143
208,62,135703,2,0,L|288:57,9,49.9999976158143
237,193,136875,5,0,0:0:0:0:
332,194,137109,1,0,0:0:0:0:
136,191,137343,5,0,0:0:0:0:
418,197,137578,1,0,0:0:0:0:
55,190,137812,5,0,0:0:0:0:
491,198,138046,1,0,0:0:0:0:
256,192,138164,12,0,138750,0:0:0:0:
201,129,138984,6,0,P|255:59|311:140,2,199.999990463257
298,167,140390,6,0,L|232:218,1,49.9999976158143
308,240,140625,2,0,L|256:218,1,49.9999976158143
211,275,140859,6,0,L|248:230,1,49.9999976158143
279,288,141093,2,0,L|243:218,1,49.9999976158143
56,31,141328,6,0,L|131:33,1,49.9999976158143
326,33,141562,2,0,L|405:33,1,49.9999976158143
382,142,141796,6,0,L|319:143,1,49.9999976158143
132,146,142031,2,0,L|59:148,1,49.9999976158143
284,232,142265,6,0,P|256:196|233:234,2,99.9999952316285
223,228,142968,1,0,0:0:0:0:
287,228,143203,1,0,0:0:0:0:
258,171,143437,5,0,0:0:0:0:
242,191,143554,1,0,0:0:0:0:
268,191,143671,1,0,0:0:0:0:
216,153,143789,5,0,0:0:0:0:
291,155,143906,1,0,0:0:0:0:
255,212,144023,1,0,0:0:0:0:
255,97,144140,5,0,0:0:0:0:
185,216,144257,1,0,0:0:0:0:
325,217,144375,1,0,0:0:0:0:
158,118,144492,5,0,0:0:0:0:
348,115,144609,1,0,0:0:0:0:
257,285,144726,1,0,0:0:0:0:
258,26,144843,5,0,0:0:0:0:
128,267,144960,1,0,0:0:0:0:
381,268,145078,1,0,0:0:0:0:
96,75,145195,5,0,0:0:0:0:
404,64,145312,1,0,0:0:0:0:
257,351,145546,6,0,L|255:222,2,99.9999952316285
178,138,146133,5,0,0:0:0:0:
237,82,146250,1,0,0:0:0:0:
311,118,146367,1,0,0:0:0:0:
347,187,146484,5,0,0:0:0:0:
328,260,146601,1,0,0:0:0:0:
250,280,146718,1,0,0:0:0:0:
186,251,146836,5,0,0:0:0:0:
163,187,146953,1,0,0:0:0:0:
190,119,147070,1,0,0:0:0:0:
249,72,147187,6,0,L|306:67,6,49.9999976158143
154,102,148125,6,0,L|246:171,1,99.9999952316285
321,120,148476,2,0,P|358:102|331:149,1,99.9999952316285
195,223,148828,2,0,P|245:251|251:210,1,99.9999952316285
60,199,149296,1,0,0:0:0:0:
145,197,149531,1,0,0:0:0:0:
221,197,149765,1,0,0:0:0:0:
296,196,150000,2,0,L|421:195,4,99.9999952316285
195,131,151171,5,0,0:0:0:0:
192,248,151289,1,0,0:0:0:0:
317,138,151406,1,0,0:0:0:0:
314,261,151523,1,0,0:0:0:0:
388,218,151640,5,0,0:0:0:0:
389,115,151757,1,0,0:0:0:0:
314,67,151875,1,0,0:0:0:0:
225,59,151992,1,0,0:0:0:0:
154,120,152109,5,0,0:0:0:0:
106,201,152226,1,0,0:0:0:0:
150,273,152343,1,0,0:0:0:0:
228,302,152460,1,0,0:0:0:0:
309,285,152578,5,0,0:0:0:0:
374,222,152695,1,0,0:0:0:0:
259,194,152812,1,0,0:0:0:0:
256,192,152929,12,0,153750,0:0:0:0:
199,186,153984,6,0,P|259:102|292:195,2,199.999990463257
206,152,155273,2,0,L|256:192,1,49.9999976158143
245,183,155507,2,0,L|296:231,1,49.9999976158143
286,227,155742,6,0,L|334:264,1,49.9999976158143
343,257,155976,2,0,L|381:204,1,49.9999976158143
383,207,156210,6,0,L|401:146,1,49.9999976158143
400,136,156445,2,0,L|366:97,1,49.9999976158143
341,80,156679,6,0,L|262:79,1,49.9999976158143
266,80,156914,2,0,L|200:106,1,49.9999976158143
178,221,157265,6,0,L|287:256,2,99.9999952316285
250,198,157968,1,0,0:0:0:0:
103,195,158203,5,0,0:0:0:0:
107,322,158320,1,0,0:0:0:0:
232,326,158437,1,0,0:0:0:0:
226,204,158555,1,0,0:0:0:0:
105,201,158671,5,0,0:0:0:0:
226,204,158789,1,0,0:0:0:0:
114,316,158906,1,0,0:0:0:0:
229,331,159024,1,0,0:0:0:0:
367,335,159141,5,0,0:0:0:0:
368,202,159258,1,0,0:0:0:0:
226,204,159375,1,0,0:0:0:0:
364,62,159492,1,0,0:0:0:0:
228,60,159610,5,0,0:0:0:0:
226,204,159727,1,0,0:0:0:0:
372,198,159844,1,0,0:0:0:0:
364,62,159961,1,0,0:0:0:0:
232,57,160078,5,0,0:0:0:0:
83,58,160195,1,0,0:0:0:0:
86,201,160313,1,0,0:0:0:0:
226,204,160429,1,0,0:0:0:0:
228,60,160546,5,0,0:0:0:0:
364,62,160664,1,0,0:0:0:0:
366,210,160781,1,0,0:0:0:0:
371,336,160898,1,0,0:0:0:0:
230,334,161015,5,0,0:0:0:0:
86,337,161132,1,0,0:0:0:0:
87,192,161250,5,0,0:0:0:0:
89,66,161367,1,0,0:0:0:0:
172,249,161484,5,0,0:0:0:0:
171,126,161601,1,0,0:0:0:0:
254,311,161718,5,0,0:0:0:0:
252,190,161835,1,0,0:0:0:0:
332,260,161953,5,0,0:0:0:0:
327,137,162070,1,0,0:0:0:0:
405,196,162187,5,0,0:0:0:0:
403,73,162304,1,0,0:0:0:0:
382,75,162421,5,0,0:0:0:0:
231,78,162539,1,0,0:0:0:0:
337,140,162656,5,0,0:0:0:0:
172,144,162773,1,0,0:0:0:0:
277,209,162890,5,0,0:0:0:0:
109,164,163125,6,0,P|125:129|155:171,1,99.9999952316285
163,158,163593,2,0,P|205:154|179:203,1,99.9999952316285
200,199,163945,2,0,P|183:238|151:202,1,99.9999952316285
148,57,164296,6,0,L|147:148,1,49.9999976158143
363,322,164531,2,0,L|363:253,1,49.9999976158143
158,266,164765,6,0,L|165:351,1,49.9999976158143
359,167,165000,2,0,L|356:86,1,49.9999976158143
225,198,165234,6,0,L|319:199,1,49.9999976158143
274,198,165468,2,0,L|214:198,1,49.9999976158143
224,198,165703,6,0,L|285:200,1,49.9999976158143
285,200,165937,2,0,L|214:202,1,49.9999976158143
175,183,166171,5,0,0:0:0:0:
278,119,166289,1,0,0:0:0:0:
376,236,166406,1,0,0:0:0:0:
101,229,166523,1,0,0:0:0:0:
128,94,166640,5,0,0:0:0:0:
248,49,166757,1,0,0:0:0:0:
388,90,166875,1,0,0:0:0:0:
420,217,166992,1,0,0:0:0:0:
353,336,167109,1,0,0:0:0:0:
129,149,167343,6,0,L|246:142,1,99.9999952316285
129,149,167695,2,0,P|170:115|208:157,1,99.9999952316285
149,132,168046,2,0,P|190:91|217:141,1,99.9999952316285
149,132,168515,2,0,P|186:169|217:132,1,99.9999952316285
421,53,168984,6,0,L|421:117,4,49.9999976158143
421,164,169570,2,0,L|423:103,5,49.9999976158143
119,86,170390,6,0,L|174:109,2,49.9999976158143
132,279,170742,2,0,L|186:239,2,49.9999976158143
389,283,171093,2,0,L|334:233,2,49.9999976158143
384,66,171445,2,0,L|327:101,2,49.9999976158143
231,194,171796,6,0,P|267:172|235:199,1,99.9999952316285
261,197,172265,2,0,P|241:161|245:200,1,99.9999952316285
261,197,172734,6,0,L|208:197,1,49.9999976158143
203,132,172968,2,0,L|262:137,1,49.9999976158143
187,75,173203,6,0,L|132:110,1,49.9999976158143
105,169,173437,2,0,L|128:252,1,49.9999976158143
161,274,173671,6,0,L|226:286,1,49.9999976158143
305,284,173906,2,0,L|362:234,1,49.9999976158143
377,193,174141,5,0,0:0:0:0:
333,118,174258,1,0,0:0:0:0:
272,89,174375,6,0,L|206:90,1,49.9999976158143
165,138,174609,5,0,0:0:0:0:
173,215,174726,1,0,0:0:0:0:
259,188,174844,6,0,L|332:189,1,49.9999976158143
259,188,175078,2,0,L|186:191,1,49.9999976158143
259,188,175312,6,0,L|259:108,1,49.9999976158143
259,188,175546,2,0,L|260:256,1,49.9999976158143
232,138,175781,6,0,P|270:101|275:147,1,99.9999952316285
305,258,176250,2,0,P|303:301|266:268,1,99.9999952316285
211,224,176601,5,0,0:0:0:0:
301,180,176718,1,0,0:0:0:0:
383,146,176835,6,0,L|299:108,1,49.9999976158143
266,98,177070,2,0,L|187:121,1,49.9999976158143
127,164,177304,5,0,0:0:0:0:
194,277,177421,1,0,0:0:0:0:
363,295,177539,1,0,0:0:0:0:
385,145,177656,1,0,0:0:0:0:
252,40,177773,1,0,0:0:0:0:
118,158,177890,1,0,0:0:0:0:
197,195,178242,5,0,0:0:0:0:
323,195,178359,1,0,0:0:0:0:
197,195,178476,5,0,0:0:0:0:
323,195,178593,1,0,0:0:0:0:
197,195,178710,5,0,0:0:0:0:
323,195,178827,1,0,0:0:0:0:
197,195,178945,5,0,0:0:0:0:
323,195,179062,1,0,0:0:0:0:
256,192,179179,12,0,180000,0:0:0:0:
261,151,180234,5,0,0:0:0:0:
235,182,180351,1,0,0:0:0:0:
281,184,180468,1,0,0:0:0:0:
228,140,180585,5,0,0:0:0:0:
257,200,180703,1,0,0:0:0:0:
295,144,180820,1,0,0:0:0:0:
268,84,180937,5,0,0:0:0:0:
192,200,181054,1,0,0:0:0:0:
326,210,181172,1,0,0:0:0:0:
192,121,181523,5,0,0:0:0:0:
299,124,181640,1,0,0:0:0:0:
305,208,181757,1,0,0:0:0:0:
192,205,181875,1,0,0:0:0:0:
61,228,181992,5,0,0:0:0:0:
63,361,182109,1,0,0:0:0:0:
182,362,182226,1,0,0:0:0:0:
185,230,182343,1,0,0:0:0:0:
291,136,182461,5,0,0:0:0:0:
292,18,182578,1,0,0:0:0:0:
419,18,182695,1,0,0:0:0:0:
428,131,182812,1,0,0:0:0:0:
183,140,182929,5,0,0:0:0:0:
62,140,183047,1,0,0:0:0:0:
59,29,183164,1,0,0:0:0:0:
184,28,183281,1,0,0:0:0:0:
290,233,183398,5,0,0:0:0:0:
289,351,183515,1,0,0:0:0:0:
419,354,183633,1,0,0:0:0:0:
425,234,183750,1,0,0:0:0:0:
209,151,183867,6,0,L|260:188,1,49.9999976158143
301,218,184101,2,0,L|254:188,1,49.9999976158143
203,240,184336,6,0,L|254:190,1,49.9999976158143
305,144,184570,2,0,L|255:194,1,49.9999976158143
256,189,184804,6,0,L|205:189,1,49.9999976158143
260,126,185039,2,0,L|257:204,1,49.9999976158143
256,263,185273,2,0,L|257:182,1,49.9999976158143
192,113,185625,6,0,L|323:111,1,99.9999952316285
356,161,185976,2,0,L|358:274,1,99.9999952316285
293,313,186328,2,0,L|150:317,1,99.9999952316285
142,268,186796,2,0,L|140:145,1,99.9999952316285
157,110,187148,6,0,L|208:82,1,49.9999976158143
341,105,187382,2,0,L|394:142,1,49.9999976158143
388,262,187617,6,0,L|342:300,1,49.9999976158143
223,330,187851,2,0,L|167:279,1,49.9999976158143
61,29,188085,6,0,L|63:90,1,49.9999976158143
142,33,188320,2,0,L|141:82,1,49.9999976158143
216,27,188554,6,0,L|212:101,1,49.9999976158143
299,31,188789,2,0,L|297:110,1,49.9999976158143
383,33,189023,6,0,L|383:95,4,49.9999976158143
381,336,189609,6,0,L|378:273,1,49.9999976158143
305,340,189843,2,0,L|306:279,1,49.9999976158143
221,333,190078,6,0,L|221:281,1,49.9999976158143
142,338,190312,2,0,L|144:284,1,49.9999976158143
68,348,190546,2,0,L|66:285,4,49.9999976158143
167,188,191132,5,0,0:0:0:0:
181,114,191250,1,0,0:0:0:0:
226,45,191367,1,0,0:0:0:0:
284,288,191484,5,0,0:0:0:0:
317,219,191601,1,0,0:0:0:0:
323,144,191718,1,0,0:0:0:0:
156,207,191835,5,0,0:0:0:0:
180,281,191953,1,0,0:0:0:0:
230,339,192070,1,0,0:0:0:0:
320,135,192187,5,0,0:0:0:0:
296,81,192304,1,0,0:0:0:0:
252,22,192421,1,0,0:0:0:0:
244,339,192539,5,0,0:0:0:0:
246,277,192656,1,0,0:0:0:0:
246,202,192773,1,0,0:0:0:0:
243,120,192890,1,0,0:0:0:0:
241,38,193007,1,0,0:0:0:0:
317,73,193125,5,0,0:0:0:0:
382,146,193242,1,0,0:0:0:0:
405,236,193359,1,0,0:0:0:0:
378,319,193476,1,0,0:0:0:0:
292,367,193593,1,0,0:0:0:0:
192,342,193710,1,0,0:0:0:0:
134,262,193828,1,0,0:0:0:0:
141,167,193945,1,0,0:0:0:0:
192,86,194062,5,0,0:0:0:0:
274,46,194179,1,0,0:0:0:0:
364,76,194296,1,0,0:0:0:0:
423,153,194414,1,0,0:0:0:0:
448,230,194531,1,0,0:0:0:0:
439,302,194648,1,0,0:0:0:0:
368,349,194765,1,0,0:0:0:0:
138,182,194883,6,0,P|155:149|161:189,1,99.9999952316285
394,193,195234,6,0,P|382:151|379:198,4,99.9999952316285
101,56,196406,6,0,L|234:56,1,99.9999952316285
419,321,196757,2,0,L|292:324,1,99.9999952316285
97,304,197109,2,0,L|223:306,1,99.9999952316285
423,64,197578,2,0,L|297:62,3,99.9999952316285
197,191,198515,5,0,0:0:0:0:
234,159,198632,1,0,0:0:0:0:
272,168,198750,1,0,0:0:0:0:
299,207,198867,1,0,0:0:0:0:
303,244,198984,1,0,0:0:0:0:
271,262,199101,5,0,0:0:0:0:
237,262,199218,1,0,0:0:0:0:
203,236,199335,1,0,0:0:0:0:
186,198,199453,1,0,0:0:0:0:
208,160,199570,1,0,0:0:0:0:
231,156,199687,6,0,L|358:159,2,99.9999952316285
194,333,200390,5,0,0:0:0:0:
257,75,200625,5,0,0:0:0:0:
343,334,200742,1,0,0:0:0:0:
163,108,200859,5,0,0:0:0:0:
257,189,200976,1,0,0:0:0:0:
133,284,201093,1,0,0:0:0:0:
365,91,201210,1,0,0:0:0:0:
259,346,201328,1,0,0:0:0:0:
255,67,201445,5,0,0:0:0:0:
353,351,201562,1,0,0:0:0:0:
105,208,201679,1,0,0:0:0:0:
383,173,201796,1,0,0:0:0:0:
205,315,201914,1,0,0:0:0:0:
51,22,202031,5,0,0:0:0:0:
163,20,202148,1,0,0:0:0:0:
81,54,202265,5,0,0:0:0:0:
193,57,202382,1,0,0:0:0:0:
115,80,202499,5,0,0:0:0:0:
115,197,202616,1,0,0:0:0:0:
160,106,202733,5,0,0:0:0:0:
165,218,202850,1,0,0:0:0:0:
210,143,202968,6,0,L|210:198,10,49.9999976158143
79,190,204375,1,0,0:0:0:0:
445,182,204492,1,0,0:0:0:0:
139,373,204609,1,0,0:0:0:0:
260,25,204726,1,0,0:0:0:0:
382,375,204843,1,0,0:0:0:0:
210,192,204960,6,0,L|265:193,5,49.9999976158143
256,192,205664,12,0,206484,0:0:0:0:
