osu file format v14

[General]
AudioFilename: audio.mp3
AudioLeadIn: 0
PreviewTime: 90346
Countdown: 0
SampleSet: Soft
StackLeniency: 0.7
Mode: 3
LetterboxInBreaks: 0
SpecialStyle: 0
WidescreenStoryboard: 0

[Editor]
DistanceSpacing: 1.7
BeatDivisor: 4
GridSize: 32
TimelineZoom: 0.6999999

[Metadata]
Title:2019 Guy
TitleUnicode:2019 Guy
Artist:The Gentle Men
ArtistUnicode:The Gentle Men
Creator:lenpai
Version:[deleted]
Source:
Tags:osu! fa mappers' guild featured artist cr1tikal troy mckubre charlie english rock solstate famoss mg moistcr1tikal Charles White Jr. junior penguinz0
BeatmapID:2861291
BeatmapSetID:1385026

[Difficulty]
HPDrainRate:8
CircleSize:4
OverallDifficulty:8
ApproachRate:5
SliderMultiplier:1.4
SliderTickRate:1

[Events]
//Background and Video events
0,0,"maxresdefault.jpg",0,0
//Break Periods
//Storyboard Layer 0 (Background)
//Storyboard Layer 1 (Fail)
//Storyboard Layer 2 (Pass)
//Storyboard Layer 3 (Foreground)
//Storyboard Layer 4 (Overlay)
//Storyboard Sound Samples

[TimingPoints]
718,370.37037037037,4,2,1,50,1,0
12569,-100,4,2,1,60,0,0
23495,-100,4,2,1,70,0,0
60717,370.37037037037,4,2,1,70,1,0
60717,-100,4,2,1,70,0,1
84420,-100,4,2,1,50,0,0
96272,-100,4,2,1,60,0,0
119976,-100,4,2,1,70,0,0
132568,370.37037037037,4,2,1,70,1,0
132568,-100,4,2,1,70,0,1
179975,-100,4,2,1,70,0,0

[HitObjects]
192,192,718,5,0,0:0:0:0:
320,192,903,1,0,0:0:0:0:
448,192,1088,1,0,0:0:0:0:
192,192,1273,1,0,0:0:0:0:
320,192,1458,1,0,0:0:0:0:
448,192,1643,1,0,0:0:0:0:
192,192,1829,1,0,0:0:0:0:
320,192,2014,1,0,0:0:0:0:
448,192,2199,1,0,0:0:0:0:
192,192,2384,1,0,0:0:0:0:
320,192,2569,1,0,0:0:0:0:
448,192,2755,1,0,0:0:0:0:
192,192,2940,1,0,0:0:0:0:
320,192,3125,1,0,0:0:0:0:
448,192,3310,1,0,0:0:0:0:
192,192,3495,1,0,0:0:0:0:
64,192,3680,1,0,0:0:0:0:
320,192,3866,1,0,0:0:0:0:
448,192,4051,1,0,0:0:0:0:
64,192,4236,1,0,0:0:0:0:
320,192,4421,1,0,0:0:0:0:
448,192,4606,1,0,0:0:0:0:
64,192,4792,1,0,0:0:0:0:
320,192,4977,1,0,0:0:0:0:
448,192,5162,1,0,0:0:0:0:
64,192,5347,1,0,0:0:0:0:
320,192,5532,1,0,0:0:0:0:
448,192,5717,1,0,0:0:0:0:
64,192,5903,1,0,0:0:0:0:
320,192,6088,1,0,0:0:0:0:
448,192,6273,1,0,0:0:0:0:
64,192,6458,1,0,0:0:0:0:
320,192,6643,1,0,0:0:0:0:
192,192,6829,1,0,0:0:0:0:
448,192,7014,1,0,0:0:0:0:
192,192,7199,1,0,0:0:0:0:
320,192,7384,1,0,0:0:0:0:
448,192,7569,1,0,0:0:0:0:
192,192,7755,1,0,0:0:0:0:
320,192,7940,1,0,0:0:0:0:
448,192,8125,1,0,0:0:0:0:
192,192,8310,1,0,0:0:0:0:
320,192,8495,1,0,0:0:0:0:
448,192,8680,1,0,0:0:0:0:
192,192,8866,1,0,0:0:0:0:
320,192,9051,1,0,0:0:0:0:
448,192,9236,1,0,0:0:0:0:
192,192,9421,1,0,0:0:0:0:
64,192,9606,1,0,0:0:0:0:
320,192,9792,1,0,0:0:0:0:
448,192,9977,1,0,0:0:0:0:
64,192,10162,1,0,0:0:0:0:
320,192,10347,1,0,0:0:0:0:
448,192,10532,1,0,0:0:0:0:
64,192,10717,1,0,0:0:0:0:
320,192,10903,1,0,0:0:0:0:
448,192,11088,1,0,0:0:0:0:
64,192,11273,1,0,0:0:0:0:
320,192,11458,1,0,0:0:0:0:
448,192,11643,1,0,0:0:0:0:
64,192,11829,1,0,0:0:0:0:
320,192,12014,1,0,0:0:0:0:
448,192,12199,128,0,12569:0:0:0:0:
192,192,12384,1,0,0:0:0:0:
64,192,12569,128,0,12940:0:0:0:0:
320,192,12755,1,0,0:0:0:0:
448,192,12940,1,0,0:0:0:0:
64,192,13125,1,0,0:0:0:0:
192,192,13310,128,0,13680:0:0:0:0:
448,192,13310,128,0,13680:0:0:0:0:
320,192,13495,1,0,0:0:0:0:
64,192,13680,1,0,0:0:0:0:
192,192,13866,1,0,0:0:0:0:
320,192,14051,128,0,14236:0:0:0:0:
192,192,14236,1,0,0:0:0:0:
448,192,14421,128,0,14606:0:0:0:0:
320,192,14606,1,0,0:0:0:0:
64,192,14792,128,0,14977:0:0:0:0:
192,192,14977,1,0,0:0:0:0:
448,192,15162,128,0,15347:0:0:0:0:
320,192,15347,1,0,0:0:0:0:
64,192,15532,128,0,15903:0:0:0:0:
192,192,15532,128,0,15903:0:0:0:0:
448,192,15717,1,0,0:0:0:0:
320,192,15903,1,0,0:0:0:0:
64,192,16088,1,0,0:0:0:0:
320,192,16273,128,0,16643:0:0:0:0:
448,192,16273,128,0,16643:0:0:0:0:
64,192,16458,1,0,0:0:0:0:
192,192,16643,1,0,0:0:0:0:
448,192,16829,1,0,0:0:0:0:
320,192,17014,128,0,17199:0:0:0:0:
64,192,17199,1,0,0:0:0:0:
192,192,17384,128,0,17569:0:0:0:0:
320,192,17569,1,0,0:0:0:0:
64,192,17755,128,0,17940:0:0:0:0:
192,192,17940,1,0,0:0:0:0:
448,192,18125,128,0,18310:0:0:0:0:
192,192,18310,1,0,0:0:0:0:
64,192,18495,128,0,18866:0:0:0:0:
320,192,18495,128,0,18866:0:0:0:0:
192,192,18680,1,0,0:0:0:0:
448,192,18866,1,0,0:0:0:0:
64,192,19051,1,0,0:0:0:0:
448,192,19236,128,0,19606:0:0:0:0:
192,192,19421,1,0,0:0:0:0:
320,192,19606,128,0,19977:0:0:0:0:
64,192,19792,1,0,0:0:0:0:
192,192,19977,128,0,20347:0:0:0:0:
320,192,20162,1,0,0:0:0:0:
64,192,20347,128,0,20532:0:0:0:0:
448,192,20532,128,0,20903:0:0:0:0:
64,192,20717,1,0,0:0:0:0:
320,192,20903,1,0,0:0:0:0:
192,192,21088,128,0,21829:0:0:0:0:
448,192,21273,1,0,0:0:0:0:
64,192,21458,1,0,0:0:0:0:
320,192,21643,1,0,0:0:0:0:
448,192,21829,1,0,0:0:0:0:
64,192,22014,1,0,0:0:0:0:
192,192,22199,1,0,0:0:0:0:
320,192,22384,1,0,0:0:0:0:
64,192,22569,1,0,0:0:0:0:
192,192,22755,1,0,0:0:0:0:
320,192,22940,1,0,0:0:0:0:
64,192,23125,1,0,0:0:0:0:
192,192,23310,1,0,0:0:0:0:
320,192,23495,1,8,0:0:0:0:
448,192,23495,1,0,0:0:0:0:
64,192,23588,1,8,0:0:0:0:
192,192,23588,1,0,0:0:0:0:
320,192,23680,1,2,0:0:0:0:
320,192,23866,1,2,0:0:0:0:
320,192,24051,1,8,0:0:0:0:
448,192,24051,1,4,0:0:0:0:
64,192,24421,128,2,24792:0:0:0:0:
192,192,24421,128,4,24792:0:0:0:0:
448,192,24421,1,0,0:0:0:0:
320,192,24606,1,0,0:0:0:0:
320,192,24792,1,0,0:0:0:0:
192,192,24977,1,2,0:0:0:0:
64,192,24977,1,0,0:0:0:0:
64,192,25162,128,8,25532:0:0:0:0:
320,192,25162,1,0,0:0:0:0:
448,192,25162,128,0,25532:0:0:0:0:
192,192,25347,1,0,0:0:0:0:
192,192,25532,1,0,0:0:0:0:
320,192,25717,1,2,0:0:0:0:
448,192,25717,1,0,0:0:0:0:
64,192,25903,1,0,0:0:0:0:
320,192,26088,1,0,0:0:0:0:
64,192,26273,1,2,0:0:0:0:
192,192,26273,128,0,26458:0:0:0:0:
320,192,26458,1,2,0:0:0:0:
448,192,26458,1,0,0:0:0:0:
64,192,26643,1,8,0:0:0:0:
192,192,26643,1,0,0:0:0:0:
448,192,26643,128,0,27014:0:0:0:0:
320,192,26829,1,0,0:0:0:0:
64,192,27014,1,2,0:0:0:0:
192,192,27014,1,0,0:0:0:0:
192,192,27199,1,0,0:0:0:0:
320,192,27384,128,2,27755:0:0:0:0:
448,192,27384,128,0,27755:0:0:0:0:
64,192,27569,1,0,0:0:0:0:
64,192,27755,1,0,0:0:0:0:
320,192,27940,1,2,0:0:0:0:
448,192,27940,1,0,0:0:0:0:
64,192,28125,128,8,28495:0:0:0:0:
192,192,28125,1,0,0:0:0:0:
448,192,28125,128,0,28495:0:0:0:0:
320,192,28310,1,0,0:0:0:0:
320,192,28495,1,0,0:0:0:0:
64,192,28680,1,2,0:0:0:0:
192,192,28680,1,0,0:0:0:0:
448,192,28866,1,0,0:0:0:0:
320,192,29051,1,0,0:0:0:0:
64,192,29236,128,2,29421:0:0:0:0:
192,192,29236,1,0,0:0:0:0:
320,192,29421,1,0,0:0:0:0:
64,192,29606,1,8,0:0:0:0:
320,192,29606,128,0,29977:0:0:0:0:
448,192,29606,1,0,0:0:0:0:
192,192,29792,1,0,0:0:0:0:
64,192,29977,1,2,0:0:0:0:
192,192,29977,1,0,0:0:0:0:
320,192,30162,1,0,0:0:0:0:
64,192,30347,128,2,30717:0:0:0:0:
320,192,30347,128,0,30717:0:0:0:0:
192,192,30532,1,0,0:0:0:0:
192,192,30717,1,0,0:0:0:0:
320,192,30903,1,2,0:0:0:0:
448,192,30903,1,0,0:0:0:0:
64,192,31088,1,8,0:0:0:0:
320,192,31088,128,0,31458:0:0:0:0:
448,192,31088,128,0,31458:0:0:0:0:
192,192,31273,1,0,0:0:0:0:
64,192,31458,1,2,0:0:0:0:
192,192,31458,128,0,31829:0:0:0:0:
448,192,31643,1,0,0:0:0:0:
64,192,31829,128,2,32199:0:0:0:0:
448,192,31829,1,0,0:0:0:0:
320,192,32014,1,0,0:0:0:0:
192,192,32199,128,0,32384:0:0:0:0:
320,192,32384,1,2,0:0:0:0:
448,192,32384,128,0,32940:0:0:0:0:
64,192,32569,1,8,0:0:0:0:
320,192,32569,1,0,0:0:0:0:
192,192,32755,1,0,0:0:0:0:
64,192,32940,128,2,33680:0:0:0:0:
192,192,32940,1,0,0:0:0:0:
448,192,33125,1,0,0:0:0:0:
192,192,33310,1,0,0:0:0:0:
192,192,33495,1,0,0:0:0:0:
320,192,33680,1,2,0:0:0:0:
448,192,33680,1,0,0:0:0:0:
192,192,33866,1,0,0:0:0:0:
64,192,34051,1,8,0:0:0:0:
192,192,34051,1,0,0:0:0:0:
448,192,34051,1,0,0:0:0:0:
320,192,34236,1,0,0:0:0:0:
320,192,34421,1,0,0:0:0:0:
64,192,34606,1,2,0:0:0:0:
192,192,34606,1,0,0:0:0:0:
448,192,34792,1,0,0:0:0:0:
448,192,34977,1,0,0:0:0:0:
448,192,35162,1,0,0:0:0:0:
64,192,35347,1,8,0:0:0:0:
192,192,35347,1,0,0:0:0:0:
320,192,35440,1,8,0:0:0:0:
448,192,35440,1,0,0:0:0:0:
192,192,35532,1,2,0:0:0:0:
192,192,35717,1,2,0:0:0:0:
64,192,35903,1,8,0:0:0:0:
192,192,35903,1,4,0:0:0:0:
448,192,35903,1,0,0:0:0:0:
64,192,36273,1,2,0:0:0:0:
320,192,36273,128,4,36643:0:0:0:0:
448,192,36273,1,0,0:0:0:0:
192,192,36643,128,2,36829:0:0:0:0:
448,192,36643,1,0,0:0:0:0:
64,192,36829,128,0,37384:0:0:0:0:
448,192,37014,1,2,0:0:0:0:
320,192,37384,128,2,39236:0:0:0:0:
448,192,37384,1,0,0:0:0:0:
64,192,37755,1,2,0:0:0:0:
64,192,38125,1,2,0:0:0:0:
64,192,38495,1,2,0:0:0:0:
64,192,38866,1,2,0:0:0:0:
64,192,39236,1,2,0:0:0:0:
192,192,39236,128,4,39792:0:0:0:0:
448,192,39236,1,0,0:0:0:0:
448,192,39606,1,2,0:0:0:0:
64,192,39792,128,0,40347:0:0:0:0:
448,192,39977,1,2,0:0:0:0:
320,192,40347,128,2,41829:0:0:0:0:
448,192,40347,1,0,0:0:0:0:
64,192,40717,1,2,0:0:0:0:
64,192,41088,1,2,0:0:0:0:
64,192,41458,1,2,0:0:0:0:
64,192,41829,1,2,0:0:0:0:
192,192,41829,128,0,42199:0:0:0:0:
64,192,42199,1,4,0:0:0:0:
320,192,42199,128,2,42569:0:0:0:0:
448,192,42199,1,0,0:0:0:0:
192,192,42569,128,2,42940:0:0:0:0:
448,192,42569,1,0,0:0:0:0:
64,192,42940,128,2,43310:0:0:0:0:
448,192,42940,1,0,0:0:0:0:
192,192,43310,128,2,43680:0:0:0:0:
448,192,43310,1,0,0:0:0:0:
64,192,43680,1,2,0:0:0:0:
448,192,43680,128,0,44051:0:0:0:0:
64,192,44051,1,2,0:0:0:0:
320,192,44051,128,0,44421:0:0:0:0:
64,192,44421,1,2,0:0:0:0:
64,192,44792,1,2,0:0:0:0:
320,192,44792,128,0,44977:0:0:0:0:
192,192,44977,128,0,45162:0:0:0:0:
64,192,45162,1,2,0:0:0:0:
320,192,45162,128,4,45532:0:0:0:0:
448,192,45162,1,0,0:0:0:0:
192,192,45347,1,0,0:0:0:0:
448,192,45532,1,2,0:0:0:0:
192,192,45717,128,0,46088:0:0:0:0:
448,192,45903,1,2,0:0:0:0:
320,192,46088,1,0,0:0:0:0:
64,192,46273,128,2,47384:0:0:0:0:
448,192,46273,1,0,0:0:0:0:
192,192,46458,1,0,0:0:0:0:
448,192,46643,1,2,0:0:0:0:
192,192,46829,1,0,0:0:0:0:
448,192,47014,1,2,0:0:0:0:
320,192,47199,1,0,0:0:0:0:
192,192,47384,1,8,0:0:0:0:
320,192,47384,1,0,0:0:0:0:
448,192,47384,1,0,0:0:0:0:
64,192,48125,1,4,0:0:0:0:
192,192,48125,1,2,0:0:0:0:
448,192,48125,1,0,0:0:0:0:
448,192,48310,1,0,0:0:0:0:
448,192,48495,1,0,0:0:0:0:
64,192,48680,1,2,0:0:0:0:
192,192,48680,1,0,0:0:0:0:
64,192,48866,1,8,0:0:0:0:
320,192,48866,1,4,0:0:0:0:
448,192,48866,1,0,0:0:0:0:
64,192,49051,1,0,0:0:0:0:
320,192,49236,1,2,0:0:0:0:
448,192,49236,1,0,0:0:0:0:
320,192,49421,1,0,0:0:0:0:
64,192,49606,1,4,0:0:0:0:
320,192,49606,1,0,0:0:0:0:
192,192,49792,1,0,0:0:0:0:
192,192,49977,1,0,0:0:0:0:
192,192,50162,1,0,0:0:0:0:
64,192,50347,1,8,0:0:0:0:
320,192,50347,1,4,0:0:0:0:
448,192,50347,1,0,0:0:0:0:
320,192,50532,1,0,0:0:0:0:
192,192,50717,1,0,0:0:0:0:
320,192,50903,1,0,0:0:0:0:
64,192,51088,1,2,0:0:0:0:
192,192,51088,1,4,0:0:0:0:
448,192,51088,1,0,0:0:0:0:
448,192,51273,1,0,0:0:0:0:
448,192,51458,1,0,0:0:0:0:
64,192,51643,1,2,0:0:0:0:
192,192,51643,1,0,0:0:0:0:
64,192,51829,1,8,0:0:0:0:
320,192,51829,1,4,0:0:0:0:
448,192,51829,1,0,0:0:0:0:
64,192,52014,1,0,0:0:0:0:
320,192,52199,1,2,0:0:0:0:
448,192,52199,1,0,0:0:0:0:
320,192,52384,1,0,0:0:0:0:
64,192,52569,1,4,0:0:0:0:
320,192,52569,1,0,0:0:0:0:
192,192,52755,1,0,0:0:0:0:
192,192,52940,1,0,0:0:0:0:
192,192,53125,1,0,0:0:0:0:
64,192,53310,1,4,0:0:0:0:
320,192,53310,1,8,0:0:0:0:
448,192,53310,1,0,0:0:0:0:
192,192,53495,1,2,0:0:0:0:
448,192,53495,1,4,0:0:0:0:
320,192,53495,1,0,0:0:0:0:
192,192,53680,1,0,0:0:0:0:
64,192,53866,1,2,0:0:0:0:
320,192,53866,1,0,0:0:0:0:
64,192,54051,1,4,0:0:0:0:
192,192,54051,1,2,0:0:0:0:
448,192,54051,1,0,0:0:0:0:
448,192,54236,1,0,0:0:0:0:
448,192,54421,1,0,0:0:0:0:
64,192,54606,1,2,0:0:0:0:
192,192,54606,1,0,0:0:0:0:
64,192,54792,1,8,0:0:0:0:
320,192,54792,1,4,0:0:0:0:
448,192,54792,1,0,0:0:0:0:
64,192,54977,1,0,0:0:0:0:
320,192,55162,1,2,0:0:0:0:
448,192,55162,1,0,0:0:0:0:
320,192,55347,1,0,0:0:0:0:
64,192,55532,1,4,0:0:0:0:
320,192,55532,1,0,0:0:0:0:
192,192,55717,1,0,0:0:0:0:
192,192,55903,1,0,0:0:0:0:
192,192,56088,1,0,0:0:0:0:
64,192,56273,1,8,0:0:0:0:
320,192,56273,1,4,0:0:0:0:
448,192,56273,1,0,0:0:0:0:
320,192,56458,1,0,0:0:0:0:
192,192,56643,1,0,0:0:0:0:
320,192,56829,1,0,0:0:0:0:
64,192,57014,1,2,0:0:0:0:
192,192,57014,1,4,0:0:0:0:
448,192,57014,1,0,0:0:0:0:
448,192,57199,1,0,0:0:0:0:
448,192,57384,1,0,0:0:0:0:
64,192,57569,1,2,0:0:0:0:
192,192,57569,1,0,0:0:0:0:
64,192,57755,1,8,0:0:0:0:
320,192,57755,1,4,0:0:0:0:
448,192,57755,1,0,0:0:0:0:
64,192,57940,1,0,0:0:0:0:
320,192,58125,1,2,0:0:0:0:
448,192,58125,1,0,0:0:0:0:
320,192,58310,1,0,0:0:0:0:
64,192,58495,1,4,0:0:0:0:
320,192,58495,1,0,0:0:0:0:
64,192,58680,1,2,0:0:0:0:
192,192,58680,1,0,0:0:0:0:
192,192,58866,1,0,0:0:0:0:
320,192,59051,1,8,0:0:0:0:
448,192,59051,1,0,0:0:0:0:
64,192,59143,1,8,0:0:0:0:
192,192,59143,1,0,0:0:0:0:
320,192,59236,1,8,0:0:0:0:
448,192,59236,1,0,0:0:0:0:
64,192,59421,1,2,0:0:0:0:
192,192,59421,1,4,0:0:0:0:
448,192,59421,1,0,0:0:0:0:
192,192,59606,1,2,0:0:0:0:
320,192,59606,1,4,0:0:0:0:
64,192,59792,1,8,0:0:0:0:
320,192,59792,1,4,0:0:0:0:
448,192,59792,1,0,0:0:0:0:
64,192,59977,1,2,0:0:0:0:
192,192,59977,1,4,0:0:0:0:
448,192,59977,1,0,0:0:0:0:
64,192,60347,1,2,0:0:0:0:
192,192,60347,128,4,60717:0:0:0:0:
448,192,60347,1,0,0:0:0:0:
64,192,60717,1,2,0:0:0:0:
320,192,60717,1,4,0:0:0:0:
448,192,60717,128,0,61087:0:0:0:0:
320,192,60902,1,0,0:0:0:0:
64,192,61087,1,0,0:0:0:0:
192,192,61272,1,2,0:0:0:0:
320,192,61272,128,0,61457:0:0:0:0:
64,192,61457,1,8,0:0:0:0:
192,192,61457,1,4,0:0:0:0:
448,192,61457,1,0,0:0:0:0:
320,192,61642,1,0,0:0:0:0:
64,192,61828,128,0,62198:0:0:0:0:
320,192,62013,1,2,0:0:0:0:
448,192,62013,1,0,0:0:0:0:
192,192,62198,1,4,0:0:0:0:
192,192,62383,1,0,0:0:0:0:
320,192,62568,128,2,62754:0:0:0:0:
448,192,62568,1,0,0:0:0:0:
64,192,62754,1,2,0:0:0:0:
192,192,62754,1,0,0:0:0:0:
64,192,62939,1,8,0:0:0:0:
192,192,62939,128,4,63124:0:0:0:0:
448,192,62939,1,0,0:0:0:0:
320,192,63124,1,2,0:0:0:0:
448,192,63124,1,0,0:0:0:0:
64,192,63309,128,4,63494:0:0:0:0:
320,192,63494,1,0,0:0:0:0:
64,192,63679,1,2,0:0:0:0:
320,192,63679,1,4,0:0:0:0:
448,192,63679,128,0,64050:0:0:0:0:
64,192,63865,1,0,0:0:0:0:
192,192,64050,1,0,0:0:0:0:
320,192,64235,128,2,64605:0:0:0:0:
448,192,64235,1,0,0:0:0:0:
64,192,64420,1,8,0:0:0:0:
192,192,64420,1,4,0:0:0:0:
448,192,64420,1,0,0:0:0:0:
192,192,64605,1,0,0:0:0:0:
64,192,64791,128,0,65161:0:0:0:0:
320,192,64976,1,2,0:0:0:0:
448,192,64976,1,0,0:0:0:0:
192,192,65161,1,4,0:0:0:0:
320,192,65346,1,0,0:0:0:0:
64,192,65531,128,2,65717:0:0:0:0:
192,192,65531,1,0,0:0:0:0:
320,192,65717,1,2,0:0:0:0:
448,192,65717,1,0,0:0:0:0:
64,192,65902,1,8,0:0:0:0:
320,192,65902,128,4,66272:0:0:0:0:
448,192,65902,1,0,0:0:0:0:
192,192,66087,1,2,0:0:0:0:
64,192,66272,1,8,0:0:0:0:
192,192,66272,128,4,66457:0:0:0:0:
448,192,66272,1,0,0:0:0:0:
320,192,66457,1,0,0:0:0:0:
64,192,66642,1,2,0:0:0:0:
192,192,66642,1,4,0:0:0:0:
448,192,66642,128,0,67198:0:0:0:0:
320,192,66828,1,0,0:0:0:0:
320,192,67013,1,0,0:0:0:0:
64,192,67198,1,2,0:0:0:0:
192,192,67198,128,0,67568:0:0:0:0:
64,192,67383,1,8,0:0:0:0:
320,192,67383,1,4,0:0:0:0:
448,192,67383,1,0,0:0:0:0:
320,192,67568,128,0,67754:0:0:0:0:
64,192,67754,128,0,68124:0:0:0:0:
320,192,67939,1,2,0:0:0:0:
448,192,67939,1,0,0:0:0:0:
192,192,68124,1,4,0:0:0:0:
448,192,68309,1,0,0:0:0:0:
64,192,68494,1,2,0:0:0:0:
192,192,68494,128,0,68865:0:0:0:0:
320,192,68679,1,2,0:0:0:0:
448,192,68679,1,0,0:0:0:0:
64,192,68865,1,8,0:0:0:0:
320,192,68865,128,4,69235:0:0:0:0:
448,192,68865,1,0,0:0:0:0:
192,192,69050,1,0,0:0:0:0:
64,192,69235,128,4,69605:0:0:0:0:
320,192,69420,1,0,0:0:0:0:
192,192,69605,1,2,0:0:0:0:
320,192,69605,1,4,0:0:0:0:
448,192,69605,128,0,69976:0:0:0:0:
192,192,69791,1,0,0:0:0:0:
64,192,69976,1,0,0:0:0:0:
192,192,70161,1,2,0:0:0:0:
320,192,70161,128,0,70531:0:0:0:0:
64,192,70346,1,8,0:0:0:0:
192,192,70346,1,4,0:0:0:0:
448,192,70346,1,0,0:0:0:0:
448,192,70531,1,0,0:0:0:0:
64,192,70716,128,0,71087:0:0:0:0:
192,192,70716,1,0,0:0:0:0:
320,192,70902,1,2,0:0:0:0:
448,192,70902,1,0,0:0:0:0:
192,192,71087,1,4,0:0:0:0:
320,192,71272,1,8,0:0:0:0:
448,192,71272,1,0,0:0:0:0:
64,192,71365,1,8,0:0:0:0:
192,192,71365,1,0,0:0:0:0:
320,192,71457,1,8,0:0:0:0:
64,192,71550,1,8,0:0:0:0:
192,192,71550,1,0,0:0:0:0:
320,192,71642,1,2,0:0:0:0:
448,192,71642,1,0,0:0:0:0:
64,192,71828,1,8,0:0:0:0:
192,192,71828,1,4,0:0:0:0:
320,192,71920,1,8,0:0:0:0:
448,192,71920,1,0,0:0:0:0:
64,192,72013,1,2,0:0:0:0:
448,192,72105,1,2,0:0:0:0:
64,192,72198,1,8,0:0:0:0:
192,192,72198,1,4,0:0:0:0:
320,192,72291,1,8,0:0:0:0:
448,192,72291,1,0,0:0:0:0:
192,192,72383,1,2,0:0:0:0:
320,192,72476,1,2,0:0:0:0:
64,192,72568,128,2,72939:0:0:0:0:
192,192,72568,1,4,0:0:0:0:
448,192,72568,128,0,72939:0:0:0:0:
320,192,72754,1,0,0:0:0:0:
320,192,72939,1,0,0:0:0:0:
64,192,73124,1,2,0:0:0:0:
192,192,73124,1,0,0:0:0:0:
64,192,73309,1,8,0:0:0:0:
320,192,73309,1,4,0:0:0:0:
448,192,73309,1,0,0:0:0:0:
448,192,73494,1,0,0:0:0:0:
320,192,73679,128,0,73865:0:0:0:0:
64,192,73865,1,2,0:0:0:0:
192,192,73865,1,0,0:0:0:0:
192,192,74050,128,4,74235:0:0:0:0:
448,192,74235,1,0,0:0:0:0:
64,192,74420,128,2,74605:0:0:0:0:
192,192,74420,1,0,0:0:0:0:
320,192,74605,1,2,0:0:0:0:
448,192,74605,1,0,0:0:0:0:
64,192,74791,1,8,0:0:0:0:
320,192,74791,1,4,0:0:0:0:
448,192,74791,128,0,74976:0:0:0:0:
64,192,74976,1,2,0:0:0:0:
192,192,74976,1,0,0:0:0:0:
320,192,75161,128,4,75346:0:0:0:0:
192,192,75346,1,0,0:0:0:0:
64,192,75531,128,2,75902:0:0:0:0:
192,192,75531,128,4,75902:0:0:0:0:
448,192,75531,1,0,0:0:0:0:
320,192,75716,1,0,0:0:0:0:
320,192,75902,1,0,0:0:0:0:
64,192,76087,1,2,0:0:0:0:
192,192,76087,1,0,0:0:0:0:
64,192,76272,128,8,76642:0:0:0:0:
320,192,76272,1,4,0:0:0:0:
448,192,76272,1,0,0:0:0:0:
320,192,76457,1,0,0:0:0:0:
192,192,76642,128,0,77013:0:0:0:0:
320,192,76828,1,2,0:0:0:0:
448,192,76828,1,0,0:0:0:0:
320,192,77013,128,4,77383:0:0:0:0:
192,192,77198,1,0,0:0:0:0:
64,192,77383,1,2,0:0:0:0:
192,192,77383,128,0,77754:0:0:0:0:
320,192,77568,1,2,0:0:0:0:
448,192,77568,1,0,0:0:0:0:
64,192,77754,1,8,0:0:0:0:
320,192,77754,128,4,78124:0:0:0:0:
448,192,77754,1,0,0:0:0:0:
64,192,77939,1,2,0:0:0:0:
192,192,77939,1,0,0:0:0:0:
64,192,78124,1,8,0:0:0:0:
192,192,78124,1,4,0:0:0:0:
448,192,78124,128,0,78494:0:0:0:0:
320,192,78309,1,0,0:0:0:0:
64,192,78494,128,2,78865:0:0:0:0:
192,192,78494,128,4,78865:0:0:0:0:
320,192,78494,1,0,0:0:0:0:
448,192,78679,1,0,0:0:0:0:
448,192,78865,1,0,0:0:0:0:
64,192,79050,1,2,0:0:0:0:
192,192,79050,1,0,0:0:0:0:
64,192,79235,1,8,0:0:0:0:
320,192,79235,1,4,0:0:0:0:
448,192,79235,1,0,0:0:0:0:
192,192,79420,1,0,0:0:0:0:
192,192,79605,1,0,0:0:0:0:
320,192,79791,1,2,0:0:0:0:
448,192,79791,1,0,0:0:0:0:
64,192,79976,128,4,80346:0:0:0:0:
320,192,80161,1,0,0:0:0:0:
320,192,80346,1,2,0:0:0:0:
448,192,80346,1,0,0:0:0:0:
64,192,80531,1,2,0:0:0:0:
192,192,80531,1,0,0:0:0:0:
64,192,80716,1,8,0:0:0:0:
320,192,80716,1,4,0:0:0:0:
448,192,80716,128,0,81087:0:0:0:0:
64,192,80902,1,2,0:0:0:0:
192,192,80902,1,0,0:0:0:0:
320,192,81087,1,4,0:0:0:0:
192,192,81272,1,0,0:0:0:0:
64,192,81457,128,2,81828:0:0:0:0:
192,192,81457,128,4,81828:0:0:0:0:
448,192,81457,1,0,0:0:0:0:
320,192,81642,1,0,0:0:0:0:
448,192,81828,1,0,0:0:0:0:
64,192,82013,1,2,0:0:0:0:
192,192,82013,1,0,0:0:0:0:
64,192,82198,1,8,0:0:0:0:
320,192,82198,128,4,82568:0:0:0:0:
448,192,82198,128,0,82568:0:0:0:0:
192,192,82383,1,0,0:0:0:0:
64,192,82568,1,0,0:0:0:0:
320,192,82754,1,2,0:0:0:0:
448,192,82754,1,0,0:0:0:0:
64,192,82939,128,4,83309:0:0:0:0:
448,192,82939,128,0,83865:0:0:0:0:
192,192,83124,1,8,0:0:0:0:
320,192,83216,1,8,0:0:0:0:
192,192,83309,1,8,0:0:0:0:
320,192,83402,1,8,0:0:0:0:
64,192,83494,1,2,0:0:0:0:
192,192,83494,1,0,0:0:0:0:
64,192,83679,1,8,0:0:0:0:
192,192,83679,1,4,0:0:0:0:
320,192,83772,1,8,0:0:0:0:
64,192,83865,1,2,0:0:0:0:
192,192,83957,1,2,0:0:0:0:
320,192,84050,1,8,0:0:0:0:
448,192,84050,1,4,0:0:0:0:
64,192,84142,1,8,0:0:0:0:
320,192,84235,1,2,0:0:0:0:
448,192,84235,1,0,0:0:0:0:
64,192,84328,1,2,0:0:0:0:
192,192,84420,1,4,0:0:0:0:
320,192,84605,1,0,0:0:0:0:
448,192,84791,1,0,0:0:0:0:
192,192,84976,1,0,0:0:0:0:
320,192,85161,1,0,0:0:0:0:
448,192,85346,1,0,0:0:0:0:
192,192,85531,1,0,0:0:0:0:
320,192,85716,1,0,0:0:0:0:
448,192,85902,1,0,0:0:0:0:
192,192,86087,1,0,0:0:0:0:
320,192,86272,1,0,0:0:0:0:
448,192,86457,1,0,0:0:0:0:
192,192,86642,1,0,0:0:0:0:
320,192,86828,1,0,0:0:0:0:
448,192,87013,1,0,0:0:0:0:
192,192,87198,1,0,0:0:0:0:
64,192,87383,1,0,0:0:0:0:
320,192,87568,1,0,0:0:0:0:
448,192,87754,1,0,0:0:0:0:
64,192,87939,1,0,0:0:0:0:
320,192,88124,1,0,0:0:0:0:
448,192,88309,1,0,0:0:0:0:
64,192,88494,1,0,0:0:0:0:
320,192,88679,1,0,0:0:0:0:
448,192,88865,1,0,0:0:0:0:
64,192,89050,1,0,0:0:0:0:
320,192,89235,1,0,0:0:0:0:
448,192,89420,1,0,0:0:0:0:
64,192,89605,1,0,0:0:0:0:
320,192,89791,1,0,0:0:0:0:
448,192,89976,1,0,0:0:0:0:
64,192,90161,1,0,0:0:0:0:
320,192,90346,1,0,0:0:0:0:
192,192,90531,1,0,0:0:0:0:
448,192,90716,1,0,0:0:0:0:
192,192,90902,1,0,0:0:0:0:
320,192,91087,1,0,0:0:0:0:
448,192,91272,1,0,0:0:0:0:
192,192,91457,1,0,0:0:0:0:
320,192,91642,1,0,0:0:0:0:
448,192,91828,1,0,0:0:0:0:
192,192,92013,1,0,0:0:0:0:
320,192,92198,1,0,0:0:0:0:
448,192,92383,1,0,0:0:0:0:
192,192,92568,1,0,0:0:0:0:
320,192,92754,1,0,0:0:0:0:
448,192,92939,1,0,0:0:0:0:
192,192,93124,1,0,0:0:0:0:
64,192,93309,1,0,0:0:0:0:
320,192,93494,1,0,0:0:0:0:
448,192,93679,1,0,0:0:0:0:
64,192,93865,1,0,0:0:0:0:
320,192,94050,1,0,0:0:0:0:
448,192,94235,1,0,0:0:0:0:
64,192,94420,1,0,0:0:0:0:
320,192,94605,1,0,0:0:0:0:
448,192,94791,1,0,0:0:0:0:
64,192,94976,1,0,0:0:0:0:
320,192,95161,1,0,0:0:0:0:
448,192,95346,1,0,0:0:0:0:
64,192,95531,1,0,0:0:0:0:
320,192,95716,1,0,0:0:0:0:
448,192,95902,128,0,96272:0:0:0:0:
192,192,96087,1,0,0:0:0:0:
64,192,96272,128,0,96642:0:0:0:0:
320,192,96457,1,0,0:0:0:0:
448,192,96642,1,0,0:0:0:0:
64,192,96828,1,0,0:0:0:0:
192,192,97013,128,0,97383:0:0:0:0:
448,192,97013,128,0,97383:0:0:0:0:
320,192,97198,1,0,0:0:0:0:
64,192,97383,1,0,0:0:0:0:
192,192,97568,1,0,0:0:0:0:
320,192,97754,128,0,97939:0:0:0:0:
192,192,97939,128,0,98124:0:0:0:0:
448,192,98124,128,0,98309:0:0:0:0:
320,192,98309,128,0,98494:0:0:0:0:
64,192,98494,128,0,98679:0:0:0:0:
192,192,98679,1,0,0:0:0:0:
448,192,98865,128,0,99050:0:0:0:0:
320,192,99050,1,0,0:0:0:0:
64,192,99235,128,0,99605:0:0:0:0:
192,192,99235,128,0,99605:0:0:0:0:
448,192,99420,1,0,0:0:0:0:
320,192,99605,1,0,0:0:0:0:
64,192,99791,1,0,0:0:0:0:
320,192,99976,128,0,100346:0:0:0:0:
448,192,99976,128,0,100346:0:0:0:0:
64,192,100161,1,0,0:0:0:0:
192,192,100346,1,0,0:0:0:0:
448,192,100531,1,0,0:0:0:0:
320,192,100716,128,0,100902:0:0:0:0:
64,192,100902,1,0,0:0:0:0:
192,192,101087,128,0,101272:0:0:0:0:
320,192,101272,1,0,0:0:0:0:
64,192,101457,128,0,101642:0:0:0:0:
192,192,101642,1,0,0:0:0:0:
448,192,101828,128,0,102013:0:0:0:0:
192,192,102013,128,0,102198:0:0:0:0:
64,192,102198,128,0,102568:0:0:0:0:
320,192,102198,128,0,102568:0:0:0:0:
192,192,102383,1,0,0:0:0:0:
448,192,102568,1,0,0:0:0:0:
64,192,102754,1,0,0:0:0:0:
448,192,102939,128,0,103309:0:0:0:0:
192,192,103124,1,0,0:0:0:0:
320,192,103309,128,0,103679:0:0:0:0:
64,192,103494,1,0,0:0:0:0:
192,192,103679,128,0,104050:0:0:0:0:
320,192,103865,1,0,0:0:0:0:
64,192,104050,128,0,104235:0:0:0:0:
448,192,104235,128,0,104605:0:0:0:0:
64,192,104420,1,0,0:0:0:0:
320,192,104605,1,0,0:0:0:0:
192,192,104791,128,0,105531:0:0:0:0:
448,192,104976,1,0,0:0:0:0:
64,192,105161,1,0,0:0:0:0:
320,192,105346,1,0,0:0:0:0:
448,192,105531,1,0,0:0:0:0:
64,192,105716,1,0,0:0:0:0:
192,192,105902,1,0,0:0:0:0:
320,192,106087,1,0,0:0:0:0:
64,192,106272,1,0,0:0:0:0:
192,192,106457,1,0,0:0:0:0:
320,192,106642,1,0,0:0:0:0:
64,192,106828,1,0,0:0:0:0:
192,192,107013,1,0,0:0:0:0:
448,192,107198,128,0,107383:0:0:0:0:
320,192,107383,128,0,107846:0:0:0:0:
64,192,107568,1,0,0:0:0:0:
448,192,107754,1,0,0:0:0:0:
192,192,107846,128,0,108124:0:0:0:0:
320,192,108124,128,0,108494:0:0:0:0:
448,192,108124,128,0,108494:0:0:0:0:
64,192,108309,1,0,0:0:0:0:
192,192,108494,1,0,0:0:0:0:
320,192,108679,1,0,0:0:0:0:
64,192,108865,128,0,109235:0:0:0:0:
192,192,108865,128,0,109235:0:0:0:0:
448,192,109050,1,0,0:0:0:0:
320,192,109235,1,0,0:0:0:0:
192,192,109420,1,0,0:0:0:0:
448,192,109605,128,0,109791:0:0:0:0:
64,192,109791,1,0,0:0:0:0:
320,192,109976,128,0,110161:0:0:0:0:
192,192,110161,128,0,110346:0:0:0:0:
64,192,110346,128,0,110716:0:0:0:0:
320,192,110531,1,0,0:0:0:0:
448,192,110716,128,0,111087:0:0:0:0:
192,192,110902,1,0,0:0:0:0:
64,192,111087,128,0,111457:0:0:0:0:
192,192,111087,128,0,111457:0:0:0:0:
320,192,111272,1,0,0:0:0:0:
448,192,111457,1,0,0:0:0:0:
64,192,111642,1,0,0:0:0:0:
192,192,111828,128,0,112198:0:0:0:0:
448,192,111828,128,0,112198:0:0:0:0:
320,192,112013,1,0,0:0:0:0:
64,192,112198,1,0,0:0:0:0:
192,192,112383,1,0,0:0:0:0:
320,192,112568,128,0,112939:0:0:0:0:
64,192,112754,1,0,0:0:0:0:
192,192,112939,128,0,113309:0:0:0:0:
320,192,113124,1,0,0:0:0:0:
64,192,113309,128,0,113679:0:0:0:0:
192,192,113494,1,0,0:0:0:0:
448,192,113679,128,0,114050:0:0:0:0:
192,192,113865,1,0,0:0:0:0:
64,192,114050,128,0,114420:0:0:0:0:
320,192,114050,128,0,114420:0:0:0:0:
192,192,114235,1,0,0:0:0:0:
448,192,114420,1,0,0:0:0:0:
320,192,114605,1,0,0:0:0:0:
64,192,114791,1,0,0:0:0:0:
448,192,114791,128,0,115161:0:0:0:0:
192,192,114976,1,0,0:0:0:0:
320,192,115161,128,0,115531:0:0:0:0:
192,192,115346,1,0,0:0:0:0:
64,192,115531,128,0,115902:0:0:0:0:
320,192,115716,1,0,0:0:0:0:
192,192,115902,128,0,116087:0:0:0:0:
448,192,116087,128,0,116457:0:0:0:0:
64,192,116272,1,0,0:0:0:0:
192,192,116457,128,0,116642:0:0:0:0:
320,192,116642,128,0,117568:0:0:0:0:
448,192,116828,1,0,0:0:0:0:
64,192,117013,1,0,0:0:0:0:
192,192,117198,1,0,0:0:0:0:
448,192,117383,1,0,0:0:0:0:
64,192,117568,1,0,0:0:0:0:
192,192,117754,1,0,0:0:0:0:
320,192,117939,1,0,0:0:0:0:
64,192,118124,1,0,0:0:0:0:
192,192,118309,1,0,0:0:0:0:
320,192,118494,128,0,119976:0:0:0:0:
64,192,119976,1,4,0:0:0:0:
192,192,119976,1,2,0:0:0:0:
448,192,119976,1,0,0:0:0:0:
448,192,120161,1,0,0:0:0:0:
448,192,120346,1,0,0:0:0:0:
64,192,120531,1,2,0:0:0:0:
192,192,120531,1,0,0:0:0:0:
64,192,120716,1,8,0:0:0:0:
320,192,120716,1,4,0:0:0:0:
448,192,120716,1,0,0:0:0:0:
64,192,120902,1,0,0:0:0:0:
320,192,121087,1,2,0:0:0:0:
448,192,121087,1,0,0:0:0:0:
320,192,121272,1,0,0:0:0:0:
64,192,121457,1,4,0:0:0:0:
320,192,121457,1,0,0:0:0:0:
192,192,121642,1,0,0:0:0:0:
192,192,121828,1,0,0:0:0:0:
192,192,122013,1,0,0:0:0:0:
64,192,122198,1,8,0:0:0:0:
320,192,122198,1,4,0:0:0:0:
448,192,122198,1,0,0:0:0:0:
320,192,122383,1,0,0:0:0:0:
192,192,122568,1,0,0:0:0:0:
320,192,122754,1,0,0:0:0:0:
64,192,122939,1,2,0:0:0:0:
192,192,122939,1,4,0:0:0:0:
448,192,122939,1,0,0:0:0:0:
448,192,123124,1,0,0:0:0:0:
448,192,123309,1,0,0:0:0:0:
64,192,123494,1,2,0:0:0:0:
192,192,123494,1,0,0:0:0:0:
64,192,123679,1,8,0:0:0:0:
320,192,123679,1,4,0:0:0:0:
448,192,123679,1,0,0:0:0:0:
64,192,123865,1,0,0:0:0:0:
320,192,124050,1,2,0:0:0:0:
448,192,124050,1,0,0:0:0:0:
320,192,124235,1,0,0:0:0:0:
64,192,124420,1,4,0:0:0:0:
320,192,124420,1,0,0:0:0:0:
192,192,124605,1,2,0:0:0:0:
64,192,124605,1,0,0:0:0:0:
192,192,124791,1,0,0:0:0:0:
192,192,124976,1,0,0:0:0:0:
64,192,125161,1,4,0:0:0:0:
320,192,125161,1,8,0:0:0:0:
448,192,125161,1,0,0:0:0:0:
192,192,125346,1,2,0:0:0:0:
448,192,125346,1,4,0:0:0:0:
320,192,125346,1,0,0:0:0:0:
192,192,125531,1,0,0:0:0:0:
64,192,125716,1,2,0:0:0:0:
320,192,125716,1,0,0:0:0:0:
64,192,125902,1,4,0:0:0:0:
192,192,125902,1,2,0:0:0:0:
448,192,125902,1,0,0:0:0:0:
448,192,126087,1,0,0:0:0:0:
448,192,126272,1,0,0:0:0:0:
64,192,126457,1,2,0:0:0:0:
192,192,126457,1,0,0:0:0:0:
64,192,126642,1,8,0:0:0:0:
320,192,126642,1,4,0:0:0:0:
448,192,126642,1,0,0:0:0:0:
64,192,126828,1,0,0:0:0:0:
320,192,127013,1,2,0:0:0:0:
448,192,127013,1,0,0:0:0:0:
320,192,127198,1,0,0:0:0:0:
64,192,127383,1,4,0:0:0:0:
320,192,127383,1,0,0:0:0:0:
192,192,127568,1,0,0:0:0:0:
192,192,127754,1,0,0:0:0:0:
192,192,127939,1,0,0:0:0:0:
64,192,128124,1,8,0:0:0:0:
320,192,128124,1,4,0:0:0:0:
448,192,128124,1,0,0:0:0:0:
320,192,128309,1,0,0:0:0:0:
192,192,128494,1,0,0:0:0:0:
320,192,128679,1,0,0:0:0:0:
64,192,128865,1,2,0:0:0:0:
192,192,128865,1,4,0:0:0:0:
448,192,128865,1,0,0:0:0:0:
448,192,129050,1,0,0:0:0:0:
448,192,129235,1,0,0:0:0:0:
64,192,129420,1,2,0:0:0:0:
192,192,129420,1,0,0:0:0:0:
64,192,129605,1,8,0:0:0:0:
320,192,129605,1,4,0:0:0:0:
448,192,129605,1,0,0:0:0:0:
64,192,129791,1,0,0:0:0:0:
320,192,129976,1,2,0:0:0:0:
448,192,129976,1,0,0:0:0:0:
320,192,130161,1,0,0:0:0:0:
64,192,130346,1,4,0:0:0:0:
320,192,130346,1,0,0:0:0:0:
64,192,130531,1,2,0:0:0:0:
192,192,130531,1,0,0:0:0:0:
192,192,130716,1,0,0:0:0:0:
320,192,130902,1,8,0:0:0:0:
448,192,130902,1,0,0:0:0:0:
64,192,130994,1,8,0:0:0:0:
192,192,130994,1,0,0:0:0:0:
320,192,131087,1,8,0:0:0:0:
448,192,131087,1,0,0:0:0:0:
64,192,131272,1,2,0:0:0:0:
192,192,131272,1,4,0:0:0:0:
448,192,131272,1,0,0:0:0:0:
192,192,131457,1,6,0:0:0:0:
320,192,131457,1,0,0:0:0:0:
64,192,131642,1,8,0:0:0:0:
320,192,131642,1,4,0:0:0:0:
448,192,131642,1,0,0:0:0:0:
64,192,131828,1,2,0:0:0:0:
192,192,131828,1,4,0:0:0:0:
448,192,131828,1,0,0:0:0:0:
64,192,132198,1,2,0:0:0:0:
192,192,132198,128,4,132568:0:0:0:0:
448,192,132198,1,0,0:0:0:0:
64,192,132568,1,2,0:0:0:0:
320,192,132568,1,4,0:0:0:0:
448,192,132568,128,0,132938:0:0:0:0:
320,192,132753,1,0,0:0:0:0:
64,192,132938,1,0,0:0:0:0:
192,192,133123,1,2,0:0:0:0:
320,192,133123,128,0,133308:0:0:0:0:
64,192,133308,1,8,0:0:0:0:
192,192,133308,1,4,0:0:0:0:
448,192,133308,1,0,0:0:0:0:
320,192,133493,1,0,0:0:0:0:
64,192,133679,128,0,134049:0:0:0:0:
320,192,133864,1,2,0:0:0:0:
448,192,133864,1,0,0:0:0:0:
192,192,134049,1,4,0:0:0:0:
192,192,134234,1,0,0:0:0:0:
320,192,134419,128,2,134605:0:0:0:0:
448,192,134419,1,0,0:0:0:0:
64,192,134605,1,2,0:0:0:0:
192,192,134605,1,0,0:0:0:0:
64,192,134790,1,8,0:0:0:0:
192,192,134790,128,4,134975:0:0:0:0:
448,192,134790,1,0,0:0:0:0:
320,192,134975,1,2,0:0:0:0:
448,192,134975,1,0,0:0:0:0:
64,192,135160,128,4,135345:0:0:0:0:
320,192,135345,1,0,0:0:0:0:
64,192,135530,1,2,0:0:0:0:
320,192,135530,1,4,0:0:0:0:
448,192,135530,128,0,135901:0:0:0:0:
64,192,135716,1,0,0:0:0:0:
192,192,135901,1,0,0:0:0:0:
320,192,136086,128,2,136456:0:0:0:0:
448,192,136086,1,0,0:0:0:0:
64,192,136271,1,8,0:0:0:0:
192,192,136271,1,4,0:0:0:0:
448,192,136271,1,0,0:0:0:0:
192,192,136456,1,0,0:0:0:0:
64,192,136642,128,0,137012:0:0:0:0:
320,192,136827,1,2,0:0:0:0:
448,192,136827,1,0,0:0:0:0:
192,192,137012,1,4,0:0:0:0:
320,192,137197,1,0,0:0:0:0:
64,192,137382,128,2,137568:0:0:0:0:
192,192,137382,1,0,0:0:0:0:
320,192,137568,1,2,0:0:0:0:
448,192,137568,1,0,0:0:0:0:
64,192,137753,1,8,0:0:0:0:
320,192,137753,128,4,138123:0:0:0:0:
448,192,137753,1,0,0:0:0:0:
192,192,137938,1,2,0:0:0:0:
64,192,138123,1,8,0:0:0:0:
192,192,138123,128,4,138308:0:0:0:0:
448,192,138123,1,0,0:0:0:0:
320,192,138308,1,0,0:0:0:0:
64,192,138493,1,2,0:0:0:0:
192,192,138493,1,4,0:0:0:0:
448,192,138493,128,0,139049:0:0:0:0:
320,192,138679,1,0,0:0:0:0:
320,192,138864,1,0,0:0:0:0:
64,192,139049,1,2,0:0:0:0:
192,192,139049,128,0,139419:0:0:0:0:
64,192,139234,1,8,0:0:0:0:
320,192,139234,1,4,0:0:0:0:
448,192,139234,1,0,0:0:0:0:
320,192,139419,128,0,139605:0:0:0:0:
64,192,139605,128,0,139975:0:0:0:0:
320,192,139790,1,2,0:0:0:0:
448,192,139790,1,0,0:0:0:0:
192,192,139975,1,4,0:0:0:0:
448,192,140160,1,0,0:0:0:0:
64,192,140345,1,2,0:0:0:0:
192,192,140345,128,0,140716:0:0:0:0:
320,192,140530,1,2,0:0:0:0:
448,192,140530,1,0,0:0:0:0:
64,192,140716,1,8,0:0:0:0:
320,192,140716,128,4,141086:0:0:0:0:
448,192,140716,1,0,0:0:0:0:
192,192,140901,1,2,0:0:0:0:
64,192,141086,128,4,141456:0:0:0:0:
320,192,141271,1,0,0:0:0:0:
192,192,141456,1,2,0:0:0:0:
320,192,141456,1,4,0:0:0:0:
448,192,141456,128,0,141827:0:0:0:0:
192,192,141642,1,0,0:0:0:0:
64,192,141827,1,0,0:0:0:0:
192,192,142012,1,2,0:0:0:0:
320,192,142012,128,0,142382:0:0:0:0:
64,192,142197,1,8,0:0:0:0:
192,192,142197,1,4,0:0:0:0:
448,192,142197,1,0,0:0:0:0:
448,192,142382,1,0,0:0:0:0:
64,192,142568,128,0,142938:0:0:0:0:
192,192,142568,1,0,0:0:0:0:
320,192,142753,1,2,0:0:0:0:
448,192,142753,1,0,0:0:0:0:
192,192,142938,1,4,0:0:0:0:
320,192,143123,1,8,0:0:0:0:
448,192,143123,1,0,0:0:0:0:
64,192,143216,1,8,0:0:0:0:
192,192,143216,1,0,0:0:0:0:
448,192,143308,1,8,0:0:0:0:
64,192,143401,1,8,0:0:0:0:
192,192,143401,1,0,0:0:0:0:
320,192,143493,1,2,0:0:0:0:
448,192,143493,1,0,0:0:0:0:
64,192,143679,1,8,0:0:0:0:
192,192,143679,1,4,0:0:0:0:
320,192,143771,1,8,0:0:0:0:
448,192,143771,1,0,0:0:0:0:
64,192,143864,1,2,0:0:0:0:
448,192,143956,1,2,0:0:0:0:
64,192,144049,1,8,0:0:0:0:
192,192,144049,1,4,0:0:0:0:
320,192,144142,1,8,0:0:0:0:
448,192,144142,1,0,0:0:0:0:
192,192,144234,1,2,0:0:0:0:
320,192,144327,1,2,0:0:0:0:
64,192,144419,128,2,144790:0:0:0:0:
192,192,144419,1,4,0:0:0:0:
448,192,144419,128,0,144790:0:0:0:0:
320,192,144605,1,0,0:0:0:0:
320,192,144790,1,0,0:0:0:0:
64,192,144975,1,2,0:0:0:0:
192,192,144975,1,0,0:0:0:0:
64,192,145160,1,8,0:0:0:0:
320,192,145160,1,4,0:0:0:0:
448,192,145160,1,0,0:0:0:0:
448,192,145345,1,0,0:0:0:0:
320,192,145530,128,0,145716:0:0:0:0:
64,192,145716,1,2,0:0:0:0:
192,192,145716,1,0,0:0:0:0:
192,192,145901,128,4,146086:0:0:0:0:
448,192,146086,1,0,0:0:0:0:
64,192,146271,128,2,146456:0:0:0:0:
192,192,146271,1,0,0:0:0:0:
320,192,146456,1,2,0:0:0:0:
448,192,146456,1,0,0:0:0:0:
64,192,146642,1,8,0:0:0:0:
320,192,146642,1,4,0:0:0:0:
448,192,146642,128,0,146827:0:0:0:0:
64,192,146827,1,2,0:0:0:0:
192,192,146827,1,0,0:0:0:0:
320,192,147012,128,4,147197:0:0:0:0:
192,192,147197,1,0,0:0:0:0:
64,192,147382,128,2,147753:0:0:0:0:
192,192,147382,128,4,147753:0:0:0:0:
448,192,147382,1,0,0:0:0:0:
320,192,147567,1,0,0:0:0:0:
320,192,147753,1,0,0:0:0:0:
64,192,147938,1,2,0:0:0:0:
192,192,147938,1,0,0:0:0:0:
64,192,148123,128,8,148493:0:0:0:0:
320,192,148123,1,4,0:0:0:0:
448,192,148123,1,0,0:0:0:0:
320,192,148308,1,0,0:0:0:0:
192,192,148493,128,0,148864:0:0:0:0:
320,192,148679,1,2,0:0:0:0:
448,192,148679,1,0,0:0:0:0:
320,192,148864,128,4,149234:0:0:0:0:
192,192,149049,1,0,0:0:0:0:
64,192,149234,1,2,0:0:0:0:
192,192,149234,128,0,149605:0:0:0:0:
320,192,149419,1,2,0:0:0:0:
448,192,149419,1,0,0:0:0:0:
64,192,149605,1,8,0:0:0:0:
320,192,149605,128,4,149975:0:0:0:0:
448,192,149605,1,0,0:0:0:0:
64,192,149790,1,2,0:0:0:0:
192,192,149790,1,0,0:0:0:0:
64,192,149975,1,8,0:0:0:0:
192,192,149975,1,4,0:0:0:0:
448,192,149975,128,0,150345:0:0:0:0:
320,192,150160,1,0,0:0:0:0:
64,192,150345,128,2,150716:0:0:0:0:
192,192,150345,128,4,150716:0:0:0:0:
320,192,150345,1,0,0:0:0:0:
448,192,150530,1,0,0:0:0:0:
448,192,150716,1,0,0:0:0:0:
64,192,150901,1,2,0:0:0:0:
192,192,150901,1,0,0:0:0:0:
64,192,151086,1,8,0:0:0:0:
320,192,151086,1,4,0:0:0:0:
448,192,151086,1,0,0:0:0:0:
192,192,151271,1,0,0:0:0:0:
192,192,151456,1,0,0:0:0:0:
320,192,151642,1,2,0:0:0:0:
448,192,151642,1,0,0:0:0:0:
64,192,151827,1,4,0:0:0:0:
64,192,152012,1,0,0:0:0:0:
320,192,152197,1,2,0:0:0:0:
448,192,152197,1,0,0:0:0:0:
320,192,152382,1,2,0:0:0:0:
448,192,152382,1,0,0:0:0:0:
64,192,152567,1,8,0:0:0:0:
192,192,152567,1,4,0:0:0:0:
448,192,152567,1,0,0:0:0:0:
192,192,152753,1,2,0:0:0:0:
320,192,152753,1,0,0:0:0:0:
64,192,152938,1,4,0:0:0:0:
64,192,153123,1,0,0:0:0:0:
320,192,153308,1,2,0:0:0:0:
448,192,153308,1,4,0:0:0:0:
320,192,153493,1,0,0:0:0:0:
64,192,153679,1,0,0:0:0:0:
192,192,153864,1,2,0:0:0:0:
192,192,154049,1,8,0:0:0:0:
320,192,154049,1,4,0:0:0:0:
448,192,154049,1,0,0:0:0:0:
320,192,154234,1,0,0:0:0:0:
64,192,154419,1,8,0:0:0:0:
320,192,154419,1,0,0:0:0:0:
448,192,154419,1,0,0:0:0:0:
64,192,154605,1,2,0:0:0:0:
192,192,154605,1,0,0:0:0:0:
64,192,154790,1,4,0:0:0:0:
192,192,154790,1,2,0:0:0:0:
64,192,154975,1,8,0:0:0:0:
320,192,154975,1,0,0:0:0:0:
448,192,154975,1,0,0:0:0:0:
320,192,155345,1,2,0:0:0:0:
448,192,155345,1,0,0:0:0:0:
64,192,155530,1,8,0:0:0:0:
192,192,155530,1,4,0:0:0:0:
448,192,155530,1,0,0:0:0:0:
192,192,155716,1,2,0:0:0:0:
320,192,155716,1,0,0:0:0:0:
64,192,155901,1,8,0:0:0:0:
320,192,155901,1,4,0:0:0:0:
448,192,155901,1,0,0:0:0:0:
64,192,156086,1,8,0:0:0:0:
192,192,156086,1,0,0:0:0:0:
320,192,156179,1,8,0:0:0:0:
64,192,156271,1,2,0:0:0:0:
192,192,156271,1,4,0:0:0:0:
448,192,156271,1,0,0:0:0:0:
448,192,156456,1,0,0:0:0:0:
448,192,156642,1,0,0:0:0:0:
320,192,156827,1,2,0:0:0:0:
448,192,156827,1,0,0:0:0:0:
64,192,157012,1,8,0:0:0:0:
192,192,157012,1,4,0:0:0:0:
448,192,157012,1,0,0:0:0:0:
192,192,157197,1,0,0:0:0:0:
192,192,157382,1,0,0:0:0:0:
64,192,157567,1,2,0:0:0:0:
192,192,157567,1,0,0:0:0:0:
320,192,157753,1,4,0:0:0:0:
320,192,157938,1,0,0:0:0:0:
320,192,158123,1,2,0:0:0:0:
448,192,158123,1,0,0:0:0:0:
320,192,158308,1,2,0:0:0:0:
448,192,158308,1,0,0:0:0:0:
64,192,158493,1,8,0:0:0:0:
320,192,158493,1,4,0:0:0:0:
448,192,158493,1,0,0:0:0:0:
64,192,158679,1,2,0:0:0:0:
192,192,158679,1,0,0:0:0:0:
64,192,158864,1,4,0:0:0:0:
64,192,159049,1,0,0:0:0:0:
64,192,159234,1,2,0:0:0:0:
192,192,159234,1,4,0:0:0:0:
448,192,159234,1,0,0:0:0:0:
448,192,159419,1,0,0:0:0:0:
448,192,159605,1,0,0:0:0:0:
320,192,159790,1,2,0:0:0:0:
448,192,159790,1,0,0:0:0:0:
64,192,159975,1,8,0:0:0:0:
192,192,159975,1,4,0:0:0:0:
448,192,159975,1,0,0:0:0:0:
192,192,160160,1,0,0:0:0:0:
192,192,160345,1,0,0:0:0:0:
64,192,160530,1,2,0:0:0:0:
192,192,160530,1,0,0:0:0:0:
320,192,160716,1,4,0:0:0:0:
320,192,160901,1,0,0:0:0:0:
320,192,161086,1,2,0:0:0:0:
448,192,161086,1,0,0:0:0:0:
320,192,161271,1,2,0:0:0:0:
448,192,161271,1,0,0:0:0:0:
64,192,161456,1,8,0:0:0:0:
320,192,161456,1,4,0:0:0:0:
448,192,161456,1,0,0:0:0:0:
64,192,161642,1,2,0:0:0:0:
192,192,161642,1,0,0:0:0:0:
64,192,161827,1,8,0:0:0:0:
320,192,161827,1,4,0:0:0:0:
448,192,161827,1,0,0:0:0:0:
64,192,162012,1,0,0:0:0:0:
64,192,162197,1,2,0:0:0:0:
192,192,162197,1,4,0:0:0:0:
448,192,162197,1,0,0:0:0:0:
448,192,162382,1,0,0:0:0:0:
448,192,162567,1,0,0:0:0:0:
320,192,162753,1,2,0:0:0:0:
448,192,162753,1,0,0:0:0:0:
64,192,162938,1,8,0:0:0:0:
192,192,162938,1,4,0:0:0:0:
448,192,162938,1,0,0:0:0:0:
192,192,163123,1,0,0:0:0:0:
192,192,163308,1,0,0:0:0:0:
64,192,163493,1,2,0:0:0:0:
192,192,163493,1,0,0:0:0:0:
320,192,163679,1,4,0:0:0:0:
320,192,163864,1,0,0:0:0:0:
320,192,164049,1,2,0:0:0:0:
448,192,164049,1,0,0:0:0:0:
320,192,164234,1,2,0:0:0:0:
448,192,164234,1,0,0:0:0:0:
64,192,164419,1,8,0:0:0:0:
320,192,164419,1,4,0:0:0:0:
448,192,164419,1,0,0:0:0:0:
64,192,164605,1,2,0:0:0:0:
192,192,164605,1,0,0:0:0:0:
64,192,164790,1,4,0:0:0:0:
64,192,164975,1,0,0:0:0:0:
64,192,165160,1,2,0:0:0:0:
192,192,165160,1,4,0:0:0:0:
448,192,165160,1,0,0:0:0:0:
448,192,165345,1,0,0:0:0:0:
448,192,165530,1,0,0:0:0:0:
320,192,165716,1,2,0:0:0:0:
448,192,165716,1,0,0:0:0:0:
64,192,165901,1,8,0:0:0:0:
192,192,165901,1,4,0:0:0:0:
448,192,165901,1,0,0:0:0:0:
192,192,166086,1,0,0:0:0:0:
192,192,166271,1,0,0:0:0:0:
64,192,166456,1,2,0:0:0:0:
192,192,166456,1,0,0:0:0:0:
320,192,166642,1,4,0:0:0:0:
320,192,166827,1,8,0:0:0:0:
448,192,166827,1,0,0:0:0:0:
64,192,166919,1,8,0:0:0:0:
192,192,166919,1,0,0:0:0:0:
320,192,167012,1,8,0:0:0:0:
64,192,167105,1,8,0:0:0:0:
192,192,167105,1,0,0:0:0:0:
320,192,167197,1,2,0:0:0:0:
448,192,167197,1,0,0:0:0:0:
64,192,167382,1,8,0:0:0:0:
192,192,167382,1,4,0:0:0:0:
320,192,167475,1,8,0:0:0:0:
448,192,167475,1,0,0:0:0:0:
64,192,167567,1,2,0:0:0:0:
448,192,167660,1,2,0:0:0:0:
64,192,167753,1,8,0:0:0:0:
192,192,167753,1,4,0:0:0:0:
320,192,167845,1,8,0:0:0:0:
448,192,167845,1,0,0:0:0:0:
192,192,167938,1,2,0:0:0:0:
320,192,168030,1,2,0:0:0:0:
64,192,168123,128,2,168493:0:0:0:0:
192,192,168123,1,4,0:0:0:0:
448,192,168123,128,0,168493:0:0:0:0:
320,192,168308,1,0,0:0:0:0:
320,192,168493,1,0,0:0:0:0:
64,192,168679,1,2,0:0:0:0:
192,192,168679,1,0,0:0:0:0:
64,192,168864,1,8,0:0:0:0:
320,192,168864,1,4,0:0:0:0:
448,192,168864,1,0,0:0:0:0:
448,192,169049,1,0,0:0:0:0:
320,192,169234,128,0,169419:0:0:0:0:
64,192,169419,1,2,0:0:0:0:
192,192,169419,1,0,0:0:0:0:
192,192,169605,128,4,169790:0:0:0:0:
448,192,169790,1,0,0:0:0:0:
64,192,169975,128,2,170160:0:0:0:0:
320,192,169975,1,0,0:0:0:0:
192,192,170160,1,2,0:0:0:0:
320,192,170160,1,0,0:0:0:0:
64,192,170345,1,8,0:0:0:0:
320,192,170345,1,4,0:0:0:0:
448,192,170345,128,0,170530:0:0:0:0:
64,192,170530,1,2,0:0:0:0:
192,192,170530,1,0,0:0:0:0:
320,192,170716,128,4,170901:0:0:0:0:
192,192,170901,1,0,0:0:0:0:
64,192,171086,128,2,171456:0:0:0:0:
192,192,171086,128,4,171456:0:0:0:0:
448,192,171086,1,0,0:0:0:0:
320,192,171271,1,0,0:0:0:0:
320,192,171456,1,0,0:0:0:0:
64,192,171642,1,2,0:0:0:0:
192,192,171642,1,0,0:0:0:0:
64,192,171827,128,8,172197:0:0:0:0:
320,192,171827,1,4,0:0:0:0:
448,192,171827,1,0,0:0:0:0:
320,192,172012,1,0,0:0:0:0:
192,192,172197,128,0,172567:0:0:0:0:
320,192,172382,1,2,0:0:0:0:
448,192,172382,1,0,0:0:0:0:
320,192,172567,128,4,172938:0:0:0:0:
192,192,172753,1,0,0:0:0:0:
64,192,172938,1,2,0:0:0:0:
192,192,172938,128,0,173308:0:0:0:0:
320,192,173123,1,2,0:0:0:0:
448,192,173123,1,0,0:0:0:0:
64,192,173308,1,8,0:0:0:0:
320,192,173308,128,4,173679:0:0:0:0:
448,192,173308,1,0,0:0:0:0:
64,192,173493,1,2,0:0:0:0:
192,192,173493,1,0,0:0:0:0:
64,192,173679,1,8,0:0:0:0:
192,192,173679,1,4,0:0:0:0:
448,192,173679,128,0,174049:0:0:0:0:
320,192,173864,1,0,0:0:0:0:
64,192,174049,128,2,174419:0:0:0:0:
192,192,174049,128,4,174419:0:0:0:0:
320,192,174049,1,0,0:0:0:0:
448,192,174234,1,0,0:0:0:0:
448,192,174419,1,0,0:0:0:0:
64,192,174605,1,2,0:0:0:0:
192,192,174605,1,0,0:0:0:0:
64,192,174790,1,8,0:0:0:0:
320,192,174790,1,4,0:0:0:0:
448,192,174790,1,0,0:0:0:0:
192,192,174975,1,0,0:0:0:0:
192,192,175160,1,0,0:0:0:0:
320,192,175345,1,2,0:0:0:0:
448,192,175345,1,0,0:0:0:0:
64,192,175530,128,4,175901:0:0:0:0:
192,192,175530,128,0,175901:0:0:0:0:
320,192,175716,1,0,0:0:0:0:
320,192,175901,1,2,0:0:0:0:
448,192,175901,1,0,0:0:0:0:
64,192,176086,1,2,0:0:0:0:
192,192,176086,1,0,0:0:0:0:
320,192,176271,128,8,176642:0:0:0:0:
448,192,176271,128,4,176642:0:0:0:0:
64,192,176456,1,2,0:0:0:0:
192,192,176456,1,0,0:0:0:0:
192,192,176642,1,4,0:0:0:0:
320,192,176827,1,0,0:0:0:0:
64,192,177012,128,2,177382:0:0:0:0:
192,192,177012,128,4,177382:0:0:0:0:
448,192,177012,128,0,177382:0:0:0:0:
320,192,177197,1,0,0:0:0:0:
320,192,177382,1,0,0:0:0:0:
64,192,177567,1,2,0:0:0:0:
192,192,177567,1,0,0:0:0:0:
64,192,177753,128,8,178030:0:0:0:0:
320,192,177753,128,4,178030:0:0:0:0:
448,192,177753,128,0,178030:0:0:0:0:
192,192,177938,1,0,0:0:0:0:
64,192,178123,1,8,0:0:0:0:
320,192,178123,1,0,0:0:0:0:
448,192,178123,1,0,0:0:0:0:
192,192,178308,1,2,0:0:0:0:
320,192,178308,1,0,0:0:0:0:
64,192,178493,128,4,179142:0:0:0:0:
192,192,178493,128,2,178864:0:0:0:0:
320,192,178679,128,8,178864:0:0:0:0:
448,192,178679,128,0,179605:0:0:0:0:
320,192,178956,1,8,0:0:0:0:
192,192,179049,1,2,0:0:0:0:
64,192,179234,1,8,0:0:0:0:
320,192,179234,1,4,0:0:0:0:
192,192,179419,1,2,0:0:0:0:
320,192,179512,1,2,0:0:0:0:
64,192,179605,1,8,0:0:0:0:
192,192,179605,1,4,0:0:0:0:
320,192,179697,1,8,0:0:0:0:
448,192,179697,1,0,0:0:0:0:
64,192,179790,1,2,0:0:0:0:
192,192,179882,1,2,0:0:0:0:
64,192,179975,1,4,0:0:0:0:
320,192,179975,1,2,0:0:0:0:
448,192,179975,1,0,0:0:0:0:
448,192,180160,1,0,0:0:0:0:
448,192,180345,1,0,0:0:0:0:
64,192,180530,128,2,181086:0:0:0:0:
192,192,180530,1,0,0:0:0:0:
320,192,180716,1,4,0:0:0:0:
320,192,181086,1,2,0:0:0:0:
448,192,181086,1,0,0:0:0:0:
320,192,181271,1,0,0:0:0:0:
64,192,181456,1,8,0:0:0:0:
320,192,181456,1,4,0:0:0:0:
448,192,181456,1,0,0:0:0:0:
192,192,181642,128,0,182197:0:0:0:0:
320,192,182012,1,2,0:0:0:0:
448,192,182012,1,0,0:0:0:0:
64,192,182197,1,4,0:0:0:0:
320,192,182197,1,8,0:0:0:0:
448,192,182197,1,0,0:0:0:0:
320,192,182382,1,0,0:0:0:0:
192,192,182567,1,0,0:0:0:0:
320,192,182753,1,0,0:0:0:0:
64,192,182938,1,2,0:0:0:0:
192,192,182938,1,4,0:0:0:0:
448,192,182938,1,0,0:0:0:0:
448,192,183123,1,0,0:0:0:0:
448,192,183308,1,0,0:0:0:0:
64,192,183493,128,2,184049:0:0:0:0:
192,192,183493,1,0,0:0:0:0:
320,192,183679,1,4,0:0:0:0:
320,192,184049,1,2,0:0:0:0:
448,192,184049,1,0,0:0:0:0:
320,192,184234,1,0,0:0:0:0:
64,192,184419,1,8,0:0:0:0:
320,192,184419,1,4,0:0:0:0:
448,192,184419,1,0,0:0:0:0:
192,192,184605,128,0,185160:0:0:0:0:
64,192,185160,1,8,0:0:0:0:
320,192,185160,1,4,0:0:0:0:
448,192,185160,1,0,0:0:0:0:
64,192,185345,1,2,0:0:0:0:
192,192,185345,1,0,0:0:0:0:
448,192,185345,1,0,0:0:0:0:
320,192,185530,1,4,0:0:0:0:
64,192,185716,1,2,0:0:0:0:
192,192,185716,1,0,0:0:0:0:
64,192,185901,1,2,0:0:0:0:
192,192,185901,1,4,0:0:0:0:
448,192,185901,1,0,0:0:0:0:
448,192,186086,1,0,0:0:0:0:
448,192,186271,1,0,0:0:0:0:
64,192,186456,128,2,187012:0:0:0:0:
192,192,186456,1,0,0:0:0:0:
320,192,186642,1,4,0:0:0:0:
320,192,187012,1,2,0:0:0:0:
448,192,187012,1,0,0:0:0:0:
320,192,187197,1,0,0:0:0:0:
64,192,187382,1,4,0:0:0:0:
320,192,187382,1,8,0:0:0:0:
448,192,187382,1,0,0:0:0:0:
192,192,187567,128,0,188123:0:0:0:0:
320,192,187938,1,2,0:0:0:0:
448,192,187938,1,0,0:0:0:0:
64,192,188123,1,4,0:0:0:0:
320,192,188123,1,8,0:0:0:0:
448,192,188123,1,0,0:0:0:0:
64,192,188308,1,0,0:0:0:0:
192,192,188493,1,0,0:0:0:0:
320,192,188679,1,0,0:0:0:0:
64,192,188864,1,4,0:0:0:0:
320,192,188864,1,2,0:0:0:0:
448,192,188864,1,0,0:0:0:0:
320,192,189049,1,2,0:0:0:0:
448,192,189049,1,0,0:0:0:0:
320,192,189234,1,2,0:0:0:0:
448,192,189234,1,0,0:0:0:0:
64,192,189419,128,8,189790:0:0:0:0:
192,192,189419,1,0,0:0:0:0:
448,192,189419,1,0,0:0:0:0:
320,192,189790,1,8,0:0:0:0:
448,192,189790,1,0,0:0:0:0:
64,192,189882,1,8,0:0:0:0:
192,192,189882,1,0,0:0:0:0:
320,192,189975,1,8,0:0:0:0:
448,192,189975,1,0,0:0:0:0:
64,192,190160,1,2,0:0:0:0:
320,192,190160,1,0,0:0:0:0:
64,192,190345,1,4,0:0:0:0:
320,192,190345,1,2,0:0:0:0:
64,192,190530,1,2,0:0:0:0:
192,192,190530,128,0,190901:0:0:0:0:
448,192,190530,1,0,0:0:0:0:
320,192,190901,1,2,0:0:0:0:
448,192,190901,1,0,0:0:0:0:
64,192,191086,1,4,0:0:0:0:
320,192,191086,1,8,0:0:0:0:
448,192,191086,1,0,0:0:0:0:
64,192,191271,1,2,0:0:0:0:
192,192,191271,1,0,0:0:0:0:
64,192,191456,1,4,0:0:0:0:
320,192,191456,1,8,0:0:0:0:
448,192,191456,1,0,0:0:0:0:
192,192,191642,1,8,0:0:0:0:
320,192,191642,1,4,0:0:0:0:
448,192,191642,1,0,0:0:0:0:
