osu file format v14

[General]
AudioFilename: audio.mp3
AudioLeadIn: 0
PreviewTime: 60255
Countdown: 0
SampleSet: Normal
StackLeniency: 0.7
Mode: 1
LetterboxInBreaks: 0
WidescreenStoryboard: 1

[Editor]
DistanceSpacing: 1.9
BeatDivisor: 2
GridSize: 32
TimelineZoom: 1.4

[Metadata]
Title:2019 Guy
TitleUnicode:2019 Guy
Artist:The Gentle Men
ArtistUnicode:The Gentle Men
Creator:Aljotzi
Version:Cry's Muzukashii
Source:
Tags:FA Featured Artist ange amge closed hivie cryceptio moistcr1tikal cr1tikal critikal Troy McKubre charlie english rock solstate gentlemen
BeatmapID:3903087
BeatmapSetID:1894031

[Difficulty]
HPDrainRate:6
CircleSize:2
OverallDifficulty:5
ApproachRate:10
SliderMultiplier:1.4
SliderTickRate:1

[Events]
//Background and Video events
0,0,"maxresdefault.jpg",0,100
Video,-550,"output.mp4"
//Break Periods
2,84644,95468
//Storyboard Layer 0 (Background)
//Storyboard Layer 1 (Fail)
//Storyboard Layer 2 (Pass)
//Storyboard Layer 3 (Foreground)
//Storyboard Layer 4 (Overlay)
//Storyboard Sound Samples

[TimingPoints]
742,370.37037037037,4,1,0,50,1,0
742,-100,4,1,0,50,0,0
58519,370.37037037037,6,1,0,50,1,0
60741,370.37037037037,4,1,0,70,1,1
60741,-100,4,1,0,70,0,1
84444,-100,4,1,0,70,0,0
95918,401.33779264214,4,1,0,50,1,8
95918,-92.2839506172841,4,1,0,50,0,0
96319,362.537764350453,4,1,0,50,1,0
96319,-102.160493827161,4,1,0,50,0,0
97769,352.941176470588,4,1,0,50,1,0
97769,-104.938271604938,4,1,0,50,0,0
98474,363.086232980333,4,1,0,50,1,8
98474,-102.006172839506,4,1,0,50,0,0
99200,378.310214375788,4,1,0,50,1,0
99200,-97.9012345679013,4,1,0,50,0,0
100713,368.098159509202,4,1,0,50,1,0
100713,-100.617283950617,4,1,0,50,0,0
101449,346.820809248555,4,1,0,50,1,8
101449,-106.79012345679,4,1,0,50,0,0
101969,433.212996389892,4,1,0,50,1,8
101969,-85.4938271604938,4,1,0,50,0,0
102185,385.232744783307,4,1,0,50,1,0
102185,-96.1419753086419,4,1,0,50,0,0
102955,370.37037037037,4,1,0,50,1,8
102955,-100,4,1,0,50,0,0
103510,433.212996389892,4,1,0,50,1,8
103510,-85.4938271604938,4,1,0,50,0,0
103726,339.943342776204,4,1,0,50,1,0
103726,-108.950617283951,4,1,0,50,0,0
104065,385.852090032154,4,1,0,50,1,8
104065,-95.9876543209877,4,1,0,50,0,0
104836,370.37037037037,4,1,0,50,1,8
104836,-100,4,1,0,50,0,0
105206,370.37037037037,4,1,0,50,1,0
105206,-100,4,1,0,50,0,0
107284,370.37037037037,4,1,0,50,1,8
107284,-100,4,1,0,50,0,0
107469,394.736842105263,4,1,0,50,1,8
107469,-93.8271604938272,4,1,0,50,0,0
108208,370.37037037037,4,1,0,50,1,0
108208,-100,4,1,0,50,0,0
109651,370.37037037037,4,1,0,50,1,0
109651,-100,4,1,0,50,0,0
120000,370.37037037037,4,1,0,50,1,0
120000,-100,4,1,0,50,0,0
130370,370.37037037037,6,1,0,50,1,0
132592,370.37037037037,4,1,0,70,1,1
132592,-100,4,1,0,70,0,1
179999,-100,4,1,0,70,0,0

[HitObjects]
192,128,12223,5,0,0:0:0:0:
448,64,12593,1,8,0:0:0:0:
448,64,13334,1,8,0:0:0:0:
192,128,14075,1,0,0:0:0:0:
192,128,14260,1,0,0:0:0:0:
448,64,14445,1,8,0:0:0:0:
192,128,14630,1,0,0:0:0:0:
448,64,14816,1,8,0:0:0:0:
192,128,15186,1,0,0:0:0:0:
448,64,15556,1,8,0:0:0:0:
448,64,16297,1,8,0:0:0:0:
448,64,17038,1,8,0:0:0:0:
448,64,17408,1,8,0:0:0:0:
192,128,17593,1,0,0:0:0:0:
448,64,17779,1,8,0:0:0:0:
64,64,18149,1,0,0:0:0:0:
448,64,18519,1,8,0:0:0:0:
448,64,19260,1,8,0:0:0:0:
192,128,19630,1,0,0:0:0:0:
448,64,20001,1,8,0:0:0:0:
192,128,20371,1,0,0:0:0:0:
448,64,20556,1,8,0:0:0:0:
192,128,21112,1,0,0:0:0:0:
192,128,21482,1,0,0:0:0:0:
448,64,21853,1,8,0:0:0:0:
192,128,22223,1,0,0:0:0:0:
448,64,22408,1,8,0:0:0:0:
448,64,22964,1,8,0:0:0:0:
192,128,23334,1,0,0:0:0:0:
192,128,23519,1,8,0:0:0:0:
192,128,23612,1,8,0:0:0:0:
192,128,23704,1,8,0:0:0:0:
192,128,23890,1,0,0:0:0:0:
448,320,24075,1,12,0:0:0:0:
64,320,24445,1,4,0:0:0:0:
192,128,25001,1,0,0:0:0:0:
448,64,25186,1,8,0:0:0:0:
192,128,25556,1,0,0:0:0:0:
448,64,25927,1,8,0:0:0:0:
192,128,26112,1,0,0:0:0:0:
448,64,26297,1,8,0:0:0:0:
448,64,26482,1,8,0:0:0:0:
192,128,26667,1,0,0:0:0:0:
448,64,27038,1,8,0:0:0:0:
192,128,27223,1,0,0:0:0:0:
448,64,27408,1,8,0:0:0:0:
192,128,27964,1,0,0:0:0:0:
448,64,28149,1,8,0:0:0:0:
448,64,28519,1,8,0:0:0:0:
192,128,28890,1,0,0:0:0:0:
448,64,29075,1,8,0:0:0:0:
192,128,29260,1,0,0:0:0:0:
448,64,29630,1,8,0:0:0:0:
192,128,30001,1,0,0:0:0:0:
448,64,30371,1,8,0:0:0:0:
192,128,30927,1,0,0:0:0:0:
448,64,31112,1,8,0:0:0:0:
192,128,31482,1,0,0:0:0:0:
448,64,31853,1,8,0:0:0:0:
192,128,32223,1,0,0:0:0:0:
448,64,32408,1,8,0:0:0:0:
448,64,32593,1,8,0:0:0:0:
192,128,32964,1,0,0:0:0:0:
192,128,33334,1,0,0:0:0:0:
192,128,33704,1,0,0:0:0:0:
192,128,33890,1,0,0:0:0:0:
448,64,34075,1,8,0:0:0:0:
192,128,34445,1,0,0:0:0:0:
448,64,34816,1,8,0:0:0:0:
192,128,35001,1,0,0:0:0:0:
448,64,35186,1,8,0:0:0:0:
448,64,35371,1,8,0:0:0:0:
448,64,35464,1,8,0:0:0:0:
448,64,35556,1,8,0:0:0:0:
192,128,35741,1,0,0:0:0:0:
448,320,35927,1,12,0:0:0:0:
64,320,36297,1,4,0:0:0:0:
192,128,36667,1,0,0:0:0:0:
192,128,37038,1,0,0:0:0:0:
192,128,37408,1,0,0:0:0:0:
192,128,37779,1,0,0:0:0:0:
192,128,38149,1,0,0:0:0:0:
192,128,38519,1,0,0:0:0:0:
192,128,38890,1,0,0:0:0:0:
448,320,39260,1,12,0:0:0:0:
192,128,39630,1,8,0:0:0:0:
448,64,40001,1,8,0:0:0:0:
448,64,40371,1,8,0:0:0:0:
448,64,40741,1,8,0:0:0:0:
448,64,41112,1,8,0:0:0:0:
448,64,41482,1,8,0:0:0:0:
448,64,41853,1,8,0:0:0:0:
64,320,42223,1,4,0:0:0:0:
192,128,42593,1,0,0:0:0:0:
192,128,42964,1,0,0:0:0:0:
192,128,43334,1,0,0:0:0:0:
192,128,43704,1,0,0:0:0:0:
192,128,44075,1,0,0:0:0:0:
192,128,44445,1,0,0:0:0:0:
224,128,44816,1,0,0:0:0:0:
64,320,45186,1,4,0:0:0:0:
224,128,45556,1,0,0:0:0:0:
224,128,45741,1,0,0:0:0:0:
448,64,45927,1,8,0:0:0:0:
448,64,46297,1,8,0:0:0:0:
448,64,46482,1,8,0:0:0:0:
224,128,46667,1,0,0:0:0:0:
448,64,46853,1,8,0:0:0:0:
224,128,47038,1,0,0:0:0:0:
224,128,47223,1,0,0:0:0:0:
448,64,47408,1,8,0:0:0:0:
448,320,48149,1,12,0:0:0:0:
224,128,48519,1,0,0:0:0:0:
448,64,48704,1,8,0:0:0:0:
224,128,48890,1,0,0:0:0:0:
64,64,48982,1,0,0:0:0:0:
224,128,49075,1,0,0:0:0:0:
448,64,49260,1,8,0:0:0:0:
224,128,49630,1,0,0:0:0:0:
448,64,49816,1,8,0:0:0:0:
448,64,50001,1,8,0:0:0:0:
448,64,50093,1,8,0:0:0:0:
448,64,50186,1,8,0:0:0:0:
448,64,50371,1,0,0:0:0:0:
448,64,50556,1,8,0:0:0:0:
224,128,50741,1,0,0:0:0:0:
224,128,50927,1,0,0:0:0:0:
448,320,51112,1,12,0:0:0:0:
448,64,51667,1,8,0:0:0:0:
448,64,51853,1,8,0:0:0:0:
224,128,52038,1,0,0:0:0:0:
448,64,52223,1,8,0:0:0:0:
224,128,52593,1,0,0:0:0:0:
448,64,52779,1,8,0:0:0:0:
224,128,52964,1,0,0:0:0:0:
224,128,53056,1,0,0:0:0:0:
224,128,53149,1,0,0:0:0:0:
448,64,53334,1,8,0:0:0:0:
192,128,53519,1,0,0:0:0:0:
448,64,53704,1,8,0:0:0:0:
448,64,53797,1,8,0:0:0:0:
448,64,53890,1,8,0:0:0:0:
64,320,54075,1,4,0:0:0:0:
448,64,54630,1,8,0:0:0:0:
192,128,54816,1,0,0:0:0:0:
64,64,54908,1,0,0:0:0:0:
64,64,55001,1,0,0:0:0:0:
448,64,55186,1,8,0:0:0:0:
224,128,55556,1,0,0:0:0:0:
448,64,55741,1,8,0:0:0:0:
224,128,55927,1,0,0:0:0:0:
224,128,56019,1,0,0:0:0:0:
224,128,56112,1,0,0:0:0:0:
448,64,56297,1,8,0:0:0:0:
64,64,56482,1,0,0:0:0:0:
224,128,56667,1,0,0:0:0:0:
448,64,56853,1,8,0:0:0:0:
64,320,57038,1,4,0:0:0:0:
448,64,57593,1,8,0:0:0:0:
224,128,57779,1,0,0:0:0:0:
64,64,57871,1,0,0:0:0:0:
192,128,57964,1,0,0:0:0:0:
448,64,58149,1,8,0:0:0:0:
448,64,58519,1,8,0:0:0:0:
448,64,58704,1,8,0:0:0:0:
224,128,58890,1,0,0:0:0:0:
448,64,59075,1,8,0:0:0:0:
448,64,59167,1,8,0:0:0:0:
448,64,59260,1,8,0:0:0:0:
192,128,59445,1,0,0:0:0:0:
448,64,59630,1,8,0:0:0:0:
192,128,59816,1,0,0:0:0:0:
448,64,60001,1,8,0:0:0:0:
192,128,60371,1,0,0:0:0:0:
448,320,60741,1,12,0:0:0:0:
448,64,61296,1,8,0:0:0:0:
448,64,61481,1,8,0:0:0:0:
448,64,61852,1,8,0:0:0:0:
192,128,62037,1,0,0:0:0:0:
448,64,62407,1,8,0:0:0:0:
192,128,62592,1,0,0:0:0:0:
192,128,62778,1,0,0:0:0:0:
192,128,62870,1,0,0:0:0:0:
192,128,62963,1,0,0:0:0:0:
448,64,63148,1,8,0:0:0:0:
192,128,63333,1,0,0:0:0:0:
448,64,63518,1,8,0:0:0:0:
64,320,63703,1,4,0:0:0:0:
448,64,64259,1,8,0:0:0:0:
192,128,64444,1,0,0:0:0:0:
448,64,64815,1,8,0:0:0:0:
192,128,65000,1,0,0:0:0:0:
192,128,65370,1,0,0:0:0:0:
448,64,65555,1,8,0:0:0:0:
192,128,65741,1,0,0:0:0:0:
198,137,65833,1,0,0:0:0:0:
192,128,65926,1,0,0:0:0:0:
192,128,66111,1,0,0:0:0:0:
448,64,66296,1,8,0:0:0:0:
448,64,66389,1,8,0:0:0:0:
448,64,66481,1,8,0:0:0:0:
64,320,66666,1,4,0:0:0:0:
448,64,67222,1,8,0:0:0:0:
448,64,67407,1,8,0:0:0:0:
448,64,67778,1,8,0:0:0:0:
192,128,67963,1,0,0:0:0:0:
192,128,68333,1,0,0:0:0:0:
448,64,68518,1,8,0:0:0:0:
192,128,68703,1,0,0:0:0:0:
192,128,68796,1,0,0:0:0:0:
192,128,68889,1,0,0:0:0:0:
448,64,69074,1,8,0:0:0:0:
192,128,69259,1,0,0:0:0:0:
64,64,69444,1,0,0:0:0:0:
64,320,69629,1,4,0:0:0:0:
192,128,70185,1,0,0:0:0:0:
448,64,70370,1,8,0:0:0:0:
448,64,70740,1,8,0:0:0:0:
192,128,70926,1,0,0:0:0:0:
448,64,71296,1,8,0:0:0:0:
448,64,71389,1,8,0:0:0:0:
448,64,71481,1,8,0:0:0:0:
448,64,71666,1,8,0:0:0:0:
192,128,71852,1,0,0:0:0:0:
192,128,71944,1,0,0:0:0:0:
192,128,72037,1,0,0:0:0:0:
448,64,72222,1,8,0:0:0:0:
448,64,72315,1,8,0:0:0:0:
448,64,72407,1,8,0:0:0:0:
448,320,72592,1,12,0:0:0:0:
192,128,73148,1,0,0:0:0:0:
448,64,73333,1,8,0:0:0:0:
448,64,73703,1,8,0:0:0:0:
192,128,73889,1,0,0:0:0:0:
192,128,74074,1,0,0:0:0:0:
192,128,74444,1,0,0:0:0:0:
192,128,74629,1,0,0:0:0:0:
448,64,74815,1,8,0:0:0:0:
448,64,75185,1,8,0:0:0:0:
448,64,75370,1,8,0:0:0:0:
192,128,75555,1,0,0:0:0:0:
192,128,76111,1,0,0:0:0:0:
448,64,76296,1,8,0:0:0:0:
192,128,76666,1,0,0:0:0:0:
192,128,76852,1,0,0:0:0:0:
448,64,77222,1,8,0:0:0:0:
192,128,77407,1,0,0:0:0:0:
192,128,77592,1,0,0:0:0:0:
448,64,77778,1,8,0:0:0:0:
448,64,78148,1,8,0:0:0:0:
448,64,78333,1,8,0:0:0:0:
192,128,78518,1,0,0:0:0:0:
192,128,79074,1,0,0:0:0:0:
448,64,79259,1,8,0:0:0:0:
192,128,79815,1,8,0:0:0:0:
192,128,80000,1,0,0:0:0:0:
190,144,80370,1,8,0:0:0:0:
187,144,80555,1,0,0:0:0:0:
448,64,80740,1,8,0:0:0:0:
448,64,81111,1,8,0:0:0:0:
448,64,81296,1,8,0:0:0:0:
192,128,81481,1,0,0:0:0:0:
192,128,81852,1,0,0:0:0:0:
192,128,82037,1,0,0:0:0:0:
448,64,82222,1,8,0:0:0:0:
448,64,82592,1,8,0:0:0:0:
448,64,82778,1,8,0:0:0:0:
192,128,82963,1,0,0:0:0:0:
448,64,83148,1,8,0:0:0:0:
448,64,83240,1,8,0:0:0:0:
448,64,83333,1,8,0:0:0:0:
448,64,83518,1,0,0:0:0:0:
448,64,83703,1,8,0:0:0:0:
448,64,83796,1,8,0:0:0:0:
448,64,83889,1,8,0:0:0:0:
448,64,84074,1,8,0:0:0:0:
192,128,84259,1,0,0:0:0:0:
448,64,84444,1,8,0:0:0:0:
192,96,95918,5,0,0:0:0:0:
448,64,96319,1,8,0:0:0:0:
448,64,97044,1,8,0:0:0:0:
448,64,97769,1,8,0:0:0:0:
448,64,97945,1,8,0:0:0:0:
192,96,98121,1,0,0:0:0:0:
192,96,98298,1,0,0:0:0:0:
448,64,98474,1,8,0:0:0:0:
192,96,98837,1,0,0:0:0:0:
448,64,99200,1,8,0:0:0:0:
448,64,99956,1,8,0:0:0:0:
64,64,100713,1,0,0:0:0:0:
448,64,101081,1,8,0:0:0:0:
192,96,101449,1,0,0:0:0:0:
448,64,101622,1,8,0:0:0:0:
192,96,101795,1,0,0:0:0:0:
448,64,102185,1,8,0:0:0:0:
448,64,102955,1,8,0:0:0:0:
448,64,103325,1,8,0:0:0:0:
448,64,103726,1,8,0:0:0:0:
192,96,104065,1,0,0:0:0:0:
448,64,104257,1,8,0:0:0:0:
448,64,104836,1,8,0:0:0:0:
192,96,107469,1,0,0:0:0:0:
192,96,107666,1,0,0:0:0:0:
448,64,107863,1,8,0:0:0:0:
448,64,108208,1,8,0:0:0:0:
448,64,108578,1,8,0:0:0:0:
192,96,108763,1,0,0:0:0:0:
448,64,108948,1,8,0:0:0:0:
192,96,109651,1,0,0:0:0:0:
192,96,110021,1,0,0:0:0:0:
448,64,110206,1,8,0:0:0:0:
192,96,110391,1,0,0:0:0:0:
192,96,110762,1,0,0:0:0:0:
448,64,111132,1,8,0:0:0:0:
448,64,111873,1,8,0:0:0:0:
192,96,112243,1,0,0:0:0:0:
192,96,112428,1,0,0:0:0:0:
448,64,112613,1,8,0:0:0:0:
448,64,112984,1,8,0:0:0:0:
448,64,113354,1,8,0:0:0:0:
448,64,113539,1,8,0:0:0:0:
192,96,113725,1,0,0:0:0:0:
448,64,114095,1,8,0:0:0:0:
192,96,114651,1,0,0:0:0:0:
448,64,114836,1,8,0:0:0:0:
192,96,115206,1,0,0:0:0:0:
192,96,115391,1,0,0:0:0:0:
448,64,115576,1,8,0:0:0:0:
192,96,115947,1,0,0:0:0:0:
448,64,116132,1,8,0:0:0:0:
448,64,116502,1,8,0:0:0:0:
192,96,116688,1,0,0:0:0:0:
448,320,120000,1,12,0:0:0:0:
192,96,120555,1,0,0:0:0:0:
192,96,120740,1,0,0:0:0:0:
64,64,120833,1,0,0:0:0:0:
192,96,120926,1,0,0:0:0:0:
448,64,121111,1,8,0:0:0:0:
448,64,121481,1,8,0:0:0:0:
192,96,121666,1,0,0:0:0:0:
192,96,121759,1,0,0:0:0:0:
192,96,121852,1,0,0:0:0:0:
448,64,122037,1,8,0:0:0:0:
448,64,122222,1,8,0:0:0:0:
192,96,122407,1,0,0:0:0:0:
448,64,122592,1,8,0:0:0:0:
192,96,122778,1,0,0:0:0:0:
448,320,122963,1,12,0:0:0:0:
192,96,123518,1,0,0:0:0:0:
448,64,123703,1,8,0:0:0:0:
448,64,123889,1,8,0:0:0:0:
448,64,124074,1,8,0:0:0:0:
192,96,124444,1,0,0:0:0:0:
448,64,124629,1,8,0:0:0:0:
448,64,124722,1,8,0:0:0:0:
448,64,124815,1,8,0:0:0:0:
448,64,125000,1,8,0:0:0:0:
448,64,125185,1,8,0:0:0:0:
192,96,125370,1,0,0:0:0:0:
192,96,125555,1,0,0:0:0:0:
192,96,125648,1,0,0:0:0:0:
192,96,125740,1,0,0:0:0:0:
448,320,125926,1,12,0:0:0:0:
448,64,126481,1,8,0:0:0:0:
192,96,126666,1,0,0:0:0:0:
192,96,126852,1,0,0:0:0:0:
448,64,127037,1,8,0:0:0:0:
192,96,127407,1,0,0:0:0:0:
192,96,127592,1,0,0:0:0:0:
192,96,127685,1,0,0:0:0:0:
192,96,127778,1,0,0:0:0:0:
192,96,127963,1,0,0:0:0:0:
448,64,128148,1,8,0:0:0:0:
192,96,128333,1,0,0:0:0:0:
192,96,128518,1,0,0:0:0:0:
192,96,128611,1,0,0:0:0:0:
192,96,128703,1,0,0:0:0:0:
448,320,128889,1,12,0:0:0:0:
192,96,129444,1,0,0:0:0:0:
192,96,129629,1,0,0:0:0:0:
64,64,129722,1,0,0:0:0:0:
192,96,129815,1,0,0:0:0:0:
448,64,130000,1,8,0:0:0:0:
192,96,130370,1,0,0:0:0:0:
192,96,130555,1,0,0:0:0:0:
448,64,130740,1,8,0:0:0:0:
192,96,130926,1,0,0:0:0:0:
192,96,131018,1,0,0:0:0:0:
192,96,131111,1,0,0:0:0:0:
192,128,131296,1,0,0:0:0:0:
448,64,131481,1,8,0:0:0:0:
192,128,131666,1,0,0:0:0:0:
448,64,131852,1,8,0:0:0:0:
192,128,132222,1,0,0:0:0:0:
448,320,132592,1,12,0:0:0:0:
448,64,133147,1,8,0:0:0:0:
448,64,133332,1,8,0:0:0:0:
192,128,133703,1,0,0:0:0:0:
448,64,133888,1,8,0:0:0:0:
192,128,134258,1,0,0:0:0:0:
448,64,134443,1,8,0:0:0:0:
224,128,134629,1,0,0:0:0:0:
224,128,134721,1,0,0:0:0:0:
224,128,134814,1,0,0:0:0:0:
224,128,134999,1,0,0:0:0:0:
448,64,135184,1,8,0:0:0:0:
448,64,135369,1,8,0:0:0:0:
64,320,135554,1,4,0:0:0:0:
224,128,136110,1,0,0:0:0:0:
224,128,136295,1,0,0:0:0:0:
448,64,136666,1,8,0:0:0:0:
64,64,136851,1,0,0:0:0:0:
224,128,137221,1,0,0:0:0:0:
448,64,137406,1,8,0:0:0:0:
448,64,137592,1,8,0:0:0:0:
448,64,137684,1,8,0:0:0:0:
448,64,137777,1,8,0:0:0:0:
224,128,137962,1,0,0:0:0:0:
224,128,138147,1,0,0:0:0:0:
224,128,138240,1,0,0:0:0:0:
224,128,138332,1,0,0:0:0:0:
448,320,138517,1,12,0:0:0:0:
448,64,139073,1,8,0:0:0:0:
448,64,139258,1,8,0:0:0:0:
224,128,139629,1,0,0:0:0:0:
448,64,139814,1,8,0:0:0:0:
224,128,140184,1,0,0:0:0:0:
448,64,140369,1,8,0:0:0:0:
224,128,140554,1,0,0:0:0:0:
64,64,140647,1,0,0:0:0:0:
224,128,140740,1,0,0:0:0:0:
448,64,140925,1,8,0:0:0:0:
448,64,141110,1,8,0:0:0:0:
448,64,141203,1,8,0:0:0:0:
448,64,141295,1,8,0:0:0:0:
64,320,141480,1,4,0:0:0:0:
224,128,142036,1,0,0:0:0:0:
448,64,142221,1,8,0:0:0:0:
224,128,142592,1,0,0:0:0:0:
448,64,142777,1,8,0:0:0:0:
448,64,143147,1,8,0:0:0:0:
448,64,143240,1,8,0:0:0:0:
448,64,143332,1,8,0:0:0:0:
448,64,143517,1,8,0:0:0:0:
224,128,143703,1,0,0:0:0:0:
224,128,143795,1,0,0:0:0:0:
224,128,143888,1,0,0:0:0:0:
448,64,144073,1,8,0:0:0:0:
448,64,144166,1,8,0:0:0:0:
448,64,144258,1,8,0:0:0:0:
448,320,144443,1,12,0:0:0:0:
224,128,144999,1,0,0:0:0:0:
448,64,145184,1,8,0:0:0:0:
224,128,145554,1,0,0:0:0:0:
224,128,145740,1,0,0:0:0:0:
448,64,145925,1,8,0:0:0:0:
224,128,146295,1,0,0:0:0:0:
448,64,146480,1,8,0:0:0:0:
224,128,146666,1,0,0:0:0:0:
448,64,147036,1,8,0:0:0:0:
224,128,147221,1,0,0:0:0:0:
448,64,147406,1,8,0:0:0:0:
448,64,147962,1,8,0:0:0:0:
224,128,148147,1,0,0:0:0:0:
448,64,148517,1,8,0:0:0:0:
224,128,148703,1,0,0:0:0:0:
448,64,149073,1,8,0:0:0:0:
224,128,149258,1,0,0:0:0:0:
448,64,149443,1,8,0:0:0:0:
224,128,149629,1,0,0:0:0:0:
448,64,149999,1,8,0:0:0:0:
224,128,150184,1,0,0:0:0:0:
448,64,150369,1,8,0:0:0:0:
224,128,150925,1,0,0:0:0:0:
448,64,151110,1,8,0:0:0:0:
224,128,151480,1,0,0:0:0:0:
224,128,151666,1,0,0:0:0:0:
224,128,151851,1,0,0:0:0:0:
448,64,152221,1,8,0:0:0:0:
224,128,152406,1,0,0:0:0:0:
448,64,152591,1,8,0:0:0:0:
224,128,152777,1,0,0:0:0:0:
448,64,153332,1,8,0:0:0:0:
224,128,153888,1,0,0:0:0:0:
448,64,154073,1,8,0:0:0:0:
448,64,154443,1,8,0:0:0:0:
224,128,154814,1,0,0:0:0:0:
448,64,154999,1,8,0:0:0:0:
224,128,155184,1,0,0:0:0:0:
224,128,155369,1,0,0:0:0:0:
448,64,155554,1,8,0:0:0:0:
224,128,155740,1,0,0:0:0:0:
448,64,155925,1,8,0:0:0:0:
448,64,156017,1,8,0:0:0:0:
448,64,156110,1,8,0:0:0:0:
64,320,156295,1,4,0:0:0:0:
224,128,156851,1,0,0:0:0:0:
448,64,157036,1,8,0:0:0:0:
224,128,157406,1,0,0:0:0:0:
448,64,157591,1,8,0:0:0:0:
448,64,157962,1,8,0:0:0:0:
224,128,158147,1,0,0:0:0:0:
224,128,158332,1,0,0:0:0:0:
224,128,158425,1,0,0:0:0:0:
224,128,158517,1,0,0:0:0:0:
224,128,158703,1,0,0:0:0:0:
448,64,158888,1,8,0:0:0:0:
448,64,159073,1,8,0:0:0:0:
64,320,159258,1,4,0:0:0:0:
448,64,159814,1,8,0:0:0:0:
448,64,159999,1,8,0:0:0:0:
224,128,160369,1,0,0:0:0:0:
448,64,160554,1,8,0:0:0:0:
448,64,160925,1,8,0:0:0:0:
224,128,161110,1,0,0:0:0:0:
224,128,161295,1,0,0:0:0:0:
224,128,161388,1,0,0:0:0:0:
224,128,161480,1,0,0:0:0:0:
224,128,161666,1,0,0:0:0:0:
448,64,161851,1,8,0:0:0:0:
448,64,161943,1,8,0:0:0:0:
448,64,162036,1,8,0:0:0:0:
448,320,162221,1,12,0:0:0:0:
448,64,162777,1,8,0:0:0:0:
448,64,162962,1,8,0:0:0:0:
448,64,163332,1,8,0:0:0:0:
224,128,163517,1,0,0:0:0:0:
224,128,163888,1,0,0:0:0:0:
448,64,164073,1,8,0:0:0:0:
448,64,164258,1,8,0:0:0:0:
448,64,164351,1,8,0:0:0:0:
448,64,164443,1,8,0:0:0:0:
448,64,164629,1,8,0:0:0:0:
224,128,164814,1,0,0:0:0:0:
224,128,164999,1,0,0:0:0:0:
448,320,165184,1,12,0:0:0:0:
224,128,165740,1,0,0:0:0:0:
448,64,165925,1,8,0:0:0:0:
224,128,166295,1,0,0:0:0:0:
448,64,166480,1,8,0:0:0:0:
448,64,166851,1,8,0:0:0:0:
448,64,166943,1,8,0:0:0:0:
448,64,167036,1,8,0:0:0:0:
448,64,167221,1,0,0:0:0:0:
448,64,167406,1,8,0:0:0:0:
448,64,167499,1,8,0:0:0:0:
448,64,167591,1,8,0:0:0:0:
224,128,167777,1,0,0:0:0:0:
224,128,167869,1,0,0:0:0:0:
224,128,167962,1,0,0:0:0:0:
448,320,168147,1,12,0:0:0:0:
448,64,168703,1,8,0:0:0:0:
224,128,168888,1,0,0:0:0:0:
224,128,169258,1,0,0:0:0:0:
224,128,169443,1,0,0:0:0:0:
448,64,169629,1,8,0:0:0:0:
448,64,169999,1,8,0:0:0:0:
224,128,170184,1,0,0:0:0:0:
448,64,170369,1,8,0:0:0:0:
64,64,170740,1,0,0:0:0:0:
448,64,170925,1,8,0:0:0:0:
224,128,171110,1,0,0:0:0:0:
224,128,171666,1,0,0:0:0:0:
448,64,171851,1,8,0:0:0:0:
448,64,172221,1,8,0:0:0:0:
192,128,172406,1,0,0:0:0:0:
224,128,172777,1,0,0:0:0:0:
448,64,172962,1,8,0:0:0:0:
192,128,173147,1,0,0:0:0:0:
448,64,173332,1,8,0:0:0:0:
224,128,173703,1,0,0:0:0:0:
224,128,173888,1,0,0:0:0:0:
448,64,174073,1,8,0:0:0:0:
224,128,174629,1,0,0:0:0:0:
448,64,174814,1,8,0:0:0:0:
224,128,175369,1,0,0:0:0:0:
448,64,175554,1,8,0:0:0:0:
224,128,175925,1,8,0:0:0:0:
224,128,176110,1,0,0:0:0:0:
224,128,176295,1,8,0:0:0:0:
224,128,176666,1,0,0:0:0:0:
219,134,176851,1,0,0:0:0:0:
224,128,177036,1,8,0:0:0:0:
225,129,177406,1,0,0:0:0:0:
448,64,177591,1,8,0:0:0:0:
224,128,177777,1,0,0:0:0:0:
448,64,178147,1,8,0:0:0:0:
224,128,178332,1,0,0:0:0:0:
224,128,178517,1,0,0:0:0:0:
448,64,178703,1,8,0:0:0:0:
448,64,178795,1,8,0:0:0:0:
448,64,178888,1,8,0:0:0:0:
448,64,179073,1,0,0:0:0:0:
448,64,179258,1,8,0:0:0:0:
224,128,179443,1,0,0:0:0:0:
448,64,179629,1,8,0:0:0:0:
448,64,179721,1,8,0:0:0:0:
448,64,179814,1,8,0:0:0:0:
448,320,179999,1,12,0:0:0:0:
224,160,180554,1,0,0:0:0:0:
448,64,181110,1,8,0:0:0:0:
64,64,181480,1,0,0:0:0:0:
448,64,181851,1,8,0:0:0:0:
448,64,182221,1,8,0:0:0:0:
448,64,182406,1,8,0:0:0:0:
224,160,182591,1,0,0:0:0:0:
224,160,182777,1,0,0:0:0:0:
448,320,182962,1,12,0:0:0:0:
448,64,183517,1,8,0:0:0:0:
224,160,184073,1,0,0:0:0:0:
448,64,184443,1,8,0:0:0:0:
448,64,184814,1,8,0:0:0:0:
224,160,184999,1,0,0:0:0:0:
448,64,185184,1,8,0:0:0:0:
224,160,185369,1,0,0:0:0:0:
448,64,185554,1,8,0:0:0:0:
448,64,185647,1,8,0:0:0:0:
448,64,185740,1,8,0:0:0:0:
64,320,185925,1,4,0:0:0:0:
224,160,186480,1,0,0:0:0:0:
448,64,187036,1,8,0:0:0:0:
448,64,187406,1,8,0:0:0:0:
224,160,187777,1,0,0:0:0:0:
224,160,187869,1,0,0:0:0:0:
64,64,187962,1,0,0:0:0:0:
448,64,188147,1,8,0:0:0:0:
224,160,188332,1,0,0:0:0:0:
448,64,188517,1,8,0:0:0:0:
448,64,188703,1,8,0:0:0:0:
64,320,188888,1,4,0:0:0:0:
224,160,189258,1,0,0:0:0:0:
448,64,189443,1,8,0:0:0:0:
448,64,189814,1,8,0:0:0:0:
448,64,189906,1,8,0:0:0:0:
448,64,189999,1,8,0:0:0:0:
224,160,190184,1,0,0:0:0:0:
224,160,190369,1,0,0:0:0:0:
448,320,190554,1,12,0:0:0:0:
224,160,190925,1,0,0:0:0:0:
448,64,191110,1,8,0:0:0:0:
448,64,191480,1,8,0:0:0:0:
448,64,191666,1,8,0:0:0:0:
