osu file format v14

[General]
AudioFilename: audio.mp3
AudioLeadIn: 0
PreviewTime: 60255
Countdown: 0
SampleSet: Normal
StackLeniency: 0.7
Mode: 1
LetterboxInBreaks: 0
WidescreenStoryboard: 0

[Editor]
DistanceSpacing: 1.9
BeatDivisor: 4
GridSize: 32
TimelineZoom: 1

[Metadata]
Title:2019 Guy
TitleUnicode:2019 Guy
Artist:The Gentle Men
ArtistUnicode:The Gentle Men
Creator:Aljotzi
Version:2019
Source:
Tags:FA Featured Artist ange amge closed hivie cryceptio moistcr1tikal cr1tikal critikal Troy McKubre charlie english rock solstate gentlemen
BeatmapID:3903085
BeatmapSetID:1894031

[Difficulty]
HPDrainRate:5
CircleSize:2
OverallDifficulty:6
ApproachRate:10
SliderMultiplier:1.4
SliderTickRate:1

[Events]
//Background and Video events
0,0,"maxresdefault.jpg",0,100
Video,-550,"output.mp4"
//Break Periods
2,84644,95468
//Storyboard Layer 0 (Background)
//Storyboard Layer 1 (Fail)
//Storyboard Layer 2 (Pass)
//Storyboard Layer 3 (Foreground)
//Storyboard Layer 4 (Overlay)
//Storyboard Sound Samples

[TimingPoints]
742,370.37037037037,4,1,0,50,1,0
742,-100,4,1,0,50,0,0
58519,370.37037037037,6,1,0,50,1,0
60741,370.37037037037,4,1,0,70,1,1
60741,-100,4,1,0,70,0,1
84444,-100,4,1,0,70,0,0
95918,401.33779264214,4,1,0,50,1,8
95918,-92.2839506172841,4,1,0,50,0,0
96319,362.537764350453,4,1,0,50,1,0
96319,-102.160493827161,4,1,0,50,0,0
97769,352.941176470588,4,1,0,50,1,0
97769,-104.938271604938,4,1,0,50,0,0
98474,363.086232980333,4,1,0,50,1,8
98474,-102.006172839506,4,1,0,50,0,0
99200,378.310214375788,4,1,0,50,1,0
99200,-97.9012345679013,4,1,0,50,0,0
100713,368.098159509202,4,1,0,50,1,0
100713,-100.617283950617,4,1,0,50,0,0
101449,346.820809248555,4,1,0,50,1,8
101449,-106.79012345679,4,1,0,50,0,0
101969,433.212996389892,4,1,0,50,1,8
101969,-85.4938271604938,4,1,0,50,0,0
102185,385.232744783307,4,1,0,50,1,0
102185,-96.1419753086419,4,1,0,50,0,0
102955,370.37037037037,4,1,0,50,1,8
102955,-100,4,1,0,50,0,0
103510,433.212996389892,4,1,0,50,1,8
103510,-85.4938271604938,4,1,0,50,0,0
103726,339.943342776204,4,1,0,50,1,0
103726,-108.950617283951,4,1,0,50,0,0
104065,385.852090032154,4,1,0,50,1,8
104065,-95.9876543209877,4,1,0,50,0,0
104836,370.37037037037,4,1,0,50,1,8
104836,-100,4,1,0,50,0,0
105206,370.37037037037,4,1,0,50,1,0
105206,-100,4,1,0,50,0,0
107284,370.37037037037,4,1,0,50,1,8
107284,-100,4,1,0,50,0,0
107469,394.736842105263,4,1,0,50,1,8
107469,-93.8271604938272,4,1,0,50,0,0
108208,370.37037037037,4,1,0,50,1,0
108208,-100,4,1,0,50,0,0
109651,370.37037037037,4,1,0,50,1,0
109651,-100,4,1,0,50,0,0
120000,370.37037037037,4,1,0,50,1,0
120000,-100,4,1,0,50,0,0
130370,370.37037037037,6,1,0,50,1,0
132592,370.37037037037,4,1,0,70,1,1
132592,-100,4,1,0,70,0,1
179999,-100,4,1,0,70,0,0

[HitObjects]
247,189,12223,5,0,0:0:0:0:
247,189,12593,1,8,0:0:0:0:
247,189,12964,1,0,0:0:0:0:
247,189,13149,1,0,0:0:0:0:
247,189,13334,1,8,0:0:0:0:
247,189,13704,1,0,0:0:0:0:
247,189,13890,1,8,0:0:0:0:
247,189,14075,1,0,0:0:0:0:
247,189,14260,1,0,0:0:0:0:
247,189,14445,1,8,0:0:0:0:
247,189,14630,1,0,0:0:0:0:
247,189,14816,1,8,0:0:0:0:
247,189,15186,1,0,0:0:0:0:
247,189,15556,1,8,0:0:0:0:
247,189,15927,1,0,0:0:0:0:
247,189,16112,1,0,0:0:0:0:
247,189,16297,1,8,0:0:0:0:
247,189,16667,1,8,0:0:0:0:
247,189,16853,1,0,0:0:0:0:
247,189,17038,1,8,0:0:0:0:
247,189,17408,1,8,0:0:0:0:
247,189,17593,1,0,0:0:0:0:
247,189,17779,1,8,0:0:0:0:
247,189,17964,1,8,0:0:0:0:
247,189,18149,1,0,0:0:0:0:
247,189,18519,1,8,0:0:0:0:
247,189,18890,1,0,0:0:0:0:
247,189,19075,1,0,0:0:0:0:
247,189,19260,1,8,0:0:0:0:
247,189,19445,1,8,0:0:0:0:
247,189,19630,1,0,0:0:0:0:
247,189,20001,1,8,0:0:0:0:
247,189,20371,1,0,0:0:0:0:
247,189,20556,1,8,0:0:0:0:
247,189,21112,1,0,0:0:0:0:
247,189,21482,1,0,0:0:0:0:
247,189,21853,1,8,0:0:0:0:
247,189,22038,1,0,0:0:0:0:
247,189,22223,1,0,0:0:0:0:
247,189,22408,1,8,0:0:0:0:
247,189,22779,1,0,0:0:0:0:
247,189,22964,1,8,0:0:0:0:
247,189,23149,1,0,0:0:0:0:
247,189,23334,1,0,0:0:0:0:
247,189,23519,1,8,0:0:0:0:
247,189,23612,1,0,0:0:0:0:
247,189,23704,1,0,0:0:0:0:
247,189,23890,1,0,0:0:0:0:
247,189,24075,1,12,0:0:0:0:
247,189,24445,1,4,0:0:0:0:
247,189,24816,1,0,0:0:0:0:
247,189,25001,1,0,0:0:0:0:
247,189,25186,1,8,0:0:0:0:
247,189,25556,1,0,0:0:0:0:
247,189,25741,1,0,0:0:0:0:
247,189,25927,1,8,0:0:0:0:
247,189,26112,1,0,0:0:0:0:
247,189,26297,1,8,0:0:0:0:
247,189,26482,1,8,0:0:0:0:
247,189,26667,1,0,0:0:0:0:
247,189,27038,1,8,0:0:0:0:
247,189,27223,1,0,0:0:0:0:
247,189,27408,1,8,0:0:0:0:
247,189,27779,1,0,0:0:0:0:
247,189,27964,1,0,0:0:0:0:
247,189,28149,1,8,0:0:0:0:
241,224,28519,1,8,0:0:0:0:
241,224,28704,1,0,0:0:0:0:
241,224,28890,1,0,0:0:0:0:
247,189,29075,1,8,0:0:0:0:
247,189,29260,1,0,0:0:0:0:
247,189,29630,1,8,0:0:0:0:
247,189,30001,1,0,0:0:0:0:
247,189,30371,1,8,0:0:0:0:
247,189,30741,1,0,0:0:0:0:
247,189,30927,1,0,0:0:0:0:
247,189,31112,1,8,0:0:0:0:
247,189,31297,1,8,0:0:0:0:
247,189,31482,1,0,0:0:0:0:
247,189,31853,1,8,0:0:0:0:
247,189,32223,1,0,0:0:0:0:
247,189,32408,1,8,0:0:0:0:
247,189,32593,1,8,0:0:0:0:
247,189,32964,1,0,0:0:0:0:
420,26,33334,1,0,0:0:0:0:
247,189,33519,1,0,0:0:0:0:
247,189,33704,1,0,0:0:0:0:
247,189,33890,1,0,0:0:0:0:
247,189,34075,1,8,0:0:0:0:
247,189,34445,1,0,0:0:0:0:
247,189,34630,1,0,0:0:0:0:
247,189,34816,1,8,0:0:0:0:
247,189,35001,1,0,0:0:0:0:
247,189,35186,1,8,0:0:0:0:
247,189,35371,1,8,0:0:0:0:
247,189,35464,1,8,0:0:0:0:
247,189,35556,1,0,0:0:0:0:
247,189,35741,1,0,0:0:0:0:
247,189,35927,1,12,0:0:0:0:
247,189,36297,1,4,0:0:0:0:
247,189,36667,1,0,0:0:0:0:
247,189,37038,1,0,0:0:0:0:
247,189,37408,1,0,0:0:0:0:
247,189,37779,1,0,0:0:0:0:
247,189,38149,1,0,0:0:0:0:
247,189,38519,1,0,0:0:0:0:
247,189,38890,1,0,0:0:0:0:
25,275,39260,1,12,0:0:0:0:
247,189,39630,1,8,0:0:0:0:
247,189,40001,1,8,0:0:0:0:
247,189,40371,1,8,0:0:0:0:
53,264,40741,1,8,0:0:0:0:
236,195,41112,1,8,0:0:0:0:
236,195,41482,1,8,0:0:0:0:
474,202,41853,1,8,0:0:0:0:
236,195,42223,1,4,0:0:0:0:
236,195,42593,1,0,0:0:0:0:
236,195,42964,1,0,0:0:0:0:
236,195,43334,1,0,0:0:0:0:
236,195,43704,1,0,0:0:0:0:
236,195,44075,1,0,0:0:0:0:
236,195,44445,1,0,0:0:0:0:
236,195,44816,1,0,0:0:0:0:
236,195,45186,1,12,0:0:0:0:
236,195,45556,1,0,0:0:0:0:
236,195,45741,1,0,0:0:0:0:
236,195,45927,1,8,0:0:0:0:
236,195,46112,1,0,0:0:0:0:
236,195,46297,1,8,0:0:0:0:
236,195,46482,1,8,0:0:0:0:
236,195,46667,1,0,0:0:0:0:
236,195,46853,1,8,0:0:0:0:
236,195,47038,1,0,0:0:0:0:
236,195,47223,1,0,0:0:0:0:
236,195,47408,1,8,0:0:0:0:
236,195,48149,1,12,0:0:0:0:
236,195,48519,1,0,0:0:0:0:
236,195,48704,1,8,0:0:0:0:
236,195,48890,1,0,0:0:0:0:
236,195,48982,1,0,0:0:0:0:
236,195,49075,1,0,0:0:0:0:
236,195,49260,1,8,0:0:0:0:
236,195,49630,1,0,0:0:0:0:
236,195,49816,1,8,0:0:0:0:
236,195,50001,1,8,0:0:0:0:
236,195,50093,1,8,0:0:0:0:
236,195,50186,1,0,0:0:0:0:
236,195,50371,1,8,0:0:0:0:
236,195,50556,1,8,0:0:0:0:
236,195,50741,1,0,0:0:0:0:
236,195,50834,1,8,0:0:0:0:
236,195,50927,1,0,0:0:0:0:
236,195,51112,1,12,0:0:0:0:
236,195,51482,1,0,0:0:0:0:
236,195,51667,1,8,0:0:0:0:
236,195,51853,1,8,0:0:0:0:
215,250,51945,1,0,0:0:0:0:
236,195,52038,1,0,0:0:0:0:
236,195,52223,1,8,0:0:0:0:
236,195,52593,1,0,0:0:0:0:
236,195,52779,1,8,0:0:0:0:
236,195,52964,1,0,0:0:0:0:
218,251,53056,1,0,0:0:0:0:
236,195,53149,1,0,0:0:0:0:
236,195,53334,1,8,0:0:0:0:
236,195,53519,1,0,0:0:0:0:
236,195,53704,1,8,0:0:0:0:
218,251,53797,1,8,0:0:0:0:
236,195,53890,1,8,0:0:0:0:
125,238,54075,1,4,0:0:0:0:
360,206,54445,1,0,0:0:0:0:
242,221,54630,1,8,0:0:0:0:
123,237,54816,1,0,0:0:0:0:
175,263,54908,1,0,0:0:0:0:
240,222,55001,1,8,0:0:0:0:
130,243,55186,1,8,0:0:0:0:
242,221,55556,1,0,0:0:0:0:
240,222,55741,1,8,0:0:0:0:
240,222,55927,1,8,0:0:0:0:
240,222,56019,1,0,0:0:0:0:
242,221,56112,1,0,0:0:0:0:
242,221,56297,1,8,0:0:0:0:
242,221,56482,1,0,0:0:0:0:
240,222,56667,1,0,0:0:0:0:
240,222,56760,1,0,0:0:0:0:
240,222,56853,1,8,0:0:0:0:
242,221,57038,1,4,0:0:0:0:
242,221,57408,1,8,0:0:0:0:
240,222,57593,1,8,0:0:0:0:
240,222,57779,1,0,0:0:0:0:
240,222,57871,1,0,0:0:0:0:
242,221,57964,1,0,0:0:0:0:
242,221,58149,1,8,0:0:0:0:
240,222,58519,1,8,0:0:0:0:
240,222,58704,1,8,0:0:0:0:
242,221,58890,1,0,0:0:0:0:
242,221,59075,1,8,0:0:0:0:
242,221,59167,1,8,0:0:0:0:
240,222,59260,1,0,0:0:0:0:
240,222,59445,1,0,0:0:0:0:
240,222,59630,1,8,0:0:0:0:
242,221,59816,1,0,0:0:0:0:
242,221,60001,1,8,0:0:0:0:
240,222,60371,1,0,0:0:0:0:
242,221,60741,1,12,0:0:0:0:
240,222,61111,1,0,0:0:0:0:
240,222,61296,1,8,0:0:0:0:
240,222,61389,1,8,0:0:0:0:
242,221,61481,1,8,0:0:0:0:
242,221,61666,1,0,0:0:0:0:
240,222,61852,1,8,0:0:0:0:
240,222,62037,1,8,0:0:0:0:
242,221,62407,1,8,0:0:0:0:
240,222,62592,1,0,0:0:0:0:
240,222,62778,1,0,0:0:0:0:
240,222,62870,1,0,0:0:0:0:
240,222,62963,1,8,0:0:0:0:
240,222,63148,1,8,0:0:0:0:
242,221,63333,1,0,0:0:0:0:
240,222,63518,1,8,0:0:0:0:
240,222,63703,1,4,0:0:0:0:
240,222,64074,1,0,0:0:0:0:
242,221,64259,1,8,0:0:0:0:
242,221,64352,1,8,0:0:0:0:
240,222,64444,1,0,0:0:0:0:
240,222,64629,1,0,0:0:0:0:
240,222,64815,1,8,0:0:0:0:
240,222,65000,1,0,0:0:0:0:
240,222,65370,1,0,0:0:0:0:
240,222,65555,1,8,0:0:0:0:
240,222,65741,1,0,0:0:0:0:
240,222,65833,1,0,0:0:0:0:
240,222,65926,1,8,0:0:0:0:
240,222,66111,1,0,0:0:0:0:
240,222,66296,1,8,0:0:0:0:
240,222,66389,1,8,0:0:0:0:
240,222,66481,1,8,0:0:0:0:
240,222,66666,1,4,0:0:0:0:
240,222,67037,1,0,0:0:0:0:
240,222,67222,1,8,0:0:0:0:
240,222,67315,1,8,0:0:0:0:
240,222,67407,1,8,0:0:0:0:
240,222,67592,1,0,0:0:0:0:
240,222,67778,1,8,0:0:0:0:
240,222,67963,1,0,0:0:0:0:
240,222,68333,1,0,0:0:0:0:
240,222,68518,1,8,0:0:0:0:
240,222,68703,1,0,0:0:0:0:
240,222,68796,1,0,0:0:0:0:
240,222,68889,1,8,0:0:0:0:
240,222,69074,1,8,0:0:0:0:
240,222,69259,1,0,0:0:0:0:
240,222,69444,1,0,0:0:0:0:
240,222,69629,1,12,0:0:0:0:
240,222,70000,1,0,0:0:0:0:
240,222,70185,1,0,0:0:0:0:
240,222,70278,1,0,0:0:0:0:
240,222,70370,1,8,0:0:0:0:
240,222,70555,1,0,0:0:0:0:
240,222,70740,1,8,0:0:0:0:
240,222,70926,1,8,0:0:0:0:
240,222,71111,1,0,0:0:0:0:
240,222,71296,1,8,0:0:0:0:
240,222,71389,1,8,0:0:0:0:
240,222,71481,1,0,0:0:0:0:
240,222,71666,1,8,0:0:0:0:
240,222,71852,1,8,0:0:0:0:
240,222,71944,1,0,0:0:0:0:
240,222,72037,1,0,0:0:0:0:
240,222,72222,1,8,0:0:0:0:
240,222,72315,1,8,0:0:0:0:
240,222,72407,1,0,0:0:0:0:
240,222,72500,1,0,0:0:0:0:
240,222,72592,1,12,0:0:0:0:
240,222,72963,1,0,0:0:0:0:
240,222,73148,1,0,0:0:0:0:
240,222,73333,1,8,0:0:0:0:
240,222,73518,1,0,0:0:0:0:
240,222,73703,1,8,0:0:0:0:
240,222,74074,1,0,0:0:0:0:
240,222,74444,1,0,0:0:0:0:
240,222,74629,1,0,0:0:0:0:
240,222,74815,1,8,0:0:0:0:
240,222,75000,1,0,0:0:0:0:
240,222,75185,1,8,0:0:0:0:
240,222,75370,1,8,0:0:0:0:
240,222,75555,1,0,0:0:0:0:
240,222,75926,1,8,0:0:0:0:
240,222,76111,1,0,0:0:0:0:
240,222,76296,1,8,0:0:0:0:
240,222,76666,1,0,0:0:0:0:
358,240,76852,1,8,0:0:0:0:
358,240,77037,1,0,0:0:0:0:
358,236,77222,1,8,0:0:0:0:
358,236,77407,1,0,0:0:0:0:
357,234,77592,1,0,0:0:0:0:
355,242,77778,1,8,0:0:0:0:
353,244,77963,1,0,0:0:0:0:
411,256,78148,1,8,0:0:0:0:
295,228,78333,1,8,0:0:0:0:
410,256,78518,1,0,0:0:0:0:
353,244,78889,1,0,0:0:0:0:
353,244,79074,1,0,0:0:0:0:
353,244,79259,1,8,0:0:0:0:
353,244,79629,1,0,0:0:0:0:
353,244,79815,1,8,0:0:0:0:
353,244,80000,1,0,0:0:0:0:
353,244,80370,1,8,0:0:0:0:
353,244,80555,1,0,0:0:0:0:
353,244,80740,1,8,0:0:0:0:
353,244,81111,1,8,0:0:0:0:
353,244,81296,1,8,0:0:0:0:
353,244,81481,1,0,0:0:0:0:
353,244,81666,1,8,0:0:0:0:
353,244,81852,1,0,0:0:0:0:
353,244,82037,1,0,0:0:0:0:
353,244,82222,1,8,0:0:0:0:
353,244,82407,1,0,0:0:0:0:
353,244,82592,1,8,0:0:0:0:
353,244,82778,1,8,0:0:0:0:
353,244,82963,1,0,0:0:0:0:
353,244,83148,1,8,0:0:0:0:
353,244,83240,1,8,0:0:0:0:
353,244,83333,1,0,0:0:0:0:
353,244,83518,1,8,0:0:0:0:
353,244,83703,1,8,0:0:0:0:
353,244,83796,1,8,0:0:0:0:
353,244,83889,1,0,0:0:0:0:
353,244,84074,1,8,0:0:0:0:
353,244,84166,1,0,0:0:0:0:
353,244,84259,1,0,0:0:0:0:
353,244,84352,1,0,0:0:0:0:
353,244,84444,1,8,0:0:0:0:
252,198,95918,5,0,0:0:0:0:
252,198,96319,1,8,0:0:0:0:
252,198,96681,1,0,0:0:0:0:
252,198,96862,1,0,0:0:0:0:
252,198,97044,1,8,0:0:0:0:
252,198,97406,1,8,0:0:0:0:
252,198,97587,1,0,0:0:0:0:
252,198,97769,1,8,0:0:0:0:
252,198,97945,1,8,0:0:0:0:
252,198,98121,1,0,0:0:0:0:
252,198,98298,1,0,0:0:0:0:
252,198,98474,1,8,0:0:0:0:
252,198,98837,1,0,0:0:0:0:
252,198,99200,1,8,0:0:0:0:
252,198,99578,1,8,0:0:0:0:
252,198,99767,1,0,0:0:0:0:
252,198,99956,1,8,0:0:0:0:
252,198,100334,1,0,0:0:0:0:
252,198,100524,1,8,0:0:0:0:
252,198,100713,1,0,0:0:0:0:
252,198,101081,1,8,0:0:0:0:
252,198,101449,1,0,0:0:0:0:
252,198,101622,1,8,0:0:0:0:
252,198,101795,1,0,0:0:0:0:
252,198,102185,1,8,0:0:0:0:
252,198,102570,1,0,0:0:0:0:
252,198,102762,1,8,0:0:0:0:
252,198,102955,1,8,0:0:0:0:
252,198,103325,1,8,0:0:0:0:
252,198,103726,1,8,0:0:0:0:
252,198,104065,1,0,0:0:0:0:
252,198,104257,1,8,0:0:0:0:
252,198,104836,1,8,0:0:0:0:
252,198,105206,1,0,0:0:0:0:
252,198,105576,1,8,0:0:0:0:
252,198,105761,1,0,0:0:0:0:
252,198,105947,1,0,0:0:0:0:
252,198,106132,1,8,0:0:0:0:
252,198,106502,1,0,0:0:0:0:
252,198,106687,1,8,0:0:0:0:
252,198,106873,1,8,0:0:0:0:
252,198,107058,1,0,0:0:0:0:
252,198,107469,1,0,0:0:0:0:
252,198,107666,1,0,0:0:0:0:
252,198,107863,1,8,0:0:0:0:
252,198,108208,1,8,0:0:0:0:
252,198,108578,1,8,0:0:0:0:
252,198,108763,1,0,0:0:0:0:
252,198,108948,1,8,0:0:0:0:
252,198,109319,1,8,0:0:0:0:
252,198,109651,1,0,0:0:0:0:
252,198,110021,1,0,0:0:0:0:
252,198,110206,1,8,0:0:0:0:
252,198,110391,1,0,0:0:0:0:
252,198,110762,1,0,0:0:0:0:
252,198,111132,1,8,0:0:0:0:
252,198,111502,1,0,0:0:0:0:
252,198,111688,1,8,0:0:0:0:
252,198,111873,1,8,0:0:0:0:
252,198,112243,1,0,0:0:0:0:
252,198,112428,1,0,0:0:0:0:
252,198,112613,1,8,0:0:0:0:
252,198,112984,1,8,0:0:0:0:
252,198,113169,1,0,0:0:0:0:
252,198,113354,1,8,0:0:0:0:
252,198,113539,1,8,0:0:0:0:
252,198,113725,1,0,0:0:0:0:
252,198,114095,1,8,0:0:0:0:
252,198,114465,1,0,0:0:0:0:
252,198,114651,1,0,0:0:0:0:
252,198,114836,1,8,0:0:0:0:
252,198,115021,1,8,0:0:0:0:
252,198,115206,1,0,0:0:0:0:
252,198,115391,1,0,0:0:0:0:
252,198,115576,1,8,0:0:0:0:
252,198,115947,1,0,0:0:0:0:
252,198,116132,1,8,0:0:0:0:
252,198,116502,1,8,0:0:0:0:
252,198,116688,1,0,0:0:0:0:
243,235,117058,1,0,0:0:0:0:
252,198,117428,1,8,0:0:0:0:
243,235,117613,1,8,0:0:0:0:
243,235,117799,1,0,0:0:0:0:
243,235,117984,1,8,0:0:0:0:
243,235,118354,1,0,0:0:0:0:
243,235,118539,1,8,0:0:0:0:
243,235,120000,1,12,0:0:0:0:
243,235,120370,1,0,0:0:0:0:
243,235,120555,1,8,0:0:0:0:
243,235,120740,1,0,0:0:0:0:
243,235,120833,1,0,0:0:0:0:
243,235,120926,1,8,0:0:0:0:
243,235,121111,1,8,0:0:0:0:
243,235,121481,1,8,0:0:0:0:
243,235,121666,1,0,0:0:0:0:
243,235,121759,1,0,0:0:0:0:
243,235,121852,1,8,0:0:0:0:
243,235,121944,1,0,0:0:0:0:
243,235,122037,1,8,0:0:0:0:
243,235,122222,1,8,0:0:0:0:
243,235,122407,1,0,0:0:0:0:
243,235,122592,1,8,0:0:0:0:
243,235,122685,1,8,0:0:0:0:
243,235,122778,1,0,0:0:0:0:
243,235,122963,1,12,0:0:0:0:
243,235,123333,1,8,0:0:0:0:
243,235,123518,1,0,0:0:0:0:
243,235,123703,1,8,0:0:0:0:
243,235,123796,1,0,0:0:0:0:
243,235,123889,1,8,0:0:0:0:
243,235,124074,1,8,0:0:0:0:
243,235,124444,1,0,0:0:0:0:
243,235,124629,1,8,0:0:0:0:
243,235,124722,1,8,0:0:0:0:
243,235,124815,1,0,0:0:0:0:
243,235,124907,1,0,0:0:0:0:
243,235,125000,1,8,0:0:0:0:
243,235,125185,1,8,0:0:0:0:
243,235,125370,1,0,0:0:0:0:
243,235,125555,1,8,0:0:0:0:
243,235,125648,1,0,0:0:0:0:
243,235,125740,1,0,0:0:0:0:
243,235,125926,1,12,0:0:0:0:
243,235,126296,1,0,0:0:0:0:
243,235,126481,1,8,0:0:0:0:
243,235,126666,1,0,0:0:0:0:
243,235,126759,1,8,0:0:0:0:
243,235,126852,1,0,0:0:0:0:
243,235,127037,1,8,0:0:0:0:
243,235,127407,1,8,0:0:0:0:
243,235,127592,1,0,0:0:0:0:
243,235,127685,1,0,0:0:0:0:
243,235,127778,1,8,0:0:0:0:
243,235,127870,1,8,0:0:0:0:
243,235,127963,1,0,0:0:0:0:
243,235,128148,1,8,0:0:0:0:
243,235,128333,1,0,0:0:0:0:
243,235,128518,1,0,0:0:0:0:
243,235,128611,1,0,0:0:0:0:
243,235,128703,1,8,0:0:0:0:
243,235,128889,1,12,0:0:0:0:
243,235,129259,1,8,0:0:0:0:
243,235,129444,1,0,0:0:0:0:
243,235,129629,1,8,0:0:0:0:
243,235,129722,1,0,0:0:0:0:
243,235,129815,1,0,0:0:0:0:
243,235,130000,1,8,0:0:0:0:
243,235,130370,1,0,0:0:0:0:
243,235,130555,1,0,0:0:0:0:
243,235,130648,1,0,0:0:0:0:
243,235,130740,1,8,0:0:0:0:
243,235,130926,1,8,0:0:0:0:
243,235,131018,1,0,0:0:0:0:
243,235,131111,1,0,0:0:0:0:
243,235,131296,1,0,0:0:0:0:
243,235,131481,1,8,0:0:0:0:
243,235,131666,1,0,0:0:0:0:
243,235,131852,1,8,0:0:0:0:
243,235,132222,1,0,0:0:0:0:
243,235,132592,1,12,0:0:0:0:
243,235,132962,1,0,0:0:0:0:
243,235,133147,1,8,0:0:0:0:
243,235,133240,1,0,0:0:0:0:
243,235,133332,1,8,0:0:0:0:
243,235,133517,1,8,0:0:0:0:
243,235,133703,1,0,0:0:0:0:
243,235,133888,1,8,0:0:0:0:
243,235,134258,1,0,0:0:0:0:
243,235,134443,1,8,0:0:0:0:
243,235,134629,1,0,0:0:0:0:
243,235,134721,1,0,0:0:0:0:
243,235,134814,1,8,0:0:0:0:
243,235,134999,1,0,0:0:0:0:
243,235,135184,1,8,0:0:0:0:
243,235,135369,1,8,0:0:0:0:
243,235,135554,1,4,0:0:0:0:
243,235,135925,1,8,0:0:0:0:
243,235,136110,1,0,0:0:0:0:
243,235,136203,1,0,0:0:0:0:
243,235,136295,1,0,0:0:0:0:
243,235,136480,1,8,0:0:0:0:
243,235,136666,1,8,0:0:0:0:
243,235,136851,1,0,0:0:0:0:
243,235,137221,1,0,0:0:0:0:
243,235,137406,1,8,0:0:0:0:
243,235,137592,1,8,0:0:0:0:
243,235,137684,1,8,0:0:0:0:
243,235,137777,1,8,0:0:0:0:
243,235,137962,1,0,0:0:0:0:
243,235,138147,1,8,0:0:0:0:
243,235,138240,1,8,0:0:0:0:
243,235,138332,1,0,0:0:0:0:
243,235,138517,1,12,0:0:0:0:
243,235,138888,1,0,0:0:0:0:
243,235,139073,1,8,0:0:0:0:
243,235,139166,1,0,0:0:0:0:
243,235,139258,1,8,0:0:0:0:
243,235,139443,1,0,0:0:0:0:
243,235,139629,1,0,0:0:0:0:
243,235,139814,1,8,0:0:0:0:
243,235,140184,1,0,0:0:0:0:
243,235,140369,1,8,0:0:0:0:
243,235,140554,1,8,0:0:0:0:
243,235,140647,1,0,0:0:0:0:
243,235,140740,1,0,0:0:0:0:
243,235,140925,1,8,0:0:0:0:
243,235,141110,1,8,0:0:0:0:
243,235,141203,1,8,0:0:0:0:
243,235,141295,1,8,0:0:0:0:
243,235,141480,1,4,0:0:0:0:
243,235,141851,1,8,0:0:0:0:
243,235,142036,1,0,0:0:0:0:
243,235,142129,1,8,0:0:0:0:
243,235,142221,1,8,0:0:0:0:
243,235,142406,1,8,0:0:0:0:
243,235,142592,1,0,0:0:0:0:
243,235,142777,1,8,0:0:0:0:
243,235,142962,1,0,0:0:0:0:
243,235,143147,1,8,0:0:0:0:
243,235,143240,1,8,0:0:0:0:
243,235,143332,1,0,0:0:0:0:
243,235,143517,1,8,0:0:0:0:
243,235,143703,1,8,0:0:0:0:
243,235,143795,1,0,0:0:0:0:
243,235,143888,1,0,0:0:0:0:
243,235,144073,1,8,0:0:0:0:
243,235,144166,1,8,0:0:0:0:
243,235,144258,1,0,0:0:0:0:
243,235,144351,1,0,0:0:0:0:
243,235,144443,1,12,0:0:0:0:
243,235,144814,1,8,0:0:0:0:
243,235,144999,1,0,0:0:0:0:
243,235,145184,1,8,0:0:0:0:
243,235,145369,1,8,0:0:0:0:
243,235,145554,1,0,0:0:0:0:
243,235,145740,1,0,0:0:0:0:
243,235,145925,1,8,0:0:0:0:
243,235,146295,1,0,0:0:0:0:
243,235,146480,1,8,0:0:0:0:
243,235,146666,1,0,0:0:0:0:
243,235,146851,1,0,0:0:0:0:
243,235,147036,1,8,0:0:0:0:
243,235,147221,1,0,0:0:0:0:
243,235,147406,1,8,0:0:0:0:
243,235,147777,1,8,0:0:0:0:
243,235,147962,1,8,0:0:0:0:
243,235,148147,1,0,0:0:0:0:
243,235,148332,1,0,0:0:0:0:
243,235,148517,1,8,0:0:0:0:
243,235,148703,1,0,0:0:0:0:
243,235,148888,1,8,0:0:0:0:
243,235,149073,1,8,0:0:0:0:
243,235,149258,1,0,0:0:0:0:
243,235,149443,1,8,0:0:0:0:
243,235,149629,1,0,0:0:0:0:
243,235,149814,1,0,0:0:0:0:
243,235,149999,1,8,0:0:0:0:
243,235,150184,1,0,0:0:0:0:
243,235,150369,1,8,0:0:0:0:
243,235,150740,1,0,0:0:0:0:
243,235,150925,1,0,0:0:0:0:
243,235,151110,1,8,0:0:0:0:
243,235,151480,1,0,0:0:0:0:
243,235,151666,1,8,0:0:0:0:
243,235,151851,1,0,0:0:0:0:
243,235,152221,1,8,0:0:0:0:
243,235,152406,1,0,0:0:0:0:
243,235,152591,1,8,0:0:0:0:
243,235,152777,1,0,0:0:0:0:
243,235,153147,1,0,0:0:0:0:
243,235,153332,1,8,0:0:0:0:
243,235,153517,1,8,0:0:0:0:
243,235,153703,1,0,0:0:0:0:
243,235,153888,1,0,0:0:0:0:
243,235,154073,1,8,0:0:0:0:
243,235,154258,1,0,0:0:0:0:
243,235,154443,1,8,0:0:0:0:
243,235,154629,1,8,0:0:0:0:
243,235,154814,1,0,0:0:0:0:
243,235,154999,1,8,0:0:0:0:
243,235,155184,1,0,0:0:0:0:
243,235,155369,1,0,0:0:0:0:
243,235,155554,1,8,0:0:0:0:
243,235,155740,1,0,0:0:0:0:
243,235,155925,1,8,0:0:0:0:
243,235,156017,1,8,0:0:0:0:
243,235,156110,1,8,0:0:0:0:
243,235,156203,1,8,0:0:0:0:
243,235,156295,1,4,0:0:0:0:
243,235,156666,1,8,0:0:0:0:
243,235,156851,1,0,0:0:0:0:
243,235,156943,1,0,0:0:0:0:
243,235,157036,1,8,0:0:0:0:
243,235,157221,1,8,0:0:0:0:
243,235,157406,1,0,0:0:0:0:
243,235,157591,1,8,0:0:0:0:
243,235,157962,1,8,0:0:0:0:
243,235,158147,1,0,0:0:0:0:
243,235,158332,1,0,0:0:0:0:
243,235,158425,1,0,0:0:0:0:
243,235,158517,1,8,0:0:0:0:
243,235,158703,1,0,0:0:0:0:
243,235,158888,1,8,0:0:0:0:
243,235,159073,1,8,0:0:0:0:
243,235,159258,1,4,0:0:0:0:
243,235,159629,1,8,0:0:0:0:
243,235,159814,1,8,0:0:0:0:
243,235,159906,1,0,0:0:0:0:
243,235,159999,1,8,0:0:0:0:
243,235,160184,1,8,0:0:0:0:
243,235,160369,1,0,0:0:0:0:
243,235,160554,1,8,0:0:0:0:
243,235,160925,1,8,0:0:0:0:
243,235,161110,1,0,0:0:0:0:
243,235,161295,1,0,0:0:0:0:
243,235,161388,1,8,0:0:0:0:
243,235,161480,1,0,0:0:0:0:
243,235,161666,1,0,0:0:0:0:
243,235,161851,1,8,0:0:0:0:
243,235,161943,1,8,0:0:0:0:
243,235,162036,1,0,0:0:0:0:
243,235,162221,1,12,0:0:0:0:
243,235,162591,1,0,0:0:0:0:
243,235,162777,1,8,0:0:0:0:
243,235,162869,1,8,0:0:0:0:
243,235,162962,1,8,0:0:0:0:
243,235,163147,1,0,0:0:0:0:
243,235,163332,1,8,0:0:0:0:
243,235,163517,1,0,0:0:0:0:
243,235,163888,1,0,0:0:0:0:
243,235,164073,1,8,0:0:0:0:
243,235,164258,1,8,0:0:0:0:
243,235,164351,1,0,0:0:0:0:
243,235,164443,1,8,0:0:0:0:
243,235,164629,1,8,0:0:0:0:
243,235,164814,1,0,0:0:0:0:
243,235,164999,1,0,0:0:0:0:
243,235,165184,1,12,0:0:0:0:
243,235,165554,1,0,0:0:0:0:
243,235,165740,1,0,0:0:0:0:
243,235,165832,1,0,0:0:0:0:
243,235,165925,1,8,0:0:0:0:
243,235,166110,1,8,0:0:0:0:
243,235,166295,1,0,0:0:0:0:
243,235,166480,1,8,0:0:0:0:
243,235,166666,1,0,0:0:0:0:
243,235,166851,1,8,0:0:0:0:
243,235,166943,1,8,0:0:0:0:
243,235,167036,1,0,0:0:0:0:
243,235,167221,1,8,0:0:0:0:
243,235,167406,1,8,0:0:0:0:
243,235,167499,1,8,0:0:0:0:
243,235,167591,1,0,0:0:0:0:
243,235,167777,1,8,0:0:0:0:
243,235,167869,1,0,0:0:0:0:
243,235,167962,1,0,0:0:0:0:
243,235,168054,1,0,0:0:0:0:
243,235,168147,1,12,0:0:0:0:
243,235,168517,1,0,0:0:0:0:
243,235,168703,1,8,0:0:0:0:
243,235,168888,1,0,0:0:0:0:
243,235,169073,1,8,0:0:0:0:
243,235,169258,1,0,0:0:0:0:
243,235,169629,1,8,0:0:0:0:
243,235,169999,1,8,0:0:0:0:
243,235,170184,1,0,0:0:0:0:
243,235,170369,1,8,0:0:0:0:
243,235,170554,1,8,0:0:0:0:
243,235,170740,1,0,0:0:0:0:
243,235,170925,1,8,0:0:0:0:
243,235,171110,1,0,0:0:0:0:
243,235,171480,1,0,0:0:0:0:
243,235,171666,1,0,0:0:0:0:
243,235,171851,1,8,0:0:0:0:
243,235,172221,1,8,0:0:0:0:
243,235,172406,1,8,0:0:0:0:
243,235,172591,1,0,0:0:0:0:
243,235,172777,1,0,0:0:0:0:
243,235,172962,1,8,0:0:0:0:
243,235,173147,1,0,0:0:0:0:
243,235,173332,1,8,0:0:0:0:
243,235,173517,1,8,0:0:0:0:
243,235,173703,1,0,0:0:0:0:
243,235,173888,1,0,0:0:0:0:
243,235,174073,1,8,0:0:0:0:
243,235,174443,1,0,0:0:0:0:
243,235,174629,1,0,0:0:0:0:
243,235,174814,1,8,0:0:0:0:
243,235,175184,1,8,0:0:0:0:
243,235,175369,1,0,0:0:0:0:
243,235,175554,1,8,0:0:0:0:
243,235,175925,1,8,0:0:0:0:
243,235,176110,1,8,0:0:0:0:
243,235,176295,1,0,0:0:0:0:
243,235,176666,1,0,0:0:0:0:
243,235,176851,1,8,0:0:0:0:
243,235,177036,1,0,0:0:0:0:
243,235,177221,1,0,0:0:0:0:
243,235,177406,1,8,0:0:0:0:
243,235,177591,1,8,0:0:0:0:
243,235,177777,1,0,0:0:0:0:
243,235,177962,1,8,0:0:0:0:
243,235,178147,1,8,0:0:0:0:
243,235,178332,1,0,0:0:0:0:
243,235,178517,1,0,0:0:0:0:
243,235,178703,1,8,0:0:0:0:
243,235,178795,1,8,0:0:0:0:
243,235,178888,1,0,0:0:0:0:
243,235,179073,1,8,0:0:0:0:
243,235,179258,1,8,0:0:0:0:
243,235,179443,1,0,0:0:0:0:
243,235,179536,1,0,0:0:0:0:
243,235,179629,1,8,0:0:0:0:
243,235,179721,1,8,0:0:0:0:
243,235,179814,1,0,0:0:0:0:
243,235,179999,1,12,0:0:0:0:
243,235,180369,1,8,0:0:0:0:
243,235,180554,1,0,0:0:0:0:
243,235,180925,1,0,0:0:0:0:
243,235,181110,1,8,0:0:0:0:
243,235,181295,1,8,0:0:0:0:
243,235,181480,1,0,0:0:0:0:
243,235,181666,1,0,0:0:0:0:
243,235,181758,1,0,0:0:0:0:
243,235,181851,1,8,0:0:0:0:
243,235,181943,1,8,0:0:0:0:
243,235,182036,1,0,0:0:0:0:
243,235,182221,1,8,0:0:0:0:
243,235,182406,1,8,0:0:0:0:
243,235,182591,1,0,0:0:0:0:
243,235,182777,1,0,0:0:0:0:
243,235,182962,1,12,0:0:0:0:
243,235,183332,1,0,0:0:0:0:
243,235,183517,1,8,0:0:0:0:
243,235,183888,1,8,0:0:0:0:
243,235,184073,1,0,0:0:0:0:
243,235,184258,1,0,0:0:0:0:
243,235,184443,1,8,0:0:0:0:
243,235,184629,1,8,0:0:0:0:
243,235,184721,1,0,0:0:0:0:
243,235,184814,1,8,0:0:0:0:
243,235,184906,1,8,0:0:0:0:
243,235,184999,1,0,0:0:0:0:
243,235,185184,1,8,0:0:0:0:
243,235,185369,1,0,0:0:0:0:
243,235,185554,1,8,0:0:0:0:
243,235,185647,1,0,0:0:0:0:
243,235,185740,1,8,0:0:0:0:
243,235,185925,1,4,0:0:0:0:
243,235,186295,1,8,0:0:0:0:
243,235,186480,1,0,0:0:0:0:
243,235,186851,1,0,0:0:0:0:
243,235,187036,1,8,0:0:0:0:
243,235,187221,1,0,0:0:0:0:
243,235,187406,1,8,0:0:0:0:
243,235,187591,1,8,0:0:0:0:
243,235,187684,1,8,0:0:0:0:
243,235,187777,1,0,0:0:0:0:
243,235,187869,1,8,0:0:0:0:
243,235,187962,1,0,0:0:0:0:
243,235,188147,1,8,0:0:0:0:
243,235,188332,1,0,0:0:0:0:
243,235,188517,1,8,0:0:0:0:
243,235,188703,1,8,0:0:0:0:
243,235,188888,1,4,0:0:0:0:
209,244,189258,1,0,0:0:0:0:
209,244,189443,1,8,0:0:0:0:
209,244,189814,5,8,0:0:0:0:
209,244,189906,1,8,0:0:0:0:
209,244,189999,1,8,0:0:0:0:
209,244,190184,1,0,0:0:0:0:
209,244,190369,1,0,0:0:0:0:
209,244,190554,1,12,0:0:0:0:
209,244,190925,1,0,0:0:0:0:
209,244,191110,1,8,0:0:0:0:
209,244,191295,1,0,0:0:0:0:
209,244,191480,1,8,0:0:0:0:
209,244,191666,1,8,0:0:0:0:
