osu file format v14

[General]
AudioFilename: audio.mp3
AudioLeadIn: 0
PreviewTime: 648
Countdown: 0
SampleSet: Soft
StackLeniency: 0.7
Mode: 0
LetterboxInBreaks: 0
WidescreenStoryboard: 1

[Editor]
DistanceSpacing: 1
BeatDivisor: 4
GridSize: 4
TimelineZoom: 2.7

[Metadata]
Title:2019 Guy
TitleUnicode:2019 Guy
Artist:The Gentle Men
ArtistUnicode:The Gentle Men
Creator:-Keitaro
Version:Normal
Source:
Tags:cr1tikal Troy McKubre charlie english rock solstate
BeatmapID:2261133
BeatmapSetID:1080671

[Difficulty]
HPDrainRate:4
CircleSize:3
OverallDifficulty:4
ApproachRate:5
SliderMultiplier:1.2
SliderTickRate:1

[Events]
//Background and Video events
0,0,"maxresdefault.jpg",0,0
Video,-476,"2019.mp4"
//Break Periods
2,84643,94694
//Storyboard Layer 0 (Background)
//Storyboard Layer 1 (Fail)
//Storyboard Layer 2 (Pass)
//Storyboard Layer 3 (Foreground)
//Storyboard Layer 4 (Overlay)
//Storyboard Sound Samples

[TimingPoints]
741,370.37037037037,4,2,1,50,1,0
12592,-111.111111111111,4,2,1,50,0,0
24444,-100,4,2,1,60,0,0
36296,-111.111111111111,4,2,1,45,0,0
48148,-100,4,2,1,55,0,0
60740,370.37037037037,4,2,1,70,1,1
84443,-100,4,2,1,50,0,0
95894,401.33779264214,4,2,1,50,1,0
95925,-111.111111111111,4,2,1,50,0,0
96295,362.537764350453,4,2,1,50,1,0
96295,-111.111111111111,4,2,1,50,0,0
97745,352.941176470588,4,2,1,50,1,0
97745,-111.111111111111,4,2,1,50,0,0
98450,363.086232980333,4,2,1,50,1,0
98450,-111.111111111111,4,2,1,50,0,0
99176,378.310214375788,4,2,1,50,1,0
99176,-111.111111111111,4,2,1,50,0,0
100689,368.098159509202,4,2,1,50,1,0
100689,-111.111111111111,4,2,1,50,0,0
101425,346.820809248555,4,2,1,50,1,0
101425,-111.111111111111,4,2,1,50,0,0
101945,433.212996389892,4,2,1,50,1,0
102161,385.232744783307,4,2,1,50,1,0
102161,-111.111111111111,4,2,1,50,0,0
102931,370.37037037037,4,2,1,50,1,0
102931,-111.111111111111,4,2,1,50,0,0
103486,433.212996389892,4,2,1,50,1,0
103702,339.943342776204,4,2,1,50,1,0
103702,-111.111111111111,4,2,1,50,0,0
104041,385.852090032154,4,2,1,50,1,0
104233,-111.111111111111,4,2,1,50,0,0
104812,370.37037037037,4,2,1,50,1,0
107260,370.37037037037,4,2,1,50,1,0
107445,394.736842105263,4,2,1,50,1,0
107445,-111.111111111111,4,2,1,50,0,0
108184,370.37037037037,4,2,1,50,1,0
108184,-111.111111111111,4,2,1,50,0,0
109627,370.37037037037,4,2,1,50,1,0
109627,-111.111111111111,4,2,1,50,0,0
119997,-100,4,2,1,55,0,0
132591,370.37037037037,4,2,1,70,1,1
179998,-100,4,2,1,55,0,0

[Colours]
Combo1 : 134,134,134
Combo2 : 0,128,255
Combo3 : 16,160,216
Combo4 : 182,182,182

[HitObjects]
38,45,12222,5,2,0:2:0:0:
142,18,12592,2,0,L|127:140,1,107.999996704102,2|0,0:2|0:0,0:0:0:0:
217,186,13333,2,0,L|230:78,1,107.999996704102,2|0,0:2|0:0,0:0:0:0:
322,22,14074,2,0,P|367:20|424:70,1,107.999996704102,2|2,0:2|0:2,0:0:0:0:
440,103,14629,1,2,0:2:0:0:
440,103,14815,2,0,L|430:226,1,107.999996704102,2|2,0:2|0:2,0:0:0:0:
451,316,15555,6,0,P|394:304|333:322,1,107.999996704102,2|0,0:2|0:0,0:0:0:0:
257,253,16296,2,0,P|206:284|173:338,1,107.999996704102,2|0,0:2|0:0,0:0:0:0:
76,357,17037,2,0,P|89:293|79:242,1,107.999996704102,2|2,0:2|0:2,0:0:0:0:
84,143,17778,2,0,L|31:155,2,53.9999983520508,2|2|2,0:2|0:2|0:2,0:0:0:0:
142,52,18518,6,0,L|263:66,1,107.999996704102,2|0,0:2|0:0,0:0:0:0:
346,15,19259,2,0,L|446:57,1,107.999996704102,2|2,0:2|0:2,0:0:0:0:
487,156,20000,2,0,P|489:229|452:265,1,107.999996704102,2|2,0:2|0:2,0:0:0:0:
467,307,20555,2,0,P|419:271|300:267,1,161.999995056153,2|2,0:2|0:2,0:0:0:0:
69,267,23518,1,8,0:2:0:0:
23,296,23703,2,0,L|29:361,2,53.9999983520508,10|2|10,0:2|1:2|0:2,0:0:0:0:
13,176,24444,6,0,P|57:149|143:172,1,120,2|0,1:2|0:0,0:0:0:0:
171,191,25000,1,0,1:2:0:0:
171,191,25185,2,0,L|161:57,1,120,10|0,0:2|0:0,0:0:0:0:
270,18,25926,2,0,L|263:88,2,60,2|2|2,0:0|0:0|1:2,0:0:0:0:
389,28,26666,1,10,0:2:0:0:
375,147,27037,2,0,L|368:216,1,60,2|2,1:2|0:0,0:0:0:0:
385,264,27407,6,0,P|320:237|267:256,1,120,2|0,1:2|0:0,0:0:0:0:
163,294,28148,2,0,P|191:230|165:176,1,120,10|0,0:2|0:0,0:0:0:0:
97,93,28889,2,0,L|33:101,2,60,2|2|2,0:0|0:0|1:2,0:0:0:0:
195,24,29629,2,0,L|322:29,1,120,10|2,0:2|1:2,0:0:0:0:
374,37,30185,1,0,0:0:0:0:
374,37,30370,6,0,P|339:97|358:145,1,120,2|0,1:2|0:0,0:0:0:0:
460,197,31111,1,10,0:2:0:0:
440,315,31481,1,2,1:2:0:0:
324,282,31852,2,0,P|267:284|228:340,1,120,2|2,1:2|1:2,0:0:0:0:
261,381,32407,1,2,1:2:0:0:
81,367,32963,6,0,P|104:294|85:178,1,180,2|0,1:2|0:0,0:0:0:0:
48,150,33703,1,0,1:2:0:0:
3,38,34074,2,0,L|131:51,1,120,8|0,0:2|0:0,0:0:0:0:
181,58,34629,1,0,1:2:0:0:
181,58,34815,1,0,0:0:0:0:
263,145,35185,2,0,L|337:134,1,60,0|8,1:2|0:2,0:0:0:0:
381,125,35555,1,8,0:2:0:0:
497,99,35926,1,8,0:2:0:0:
414,28,36296,6,0,B|24:69|24:69|37:337,1,647.99998022461,4|0,3:2|3:0,0:0:0:0:
131,273,38889,1,0,3:0:0:0:
121,380,39259,6,0,B|511:339|511:339|498:71,1,647.99998022461,4|0,3:2|3:0,0:0:0:0:
393,58,41852,1,0,3:2:0:0:
286,43,42222,6,0,L|298:167,1,107.999996704102,4|0,3:2|3:2,0:0:0:0:
401,174,42963,2,0,L|390:290,1,107.999996704102,0|0,3:2|3:2,0:0:0:0:
302,343,43703,2,0,P|222:342|194:310,1,107.999996704102,0|0,3:2|3:2,0:0:0:0:
124,253,44444,1,0,3:2:0:0:
155,151,44815,2,0,L|228:156,1,53.9999983520508,0|0,3:2|0:0,0:0:0:0:
251,187,45185,6,0,L|375:182,1,107.999996704102,4|0,3:2|3:2,0:0:0:0:
412,184,45740,2,0,P|419:241|381:293,1,107.999996704102,0|0,3:2|3:2,0:0:0:0:
343,303,46296,1,0,3:2:0:0:
237,279,46666,1,0,1:2:0:0:
142,332,47037,1,0,1:2:0:0:
47,279,47407,1,8,0:2:0:0:
47,279,48148,6,0,L|56:139,1,120,2|2,1:2|0:0,0:0:0:0:
52,99,48703,2,0,P|109:135|184:121,1,120,2|2,1:2|0:0,0:0:0:0:
213,104,49259,2,0,L|206:41,1,60,2|0,1:2|0:0,0:0:0:0:
251,4,49629,1,2,0:0:0:0:
368,29,50000,1,0,0:0:0:0:
343,146,50370,1,10,0:2:0:0:
460,171,50740,1,2,0:0:0:0:
445,290,51111,6,0,L|305:267|305:267,1,120,2|2,1:2|0:0,0:0:0:0:
267,260,51666,1,2,1:2:0:0:
156,301,52037,1,2,0:0:0:0:
156,301,52222,2,0,L|90:321,1,60,2|0,1:2|0:0,0:0:0:0:
40,331,52592,2,0,P|26:265|56:220,1,120,2|0,0:0|0:0,0:0:0:0:
68,104,53333,1,10,0:2:0:0:
68,104,53518,2,0,P|116:127|191:118,1,120,2|10,1:2|0:2,0:0:0:0:
234,94,54074,6,0,P|226:156|238:228,1,120,2|2,1:2|0:0,0:0:0:0:
274,256,54629,1,2,1:2:0:0:
274,256,54815,2,0,P|349:259|403:232,1,120,8|2,0:2|1:2,0:0:0:0:
466,149,55555,1,2,0:0:0:0:
396,50,55926,1,0,0:0:0:0:
276,62,56296,2,0,L|144:74,1,120,10|2,0:2|0:0,0:0:0:0:
96,66,56852,1,2,0:0:0:0:
96,66,57037,6,0,P|131:126|120:187,1,120,2|2,1:2|0:0,0:0:0:0:
86,219,57592,1,2,1:2:0:0:
86,219,57778,1,8,0:2:0:0:
20,319,58148,2,0,L|162:329,1,120,2|2,1:2|0:0,0:0:0:0:
199,330,58703,2,0,P|217:275|186:210,1,120,2|8,1:2|0:2,0:0:0:0:
145,186,59259,1,8,0:2:0:0:
130,67,59629,2,0,L|202:58,1,60,0|0,1:2|1:2,0:0:0:0:
249,52,60000,5,0,1:2:0:0:
264,170,60370,1,2,1:2:0:0:
382,152,60740,6,0,P|402:219|379:279,1,120,2|0,1:2|0:0,0:0:0:0:
354,314,61295,1,2,1:2:0:0:
354,314,61480,1,8,0:2:0:0:
268,229,61851,2,0,P|161:207|136:222,1,120,2|0,0:0|0:0,0:0:0:0:
54,269,62591,2,0,P|49:221|45:193,1,60,2|0,1:2|1:2,0:0:0:0:
69,153,62962,1,10,0:2:0:0:
27,40,63332,1,2,0:0:0:0:
144,65,63702,6,0,P|192:60|276:35,1,120,2|0,1:2|0:0,0:0:0:0:
318,22,64258,1,2,1:2:0:0:
318,22,64443,2,0,P|298:89|299:158,1,120,8|2,0:2|0:0,0:0:0:0:
397,204,65184,1,0,0:0:0:0:
340,309,65554,2,0,L|275:316,1,60,2|0,1:2|1:2,0:0:0:0:
229,348,65925,2,0,L|165:342,1,60,10|0,0:2|1:2,0:0:0:0:
122,304,66295,1,10,0:2:0:0:
13,355,66665,6,0,P|-2:283|29:237,1,120,2|0,1:2|0:0,0:0:0:0:
73,218,67221,1,2,1:2:0:0:
73,218,67406,2,0,P|94:156|65:104,1,120,8|2,0:2|0:0,0:0:0:0:
21,75,67962,1,0,1:2:0:0:
122,10,68332,1,0,0:0:0:0:
122,10,68517,2,0,P|158:32|182:35,1,60,2|0,1:2|1:2,0:0:0:0:
220,74,68888,2,0,P|256:60|296:39,1,60,10|0,0:2|1:2,0:0:0:0:
324,16,69258,1,2,0:0:0:0:
421,86,69628,6,0,P|394:138|396:217,1,120,2|0,1:2|0:0,0:0:0:0:
343,235,70184,1,2,1:2:0:0:
343,235,70369,2,0,P|369:309|419:343,1,120,8|2,0:2|0:0,0:0:0:0:
458,347,70925,1,0,1:2:0:0:
504,236,71295,1,8,0:2:0:0:
504,236,71480,2,0,L|492:162,1,60,8|8,0:2|0:2,0:0:0:0:
471,121,71851,2,0,P|412:104|358:151,1,120,8|8,0:2|0:2,0:0:0:0:
269,63,72591,6,0,P|187:111|155:95,1,120,2|0,1:2|0:0,0:0:0:0:
122,71,73147,1,0,1:2:0:0:
122,71,73332,1,8,0:2:0:0:
2,57,73702,1,2,0:0:0:0:
52,166,74073,2,0,L|59:303,1,120,2|2,0:0|1:2,0:0:0:0:
21,333,74628,1,0,1:2:0:0:
21,333,74814,2,0,P|79:316|150:348,1,120,10|2,0:2|0:0,0:0:0:0:
151,215,75554,6,0,P|209:232|274:195,1,120,2|0,1:2|0:0,0:0:0:0:
297,160,76110,1,0,1:2:0:0:
297,160,76295,1,10,0:2:0:0:
387,238,76665,1,2,0:0:0:0:
453,138,77036,1,2,0:0:0:0:
367,54,77406,2,0,L|301:58,1,60,2|0,1:2|1:2,0:0:0:0:
252,82,77777,1,10,0:2:0:0:
141,34,78147,1,10,0:2:0:0:
52,114,78517,6,0,P|46:157|92:220,1,120,2|0,1:2|0:0,0:0:0:0:
68,274,79073,1,0,1:2:0:0:
68,274,79258,2,0,P|122:254|188:290,1,120,8|0,0:2|0:0,0:0:0:0:
285,224,79999,2,0,L|279:360,1,120,2|0,0:0|1:2,0:0:0:0:
369,264,80739,2,0,L|363:400,1,120,10|0,0:2|0:0,0:0:0:0:
452,303,81480,6,0,L|457:183,1,120,2|0,1:2|0:0,0:0:0:0:
368,263,82221,2,0,L|373:143,1,120,10|0,0:2|0:0,0:0:0:0:
380,22,82962,1,2,0:0:0:0:
380,22,83147,2,0,P|314:60|268:42,1,120,8|8,0:2|0:2,0:0:0:0:
224,18,83702,2,0,P|188:14|156:24,1,60,8|0,0:2|1:2,0:0:0:0:
105,23,84073,2,0,P|140:93|137:158,1,120,8|0,0:2|1:2,0:0:0:0:
407,152,95894,5,2,0:2:0:0:
320,88,96295,2,0,L|310:214,1,107.999996704102,2|0,0:2|0:0,0:0:0:0:
355,294,97020,2,0,P|284:319|255:302,1,107.999996704102,2|0,0:2|0:0,0:0:0:0:
180,239,97745,2,0,P|134:220|78:245,1,107.999996704102,2|2,0:2|0:2,0:0:0:0:
41,275,98274,1,2,0:2:0:0:
41,275,98450,2,0,L|49:158|49:158,1,107.999996704102,2|2,0:2|0:2,0:0:0:0:
14,64,99176,6,0,P|63:53|124:91,1,107.999996704102,2|0,0:2|0:0,0:0:0:0:
212,35,99932,2,0,P|222:98|186:149,1,107.999996704102,2|0,0:2|0:0,0:0:0:0:
249,232,100689,2,0,P|184:252|138:234,1,107.999996704102,2|2,0:2|0:2,0:0:0:0:
52,190,101425,1,2,0:2:0:0:
14,291,101771,2,0,L|22:368,1,53.9999983520508,2|2,0:2|0:2,0:0:0:0:
62,377,102161,6,0,P|122:372|160:324,1,107.999996704102,2|0,0:2|0:0,0:0:0:0:
146,218,102931,2,0,P|218:216|256:249,1,107.999996704102,2|2,0:2|0:2,0:0:0:0:
323,309,103702,2,0,P|372:275|384:226,1,107.999996704102,2|2,0:2|0:2,0:0:0:0:
433,208,104233,2,0,P|404:127|408:28,1,161.999995056153,2|2,0:2|0:2,0:0:0:0:
45,46,107260,5,2,0:2:0:0:
86,80,107445,2,0,L|149:73,2,53.9999983520508,2|2|2,0:2|0:2|0:2,0:0:0:0:
24,169,108184,6,0,P|8:247|33:290,1,107.999996704102,2|0,0:2|0:0,0:0:0:0:
100,339,108924,2,0,P|152:304|209:308,1,107.999996704102,2|0,0:2|0:0,0:0:0:0:
302,285,109627,2,0,P|341:309|401:294,1,107.999996704102,2|2,0:2|0:2,0:0:0:0:
447,318,110183,1,2,0:2:0:0:
447,318,110368,2,0,P|418:244|428:196,1,107.999996704102,2|2,0:2|0:2,0:0:0:0:
501,145,111108,6,0,P|434:104|387:120,1,107.999996704102,2|0,0:2|0:0,0:0:0:0:
312,58,111849,2,0,P|253:81|204:62,1,107.999996704102,2|0,0:2|0:0,0:0:0:0:
114,22,112590,1,2,0:2:0:0:
59,114,112960,1,2,0:2:0:0:
139,186,113331,1,2,0:2:0:0:
169,289,113701,1,2,0:2:0:0:
105,376,114071,6,0,P|153:349|223:360,1,107.999996704102,2|0,0:2|0:0,0:0:0:0:
299,300,114812,2,0,P|342:312|406:286,1,107.999996704102,2|2,0:2|0:2,0:0:0:0:
466,205,115553,2,0,L|443:92,1,107.999996704102,2|2,0:2|0:2,0:0:0:0:
464,48,116108,2,0,P|425:77|361:74,1,107.999996704102,2|2,0:2|0:2,0:0:0:0:
319,52,116664,2,0,P|262:40|161:153,1,215.999993408203,2|0,0:2|0:0,0:0:0:0:
443,19,119997,6,0,B|417:54|417:54|435:138,1,120,2|2,1:2|0:0,0:0:0:0:
388,168,120553,2,0,P|338:145|274:181,1,120,2|2,1:2|0:0,0:0:0:0:
222,160,121108,2,0,L|228:219,1,60,2|0,1:2|0:0,0:0:0:0:
235,279,121479,1,2,0:0:0:0:
319,364,121849,2,0,L|402:360,1,60,0|2,0:0|0:0,0:0:0:0:
438,365,122220,1,10,0:2:0:0:
426,246,122590,1,2,0:0:0:0:
306,259,122960,6,0,P|221:266|178:235,1,120,2|2,1:2|0:0,0:0:0:0:
172,194,123516,1,2,1:2:0:0:
194,79,123886,1,2,0:0:0:0:
194,79,124071,2,0,L|257:84,1,60,2|0,1:2|0:0,0:0:0:0:
307,56,124442,2,0,P|308:112|349:174,1,120,2|0,0:0|0:0,0:0:0:0:
392,280,125183,1,10,0:2:0:0:
392,280,125368,2,0,P|337:255|278:261,1,120,2|10,1:2|0:2,0:0:0:0:
229,295,125923,6,0,P|157:322|105:297,1,120,2|2,1:2|0:0,0:0:0:0:
59,302,126479,2,0,P|86:219|80:163,1,120,2|2,1:2|0:0,0:0:0:0:
41,146,127034,1,2,1:2:0:0:
112,49,127405,1,2,0:0:0:0:
228,76,127775,1,0,0:0:0:0:
345,101,128145,2,0,L|464:90,1,120,10|2,0:2|0:0,0:0:0:0:
496,206,128886,6,0,P|446:238|387:235,1,120,2|2,1:2|0:0,0:0:0:0:
346,201,129442,1,2,1:2:0:0:
346,201,129627,1,8,0:2:0:0:
252,125,129997,2,0,L|132:116,1,120,2|2,1:2|0:0,0:0:0:0:
73,129,130553,2,0,P|55:185|76:239,1,120,2|8,1:2|0:2,0:0:0:0:
120,281,131108,1,8,0:2:0:0:
201,368,131479,2,0,L|260:375,1,60,0|0,1:2|1:2,0:0:0:0:
320,383,131849,5,0,1:2:0:0:
393,288,132220,1,2,1:2:0:0:
276,257,132590,6,0,P|256:201|269:143,1,120,2|0,1:2|0:0,0:0:0:0:
311,101,133146,1,2,1:2:0:0:
311,101,133331,1,8,0:2:0:0:
207,38,133702,2,0,L|76:45,1,120,2|0,0:0|0:0,0:0:0:0:
16,141,134442,1,2,1:2:0:0:
136,137,134813,1,10,0:2:0:0:
76,241,135183,1,2,0:0:0:0:
163,322,135553,6,0,P|201:309|245:228,1,120,2|0,1:2|0:0,0:0:0:0:
231,185,136109,1,2,1:2:0:0:
231,185,136294,1,8,0:2:0:0:
343,226,136665,2,0,P|353:166|418:124,1,120,2|0,0:0|0:0,0:0:0:0:
445,19,137405,2,0,P|389:29|372:29,1,60,2|0,1:2|1:2,0:0:0:0:
330,52,137776,2,0,P|288:45|249:54,1,60,10|0,0:2|1:2,0:0:0:0:
214,27,138146,1,10,0:2:0:0:
97,50,138516,6,0,P|79:106|103:159,1,120,2|0,1:2|0:0,0:0:0:0:
146,202,139072,2,0,P|100:188|29:212,1,120,2|2,1:2|0:0,0:0:0:0:
10,264,139628,1,2,0:0:0:0:
86,356,139998,1,0,0:0:0:0:
185,290,140368,2,0,P|209:272|238:265,1,60,2|0,1:2|1:2,0:0:0:0:
283,225,140739,2,0,P|311:235|338:248,1,60,10|0,0:2|1:2,0:0:0:0:
387,283,141109,1,2,0:0:0:0:
472,199,141479,6,0,P|484:133|440:81,1,120,2|0,1:2|0:0,0:0:0:0:
409,53,142035,1,2,1:2:0:0:
409,53,142220,2,0,P|355:88|274:82,1,120,8|2,0:2|0:0,0:0:0:0:
195,32,142961,1,0,0:0:0:0:
95,98,143331,2,0,L|104:157,1,60,8|8,0:2|0:2,0:0:0:0:
115,216,143702,2,0,P|170:233|219:202,1,120,8|8,0:2|0:2,0:0:0:0:
263,314,144442,6,0,P|301:270|360:270,1,120,2|0,1:2|0:0,0:0:0:0:
415,304,144998,1,0,1:2:0:0:
415,304,145183,1,8,0:2:0:0:
511,233,145553,1,2,0:0:0:0:
417,158,145924,2,0,L|410:38,1,120,2|2,0:0|1:2,0:0:0:0:
361,13,146479,1,0,1:2:0:0:
361,13,146665,2,0,P|304:30|248:12,1,120,10|2,0:2|0:0,0:0:0:0:
180,111,147405,6,0,P|123:94|69:116,1,120,2|0,1:2|0:0,0:0:0:0:
34,166,147961,1,0,1:2:0:0:
34,166,148146,1,10,0:2:0:0:
29,285,148516,1,2,0:0:0:0:
141,241,148887,1,2,0:0:0:0:
218,332,149257,2,0,L|277:328,1,60,2|0,1:2|1:2,0:0:0:0:
327,294,149628,1,10,0:2:0:0:
409,380,149998,1,10,0:2:0:0:
460,269,150368,6,0,P|462:211|424:166,1,120,2|0,1:2|0:0,0:0:0:0:
444,110,150924,1,0,1:2:0:0:
443,110,151109,2,0,P|388:129|313:147,1,120,8|0,0:2|0:0,0:0:0:0:
218,95,151850,2,0,P|134:96|89:108,1,120,2|0,0:0|1:2,0:0:0:0:
39,97,152405,1,0,1:2:0:0:
39,97,152590,2,0,P|57:178|58:226,1,120,10|0,0:2|0:0,0:0:0:0:
19,328,153331,6,0,P|63:325|144:361,1,120,2|0,1:2|0:0,0:0:0:0:
183,319,153887,2,0,P|238:340|310:325,1,120,0|0,1:2|0:0,0:0:0:0:
352,308,154442,1,8,0:0:0:0:
270,219,154813,1,2,0:0:0:0:
270,219,154998,2,0,L|265:94,1,120,8|8,0:2|0:2,0:0:0:0:
290,44,155553,1,8,0:2:0:0:
169,38,155924,1,8,0:2:0:0:
49,33,156294,6,0,P|29:100|52:160,1,120,2|0,1:2|0:0,0:0:0:0:
77,195,156850,1,2,1:2:0:0:
77,195,157035,1,8,0:2:0:0:
146,96,157405,2,0,P|253:74|278:89,1,120,2|0,0:0|0:0,0:0:0:0:
333,167,158146,2,0,P|329:196|326:226,1,60,2|0,1:2|1:2,0:0:0:0:
291,275,158516,1,10,0:2:0:0:
387,346,158887,1,2,0:0:0:0:
477,267,159257,6,0,P|472:219|447:135,1,120,2|0,1:2|0:0,0:0:0:0:
465,94,159813,1,2,1:2:0:0:
465,94,159998,2,0,P|398:114|329:113,1,120,8|2,0:2|0:0,0:0:0:0:
250,45,160739,1,0,0:0:0:0:
158,122,161109,2,0,L|151:187,1,60,2|0,1:2|1:2,0:0:0:0:
119,233,161479,2,0,L|125:297,1,60,10|0,0:2|1:2,0:0:0:0:
163,340,161850,1,10,0:2:0:0:
277,376,162220,6,0,P|292:304|261:258,1,120,2|0,1:2|0:0,0:0:0:0:
310,222,162776,1,2,1:2:0:0:
310,222,162961,2,0,P|289:160|318:108,1,120,8|2,0:2|0:0,0:0:0:0:
431,124,163702,1,0,0:0:0:0:
360,28,164072,2,0,L|278:24,1,60,2|0,1:2|1:2,0:0:0:0:
240,18,164442,1,10,0:2:0:0:
126,58,164813,1,2,0:0:0:0:
19,3,165183,6,0,L|13:128,1,120,2|0,1:2|0:0,0:0:0:0:
45,179,165739,1,2,1:2:0:0:
45,179,165924,2,0,P|126:198|164:169,1,120,8|2,0:2|0:0,0:0:0:0:
181,127,166479,1,0,1:2:0:0:
253,229,166850,1,8,0:2:0:0:
253,229,167035,2,0,L|241:303,1,60,8|8,0:2|0:2,0:0:0:0:
219,343,167405,2,0,P|278:326|332:373,1,120,8|8,0:2|0:2,0:0:0:0:
390,256,168146,6,0,P|465:300|497:284,1,120,2|0,1:2|0:0,0:0:0:0:
510,244,168702,1,0,1:2:0:0:
510,244,168887,1,8,0:2:0:0:
448,140,169257,1,2,0:0:0:0:
503,33,169628,2,0,L|366:26,1,120,2|2,0:0|1:2,0:0:0:0:
353,80,170183,1,0,1:2:0:0:
353,80,170368,2,0,L|215:70,1,120,10|2,0:2|0:0,0:0:0:0:
122,26,171109,6,0,P|105:84|142:149,1,120,2|0,1:2|0:0,0:0:0:0:
187,164,171665,1,0,1:2:0:0:
187,164,171850,1,10,0:2:0:0:
208,281,172220,1,2,0:0:0:0:
327,268,172590,1,2,0:0:0:0:
306,149,172961,2,0,L|372:153,1,60,2|0,1:2|1:2,0:0:0:0:
425,157,173331,1,10,0:2:0:0:
445,275,173702,1,10,0:2:0:0:
383,377,174072,6,0,L|254:362,1,120,2|0,1:2|0:0,0:0:0:0:
208,357,174628,1,0,1:2:0:0:
208,357,174813,1,8,0:2:0:0:
118,277,175183,1,0,0:0:0:0:
194,184,175553,2,0,L|188:64,1,120,2|0,0:0|1:2,0:0:0:0:
74,27,176294,2,0,L|80:163,1,120,10|0,0:2|0:0,0:0:0:0:
201,168,177035,6,0,L|196:48,1,120,2|0,1:2|0:0,0:0:0:0:
306,1,177776,2,0,L|311:121,1,120,10|8,0:2|0:0,0:0:0:0:
404,192,178516,1,2,0:0:0:0:
404,192,178702,2,0,P|375:233|292:252,1,120,8|8,0:2|0:2,0:0:0:0:
251,246,179257,2,0,L|183:254,1,60,8|0,0:2|1:2,0:0:0:0:
139,282,179628,1,8,0:2:0:0:
41,212,179998,6,0,P|16:140|44:82,1,120,2|2,1:2|0:0,0:0:0:0:
38,41,180553,2,0,P|97:82|165:77,1,120,2|2,1:2|0:0,0:0:0:0:
198,60,181109,1,2,1:2:0:0:
308,14,181479,2,0,L|304:153,1,120,10|0,0:2|0:0,0:0:0:0:
250,161,182035,1,0,1:2:0:0:
250,161,182220,2,0,L|244:293,1,120,10|2,0:2|0:0,0:0:0:0:
337,356,182961,6,0,P|391:325|383:262,1,120,2|2,1:2|0:0,0:0:0:0:
438,237,183516,1,2,1:2:0:0:
438,237,183702,2,0,P|420:146|423:114,1,120,8|2,0:2|1:2,0:0:0:0:
467,8,184442,1,10,0:2:0:0:
351,42,184813,1,2,0:0:0:0:
235,11,185183,1,10,0:2:0:0:
135,78,185553,1,2,0:0:0:0:
22,35,185924,6,0,L|32:182,1,120,2|2,1:2|0:0,0:0:0:0:
78,189,186479,2,0,L|70:321,1,120,2|2,1:2|0:0,0:0:0:0:
36,358,187035,1,2,1:2:0:0:
149,320,187405,2,0,P|208:303|288:307,1,120,10|0,0:2|0:0,0:0:0:0:
313,264,187961,1,2,1:2:0:0:
365,235,188146,2,0,P|437:263|474:296,1,120,10|2,0:2|0:0,0:0:0:0:
504,175,188887,6,0,P|509:125|474:53,1,120,2|0,1:2|1:2,0:0:0:0:
428,35,189442,1,8,0:2:0:0:
324,96,189813,1,8,0:2:0:0:
275,131,189998,2,0,P|213:129|166:91,1,120,8|0,0:2|1:2,0:0:0:0:
139,42,190553,1,0,1:2:0:0:
21,17,190924,1,0,1:2:0:0:
21,17,191109,2,0,L|13:85,1,60,8|0,0:2|1:2,0:0:0:0:
50,124,191479,2,0,L|58:187,1,60,8|4,0:2|1:2,0:0:0:0:
