osu file format v14

[General]
AudioFilename: audio.mp3
AudioLeadIn: 0
PreviewTime: 648
Countdown: 0
SampleSet: Soft
StackLeniency: 0.7
Mode: 0
LetterboxInBreaks: 0
WidescreenStoryboard: 1

[Editor]
DistanceSpacing: 1
BeatDivisor: 4
GridSize: 4
TimelineZoom: 2.3

[Metadata]
Title:2019 Guy
TitleUnicode:2019 Guy
Artist:The Gentle Men
ArtistUnicode:The Gentle Men
Creator:-Keitaro
Version:Hard
Source:
Tags:cr1tikal Troy McKubre charlie english rock solstate
BeatmapID:2261132
BeatmapSetID:1080671

[Difficulty]
HPDrainRate:5
CircleSize:3.5
OverallDifficulty:6
ApproachRate:8
SliderMultiplier:1.4
SliderTickRate:1

[Events]
//Background and Video events
0,0,"maxresdefault.jpg",0,0
Video,-476,"2019.mp4"
//Break Periods
2,84643,95144
//Storyboard Layer 0 (Background)
//Storyboard Layer 1 (Fail)
//Storyboard Layer 2 (Pass)
//Storyboard Layer 3 (Foreground)
//Storyboard Layer 4 (Overlay)
//Storyboard Sound Samples

[TimingPoints]
741,370.37037037037,4,2,1,50,1,0
12592,-125,4,2,1,50,0,0
24444,-100,4,2,1,60,0,0
36296,-133.333333333333,4,2,1,45,0,0
48148,-100,4,2,1,55,0,0
60740,370.37037037037,4,2,1,70,1,1
84443,-100,4,2,1,50,0,0
95894,401.33779264214,4,2,1,50,1,0
96295,362.537764350453,4,2,1,50,1,0
96295,-133.333333333333,4,2,1,50,0,0
97745,352.941176470588,4,2,1,50,1,0
97745,-133.333333333333,4,2,1,50,0,0
98450,363.086232980333,4,2,1,50,1,0
98450,-133.333333333333,4,2,1,50,0,0
99176,378.310214375788,4,2,1,50,1,0
99176,-133.333333333333,4,2,1,50,0,0
100689,368.098159509202,4,2,1,50,1,0
100689,-133.333333333333,4,2,1,50,0,0
101425,346.820809248555,4,2,1,50,1,0
101425,-133.333333333333,4,2,1,50,0,0
101945,433.212996389892,4,2,1,50,1,0
102161,385.232744783307,4,2,1,50,1,0
102161,-133.333333333333,4,2,1,50,0,0
102931,370.37037037037,4,2,1,50,1,0
102931,-133.333333333333,4,2,1,50,0,0
103486,433.212996389892,4,2,1,50,1,0
103702,339.943342776204,4,2,1,50,1,0
103702,-133.333333333333,4,2,1,50,0,0
104041,385.852090032154,4,2,1,50,1,0
104233,-133.333333333333,4,2,1,50,0,0
104812,370.37037037037,4,2,1,50,1,0
104812,-133.333333333333,4,2,1,50,0,0
107260,370.37037037037,4,2,1,50,1,0
107445,394.736842105263,4,2,1,50,1,0
107445,-133.333333333333,4,2,1,50,0,0
108184,370.37037037037,4,2,1,50,1,0
108184,-133.333333333333,4,2,1,50,0,0
109627,370.37037037037,4,2,1,50,1,0
109627,-133.333333333333,4,2,1,50,0,0
119997,-100,4,2,1,55,0,0
132591,370.37037037037,4,2,1,70,1,1
179998,-100,4,2,1,55,0,0

[Colours]
Combo1 : 134,134,134
Combo2 : 0,128,255
Combo3 : 16,160,216
Combo4 : 182,182,182

[HitObjects]
24,29,12222,5,2,0:2:0:0:
95,115,12592,2,0,L|84:231,1,112,2|0,0:2|0:0,0:0:0:0:
195,245,13333,2,0,L|184:361,1,112,2|0,0:2|0:0,0:0:0:0:
281,299,14074,2,0,L|287:235,1,56,2|2,0:2|0:2,0:0:0:0:
363,309,14444,2,0,L|368:246,1,56,2|2,0:2|0:2,0:0:0:0:
450,324,14815,2,0,L|457:205,1,112,2|2,0:2|0:2,0:0:0:0:
392,120,15555,6,0,P|336:108|276:142,1,112,2|0,0:2|0:0,0:0:0:0:
200,200,16296,2,0,P|132:213|89:184,1,112,2|0,0:2|0:0,0:0:0:0:
4,130,17037,2,0,B|17:149|17:149|3:255,1,112,2|2,0:2|0:2,0:0:0:0:
54,338,17778,2,0,L|-10:327,2,56,2|2|2,0:2|0:2|0:2,0:0:0:0:
158,378,18518,6,0,P|172:326|142:272,1,112,2|0,0:2|0:0,0:0:0:0:
95,176,19259,2,0,B|128:196|128:196|204:183,1,112,2|2,0:2|0:2,0:0:0:0:
309,156,20000,6,0,P|315:101|278:59,1,112,2|2,0:2|0:2,0:0:0:0:
230,35,20555,2,0,P|286:52|400:13,1,168,2|2,0:2|0:2,0:0:0:0:
456,230,23518,5,8,0:2:0:0:
456,230,23611,1,8,0:2:0:0:
456,230,23703,1,10,0:2:0:0:
396,291,23889,1,2,1:2:0:0:
326,242,24074,2,0,P|282:239|247:260,1,84,10|0,0:2|0:0,0:0:0:0:
229,288,24444,6,0,L|235:120,1,140,2|0,1:2|0:0,0:0:0:0:
195,73,25000,1,0,1:2:0:0:
261,22,25185,2,0,B|347:15|308:71|411:70,1,140,10|0,0:2|0:0,0:0:0:0:
464,36,25740,1,0,1:2:0:0:
499,112,25926,2,0,P|495:170|476:190,1,70,2|2,0:0|0:0,0:0:0:0:
498,261,26296,2,0,P|452:270|408:248,1,70,2|0,1:2|1:2,0:0:0:0:
357,222,26666,2,0,B|272:206|300:266|216:251,1,140,10|2,0:2|1:2,0:0:0:0:
151,212,27222,1,2,0:0:0:0:
90,270,27407,6,0,P|63:214|111:135,1,140,2|0,1:2|0:0,0:0:0:0:
155,91,27963,1,0,1:2:0:0:
220,143,28148,2,0,L|366:125,1,140,10|0,0:2|0:0,0:0:0:0:
416,64,28703,1,0,1:2:0:0:
474,124,28889,2,0,L|475:202,1,70,2|2,0:0|0:0,0:0:0:0:
499,274,29259,2,0,P|489:332|474:364,1,70,2|0,1:2|1:2,0:0:0:0:
402,357,29629,2,0,P|350:324|262:286,1,140,10|2,0:2|1:2,0:0:0:0:
133,376,30370,6,0,P|105:331|142:248,1,140,2|0,1:2|0:0,0:0:0:0:
197,200,30926,1,0,1:2:0:0:
158,125,31111,2,0,P|98:115|22:135,1,140,10|2,0:2|1:2,0:0:0:0:
225,72,31852,2,0,P|272:88|374:55,1,140,2|2,1:2|1:2,0:0:0:0:
428,22,32407,2,0,P|441:83|430:119,1,70,2|8,1:2|0:2,0:0:0:0:
480,252,32963,6,0,P|415:182|346:181,1,140,2|0,1:2|0:0,0:0:0:0:
295,202,33518,1,0,0:0:0:0:
256,276,33703,2,0,L|269:357,1,70,0|0,1:2|1:2,0:0:0:0:
176,360,34074,2,0,P|143:299|159:233,1,140,8|0,0:2|0:0,0:0:0:0:
230,171,34629,2,0,P|246:114|197:33,1,140,0|0,1:2|0:0,0:0:0:0:
133,16,35185,1,0,1:2:0:0:
82,83,35370,1,8,0:2:0:0:
82,83,35463,1,8,0:2:0:0:
82,83,35555,2,0,L|91:162,1,70,8|0,0:2|1:2,0:0:0:0:
3,176,35926,1,8,0:2:0:0:
3,176,36296,6,0,B|218:212|218:212|237:344|237:344|521:373,1,630.000024032594,4|0,3:2|3:2,0:0:0:0:
483,200,38889,1,0,3:2:0:0:
512,384,39259,2,0,B|237:356|237:356|218:224|218:224|3:188,1,630.000024032594,4|0,3:2|3:2,0:0:0:0:
52,36,41852,1,0,3:2:0:0:
157,123,42222,6,0,P|200:129|260:82,1,105.000004005432,4|0,3:2|3:2,0:0:0:0:
360,16,42963,2,0,P|333:50|344:125,1,105.000004005432,0|0,3:2|3:2,0:0:0:0:
354,243,43703,2,0,P|337:202|266:174,1,105.000004005432,0|0,3:2|3:2,0:0:0:0:
157,123,44444,1,0,3:2:0:0:
46,214,44815,2,0,L|52:270,1,52.5000020027161,0|0,3:2|0:0,0:0:0:0:
11,337,45185,6,0,P|57:349|122:307,1,105.000004005432,4|0,3:2|3:2,0:0:0:0:
161,269,45740,1,0,3:2:0:0:
161,269,45926,2,0,P|204:246|266:265,1,105.000004005432,0|0,3:2|3:2,0:0:0:0:
307,319,46481,1,0,3:2:0:0:
307,319,46666,2,0,L|366:312,1,52.5000020027161,0|0,1:2|1:2,0:0:0:0:
443,301,47037,2,0,L|502:294,1,52.5000020027161,0|0,1:2|1:2,0:0:0:0:
388,233,47407,1,8,0:2:0:0:
388,233,48148,6,0,P|377:184|391:142,1,70,2|2,1:2|0:0,0:0:0:0:
435,99,48518,1,2,0:0:0:0:
370,42,48703,2,0,B|305:46|305:46|284:62|284:62|214:66,1,140,2|2,1:2|0:0,0:0:0:0:
148,34,49259,2,0,P|145:81|153:105,1,70,2|0,1:2|0:0,0:0:0:0:
224,149,49629,1,2,0:0:0:0:
169,216,49815,2,0,L|11:201,1,140,2|2,0:0|0:0,0:0:0:0:
47,284,50370,2,0,L|133:292,1,70,10|2,0:2|0:0,0:0:0:0:
168,356,50740,1,2,0:0:0:0:
243,318,50926,1,2,0:0:0:0:
316,359,51111,6,0,P|362:368|401:352,1,70,2|2,1:2|0:0,0:0:0:0:
432,293,51481,1,2,0:0:0:0:
495,347,51666,2,0,P|478:252|481:205,1,140,2|2,1:2|0:0,0:0:0:0:
493,125,52222,2,0,P|434:124|393:190,1,140,2|2,1:2|0:0,0:0:0:0:
338,250,52778,2,0,P|296:253|264:233,1,70,2|0,0:0|0:0,0:0:0:0:
213,180,53148,1,2,0:0:0:0:
129,169,53333,2,0,P|93:178|56:204,1,70,10|2,0:2|1:2,0:0:0:0:
0,248,53703,2,0,P|20:292|23:317,1,70,2|10,0:0|0:2,0:0:0:0:
93,359,54074,6,0,P|134:365|172:352,1,70,2|2,1:2|0:0,0:0:0:0:
232,313,54444,1,2,0:0:0:0:
313,334,54629,2,0,L|322:177,1,140,2|2,1:2|0:0,0:0:0:0:
262,133,55185,2,0,P|319:167|408:134,1,140,2|2,1:2|0:0,0:0:0:0:
447,93,55740,2,0,P|470:142|468:182,1,70,2|0,0:0|0:0,0:0:0:0:
511,231,56111,1,2,0:0:0:0:
453,291,56296,2,0,L|351:276,1,70,10|2,0:2|0:0,0:0:0:0:
313,235,56666,1,2,0:0:0:0:
240,278,56852,1,2,0:0:0:0:
173,227,57037,6,0,P|164:176|181:140,1,70,2|2,1:2|0:0,0:0:0:0:
223,95,57407,1,2,0:0:0:0:
172,27,57592,2,0,P|261:50|323:46,1,140,2|2,1:2|0:0,0:0:0:0:
384,10,58148,2,0,P|418:47|360:103,1,140,2|2,1:2|0:0,0:0:0:0:
289,133,58703,2,0,P|273:174|284:207,1,70,2|0,1:2|0:0,0:0:0:0:
345,263,59074,1,8,0:2:0:0:
345,263,59166,1,8,0:2:0:0:
345,263,59259,2,0,P|352:310|333:338,1,70,8|0,0:2|1:2,0:0:0:0:
273,374,59629,2,0,P|228:368|197:344,1,70,0|8,1:2|0:2,0:0:0:0:
127,381,60000,6,0,P|136:318|134:222,1,140,0|2,1:2|1:2,0:0:0:0:
107,76,60740,6,0,P|156:64|232:114,1,140,2|0,1:2|0:0,0:0:0:0:
278,177,61295,1,2,1:2:0:0:
346,128,61480,2,0,P|352:90|351:41,1,70,8|0,0:2|0:0,0:0:0:0:
402,197,61851,2,0,P|370:250|376:346,1,140,2|0,0:0|0:0,0:0:0:0:
441,368,62406,1,0,0:0:0:0:
504,313,62591,2,0,L|494:234,1,70,2|0,1:2|1:2,0:0:0:0:
402,197,62962,2,0,L|410:266,1,70,10|0,0:2|1:2,0:0:0:0:
330,340,63332,2,0,L|320:261,1,70,2|0,0:0|0:0,0:0:0:0:
244,150,63702,6,0,B|178:156|198:211|106:206,1,140,2|0,1:2|0:0,0:0:0:0:
50,158,64258,1,2,1:2:0:0:
101,91,64443,2,0,P|110:46|104:13,1,70,8|0,0:2|0:0,0:0:0:0:
50,158,64814,2,0,P|29:222|83:290,1,140,2|0,0:0|0:0,0:0:0:0:
135,324,65369,1,0,0:0:0:0:
206,279,65554,2,0,P|222:324|211:368,1,70,2|0,1:2|1:2,0:0:0:0:
288,232,65925,2,0,P|287:197|301:165,1,70,10|0,0:2|1:2,0:0:0:0:
365,293,66295,2,0,P|381:338|370:382,1,70,10|0,0:2|0:0,0:0:0:0:
485,237,66665,6,0,B|516:172|452:172|488:97,1,140,2|0,1:2|0:0,0:0:0:0:
408,49,67221,2,0,P|360:83|345:80,1,70,2|8,1:2|0:2,0:0:0:0:
277,126,67591,1,2,0:0:0:0:
277,126,67777,2,0,P|242:101|137:92,1,140,2|0,0:0|0:0,0:0:0:0:
71,120,68332,1,0,0:0:0:0:
33,190,68517,2,0,P|18:225|-5:260,1,70,2|0,1:2|1:2,0:0:0:0:
53,326,68888,2,0,P|102:312|146:320,1,70,10|0,0:2|1:2,0:0:0:0:
171,240,69258,2,0,P|145:211|132:168,1,70,2|0,0:0|0:0,0:0:0:0:
178,36,69628,6,0,B|244:35|218:104|321:79,1,140,2|0,1:2|0:0,0:0:0:0:
382,105,70184,1,2,1:2:0:0:
450,153,70369,2,0,L|449:244,1,70,8|0,0:2|0:0,0:0:0:0:
484,310,70739,1,2,0:0:0:0:
396,289,70925,2,0,P|351:285|326:298,1,70,0|0,1:2|0:0,0:0:0:0:
239,329,71295,2,0,L|236:364,4,35,8|8|8|8|8,0:2|0:2|0:2|0:2|0:2,0:0:0:0:
158,267,71851,1,8,0:2:0:0:
158,267,71943,1,8,0:2:0:0:
158,267,72036,1,0,1:2:0:0:
89,336,72221,2,0,L|92:376,3,35,8|8|8|8,0:2|0:2|0:2|0:2,0:0:0:0:
57,323,72591,6,0,L|67:160,1,140,2|0,1:2|0:0,0:0:0:0:
131,121,73147,1,0,1:2:0:0:
204,168,73332,2,0,P|244:166|278:148,1,70,8|0,0:2|0:0,0:0:0:0:
250,40,73702,2,0,P|210:42|176:60,1,70,2|0,0:0|1:2,0:0:0:0:
331,79,74073,2,0,P|370:45|454:73,1,140,2|2,0:0|1:2,0:0:0:0:
496,138,74628,1,0,1:0:0:0:
409,176,74814,2,0,L|403:245,1,70,10|0,0:2|1:2,0:0:0:0:
490,284,75184,2,0,L|495:353,1,70,2|0,0:0|0:0,0:0:0:0:
351,332,75554,6,0,B|275:331|292:379|204:377,1,140,2|0,1:2|0:0,0:0:0:0:
140,342,76110,1,0,1:2:0:0:
203,283,76295,2,0,P|211:235|203:194,1,70,10|0,0:2|0:0,0:0:0:0:
151,159,76665,2,0,P|143:111|151:70,1,70,2|0,0:0|1:2,0:0:0:0:
212,37,77036,2,0,P|144:71|56:44,1,140,2|2,0:0|1:2,0:0:0:0:
2,26,77591,1,0,1:2:0:0:
9,108,77777,1,10,0:2:0:0:
69,166,77962,1,0,1:2:0:0:
80,248,78147,2,0,L|87:325,1,70,10|0,0:2|0:0,0:0:0:0:
232,374,78517,6,0,P|232:309|169:272,1,140,2|0,1:2|0:0,0:0:0:0:
146,195,79073,1,0,1:2:0:0:
210,133,79258,2,0,L|284:139,1,70,8|0,0:2|0:0,0:0:0:0:
329,35,79628,2,0,L|255:41,1,70,0|0,0:0|1:2,0:0:0:0:
415,27,79999,2,0,B|425:137|425:137|406:174,1,140,2|0,0:0|1:2,0:0:0:0:
322,146,80554,1,0,1:2:0:0:
249,193,80739,2,0,L|264:339,1,140,10|0,0:2|0:0,0:0:0:0:
67,375,81480,6,0,L|81:235,1,140,2|0,1:2|0:0,0:0:0:0:
141,174,82036,1,0,1:2:0:0:
81,109,82221,2,0,P|85:47|171:16,1,140,10|0,0:2|0:0,0:0:0:0:
219,61,82777,1,0,1:2:0:0:
294,12,82962,1,2,0:0:0:0:
359,73,83147,2,0,L|352:121,4,35,8|8|8|8|8,0:2|0:2|0:2|0:2|0:2,0:0:0:0:
435,21,83702,1,8,0:2:0:0:
435,21,83795,1,8,0:2:0:0:
435,21,83888,1,0,1:2:0:0:
494,94,84073,2,0,L|485:152,4,35,8|8|8|8|0,0:2|0:2|0:2|0:2|1:2,0:0:0:0:
428,67,95894,5,2,0:2:0:0:
470,162,96295,2,0,P|427:175|368:149,1,105.000004005432,2|0,0:2|0:0,0:0:0:0:
310,69,97020,2,0,P|262:48|212:60,1,105.000004005432,2|0,0:2|0:0,0:0:0:0:
181,160,97745,2,0,L|192:236,1,52.5000020027161,2|2,0:2|0:2,0:0:0:0:
92,138,98097,2,0,L|103:214,1,52.5000020027161,2|2,0:2|0:2,0:0:0:0:
5,106,98450,2,0,L|19:228,1,105.000004005432,2|2,0:2|0:2,0:0:0:0:
35,313,99176,6,0,P|86:331|146:308,1,105.000004005432,2|0,0:2|0:0,0:0:0:0:
204,240,99932,2,0,P|253:226|302:244,1,105.000004005432,2|0,0:2|0:0,0:0:0:0:
373,321,100689,6,0,P|428:315|464:263,1,105.000004005432,2|2,0:2|0:2,0:0:0:0:
499,182,101425,2,0,P|483:119|442:85,1,105.000004005432,2|2,0:2|0:2,0:0:0:0:
414,58,101945,1,2,0:2:0:0:
362,67,102161,2,0,L|247:76,1,105.000004005432,2|0,0:2|0:0,0:0:0:0:
144,39,102931,2,0,P|134:90|157:141,1,105.000004005432,2|2,0:2|0:2,0:0:0:0:
248,240,103702,2,0,P|164:223|122:251,1,105.000004005432,2|2,0:2|0:2,0:0:0:0:
102,205,104233,2,0,L|114:331,1,105.000004005432,2|0,0:2|0:0,0:0:0:0:
139,354,104813,2,0,P|225:368|257:241,1,210.000008010865,2|0,0:2|0:0,0:0:0:0:
44,28,107260,5,2,0:2:0:0:
44,28,107445,2,0,L|47:97,2,52.5000020027161,2|2|2,0:2|0:2|0:2,0:0:0:0:
180,61,108184,6,0,L|182:186,1,105.000004005432,2|0,0:2|0:0,0:0:0:0:
118,249,108924,2,0,P|174:275|232:248,1,105.000004005432,2|0,0:2|0:0,0:0:0:0:
300,205,109627,2,0,P|358:190|416:223,1,105.000004005432,2|2,0:2|0:2,0:0:0:0:
428,249,110183,1,2,0:2:0:0:
428,249,110368,2,0,L|417:128,1,105.000004005432,2|2,0:2|0:2,0:0:0:0:
463,49,111108,6,0,P|401:37|353:62,1,105.000004005432,2|0,0:2|0:0,0:0:0:0:
292,129,111849,2,0,P|229:151|179:121,1,105.000004005432,2|0,0:2|0:0,0:0:0:0:
117,68,112590,2,0,P|86:131|121:198,1,105.000004005432,2|2,0:2|0:2,0:0:0:0:
8,226,113331,2,0,P|53:275|109:273,1,105.000004005432,2|2,0:2|0:2,0:0:0:0:
160,354,114071,6,0,P|225:322|272:325,1,105.000004005432,2|0,0:2|0:0,0:0:0:0:
360,309,114812,2,0,P|405:340|461:334,1,105.000004005432,2|2,0:2|0:2,0:0:0:0:
501,315,115368,1,2,0:2:0:0:
501,315,115553,2,0,L|487:193,1,105.000004005432,2|2,0:2|0:2,0:0:0:0:
442,187,116108,2,0,L|454:81,1,105.000004005432,2|2,0:2|0:2,0:0:0:0:
481,37,116664,2,0,B|358:88|400:-18|256:30,1,210.000008010865,2|0,0:2|0:0,0:0:0:0:
41,38,119997,6,0,P|66:79|60:129,1,70,2|2,1:2|0:0,0:0:0:0:
117,167,120368,1,2,0:0:0:0:
38,197,120553,2,0,P|121:203|208:246,1,140,2|2,1:2|0:0,0:0:0:0:
242,270,121108,2,0,P|209:306|176:295,1,70,2|0,1:2|0:0,0:0:0:0:
173,223,121479,2,0,P|218:186|261:187,1,70,2|2,0:0|0:0,0:0:0:0:
292,130,121849,1,0,0:0:0:0:
307,212,122034,1,2,0:0:0:0:
374,160,122220,2,0,L|461:152,1,70,10|2,0:2|0:0,0:0:0:0:
425,235,122590,2,0,L|512:227,1,70,2|2,0:0|0:0,0:0:0:0:
479,311,122960,6,0,L|323:322,1,140,2|2,1:2|0:0,0:0:0:0:
264,359,123516,2,0,P|254:305|317:236,1,140,2|2,1:2|0:0,0:0:0:0:
383,217,124071,2,0,P|384:188|367:143,1,70,2|0,1:2|0:0,0:0:0:0:
296,109,124442,2,0,P|265:127|208:118,1,70,2|2,0:0|0:0,0:0:0:0:
165,76,124812,1,0,0:0:0:0:
81,67,124997,1,2,0:0:0:0:
20,126,125183,2,0,L|36:207,1,70,10|2,0:2|1:2,0:0:0:0:
117,197,125553,2,0,L|101:278,1,70,2|10,0:0|0:2,0:0:0:0:
39,320,125923,6,0,B|88:293|88:293|197:317,1,140,2|2,1:2|0:0,0:0:0:0:
248,279,126479,1,2,1:2:0:0:
297,346,126664,2,0,P|340:354|376:338,1,70,8|2,0:2|0:0,0:0:0:0:
443,372,127034,2,0,P|403:293|407:216,1,140,2|2,1:2|0:0,0:0:0:0:
464,187,127590,1,2,0:0:0:0:
490,107,127775,1,0,0:0:0:0:
446,35,127960,1,2,0:0:0:0:
362,24,128145,2,0,L|270:33,1,70,10|2,0:2|0:0,0:0:0:0:
263,110,128516,2,0,L|355:119,1,70,2|2,0:0|0:0,0:0:0:0:
381,185,128886,6,0,P|336:214|297:301,1,140,2|2,1:2|0:0,0:0:0:0:
243,353,129442,1,2,1:2:0:0:
177,300,129627,2,0,P|136:293|76:296,1,70,8|2,0:2|0:0,0:0:0:0:
51,354,129997,2,0,P|26:282|68:220,1,140,2|2,1:2|0:0,0:0:0:0:
129,191,130553,2,0,P|136:140|137:104,1,70,2|0,1:2|0:0,0:0:0:0:
206,72,130923,1,8,0:2:0:0:
206,72,131016,1,8,0:2:0:0:
206,72,131108,2,0,P|263:82|295:84,1,70,8|0,0:2|1:2,0:0:0:0:
335,141,131479,2,0,P|389:140|429:131,1,70,0|8,1:2|0:2,0:0:0:0:
470,85,131849,6,0,P|450:164|460:236,1,140,0|2,1:2|1:2,0:0:0:0:
351,354,132590,6,0,P|284:305|224:313,1,140,2|0,1:2|0:0,0:0:0:0:
164,361,133146,1,2,1:2:0:0:
154,277,133331,2,0,P|158:225|164:190,1,70,8|0,0:2|0:0,0:0:0:0:
113,137,133702,1,2,0:0:0:0:
169,74,133887,2,0,P|228:93|317:72,1,140,0|0,1:2|0:0,0:0:0:0:
371,29,134442,2,0,P|389:87|380:121,1,70,2|0,1:2|1:2,0:0:0:0:
454,146,134813,2,0,P|423:171|378:176,1,70,10|0,0:2|1:2,0:0:0:0:
380,260,135183,2,0,P|327:230|314:193,1,70,2|0,0:0|0:0,0:0:0:0:
243,115,135553,6,0,B|181:122|181:181|113:169,1,140,2|0,1:2|0:0,0:0:0:0:
41,136,136109,1,2,1:2:0:0:
50,219,136294,2,0,L|66:302,1,70,8|0,0:2|0:0,0:0:0:0:
29,365,136665,2,0,P|66:312|147:307,1,140,2|0,0:0|0:0,0:0:0:0:
207,257,137220,1,0,0:0:0:0:
254,325,137405,2,0,P|298:333|341:326,1,70,2|0,1:2|1:2,0:0:0:0:
406,338,137776,2,0,P|430:292|439:262,1,70,10|0,0:2|1:2,0:0:0:0:
505,228,138146,2,0,P|493:181|480:143,1,70,10|0,0:2|0:0,0:0:0:0:
512,26,138516,6,0,P|452:53|372:46,1,140,2|0,1:2|0:0,0:0:0:0:
297,26,139072,2,0,P|300:83|324:112,1,70,2|8,1:2|0:2,0:0:0:0:
363,154,139442,1,2,0:0:0:0:
294,203,139628,2,0,L|209:191,1,70,2|0,0:0|1:2,0:0:0:0:
163,136,139998,2,0,L|81:145,1,70,0|0,0:0|0:0,0:0:0:0:
33,202,140368,2,0,P|34:248|52:276,1,70,2|0,1:2|1:2,0:0:0:0:
38,352,140739,2,0,P|86:341|126:357,1,70,10|0,0:2|1:2,0:0:0:0:
170,292,141109,2,0,P|206:307|243:300,1,70,2|0,0:0|0:0,0:0:0:0:
310,204,141479,6,0,B|391:207|366:263|445:246,1,140,2|0,1:2|0:0,0:0:0:0:
501,192,142035,1,2,1:2:0:0:
474,112,142220,2,0,L|404:140,1,70,8|0,0:2|0:0,0:0:0:0:
335,95,142591,2,0,P|288:56|210:70,1,140,2|0,0:0|0:0,0:0:0:0:
130,62,143146,2,0,L|140:113,4,35,8|8|8|8|8,0:2|0:2|0:2|0:2|0:2,0:0:0:0:
62,155,143702,1,8,0:2:0:0:
62,155,143794,1,8,0:2:0:0:
62,155,143887,1,0,1:2:0:0:
125,237,144072,2,0,L|116:305,3,35,8|8|8|8,0:2|0:2|0:2|0:2,0:0:0:0:
98,307,144442,6,0,P|138:307|230:356,1,140,2|0,1:2|0:0,0:0:0:0:
279,286,144998,1,0,1:2:0:0:
351,328,145183,2,0,P|392:334|426:330,1,70,8|0,0:2|0:0,0:0:0:0:
477,269,145553,1,2,0:0:0:0:
424,195,145739,1,0,1:2:0:0:
464,114,145924,2,0,P|462:49|388:18,1,140,2|2,0:0|1:2,0:0:0:0:
316,52,146479,1,0,1:2:0:0:
235,77,146665,2,0,P|173:66|146:65,1,70,10|0,0:2|1:2,0:0:0:0:
88,97,147035,2,0,P|75:144|76:172,1,70,2|0,0:0|0:0,0:0:0:0:
0,252,147405,6,0,P|59:241|142:282,1,140,2|0,1:2|0:0,0:0:0:0:
206,232,147961,1,0,1:2:0:0:
207,315,148146,2,0,P|177:344|140:356,1,70,10|0,0:2|0:0,0:0:0:0:
284,276,148516,2,0,P|295:316|289:350,1,70,2|0,0:0|1:2,0:0:0:0:
206,232,148887,2,0,P|178:164|220:106,1,140,2|2,0:0|1:2,0:0:0:0:
293,101,149442,1,0,1:2:0:0:
363,146,149628,1,10,0:2:0:0:
355,229,149813,1,0,1:2:0:0:
284,276,149998,2,0,L|296:365,1,70,10|0,0:2|0:0,0:0:0:0:
458,327,150368,6,0,L|434:174,1,140,2|0,1:2|0:0,0:0:0:0:
363,146,150924,1,0,1:2:0:0:
437,103,151109,2,0,P|478:110|508:140,1,70,8|0,0:2|0:0,0:0:0:0:
391,26,151479,1,0,0:0:0:0:
316,65,151665,2,0,L|153:48,1,140,0|0,1:2|0:0,0:0:0:0:
99,82,152220,1,0,1:2:0:0:
117,163,152405,1,0,1:2:0:0:
56,220,152590,1,10,0:2:0:0:
74,302,152776,2,0,P|134:316|220:356,1,140,0|0,1:2|0:0,0:0:0:0:
337,373,153331,6,0,P|348:319|346:298,1,70,2|0,1:2|0:0,0:0:0:0:
287,234,153702,1,2,0:0:0:0:
349,156,153887,1,2,1:2:0:0:
295,72,154072,2,0,L|199:73,1,70,8|2,0:0|0:0,0:0:0:0:
146,104,154442,2,0,P|128:150|139:177,1,70,10|0,0:0|1:2,0:0:0:0:
73,228,154813,1,2,0:0:0:0:
151,257,154998,2,0,P|192:297|240:380,1,140,10|8,0:2|0:2,0:0:0:0:
302,317,155553,2,0,P|335:324|370:341,1,70,8|0,0:2|1:2,0:0:0:0:
402,264,155924,1,8,0:2:0:0:
492,329,156109,1,8,0:2:0:0:
492,329,156202,1,8,0:2:0:0:
492,329,156294,6,0,P|481:276|486:161,1,140,2|0,1:2|0:0,0:0:0:0:
497,107,156850,1,2,1:2:0:0:
434,51,157035,2,0,P|392:55|356:78,1,70,8|0,0:2|0:0,0:0:0:0:
309,127,157405,1,2,0:0:0:0:
238,82,157590,2,0,B|162:78|185:155|87:134,1,140,0|0,1:2|0:0,0:0:0:0:
54,79,158146,1,2,1:2:0:0:
7,148,158331,1,0,1:2:0:0:
65,208,158516,2,0,P|70:266|58:291,1,70,10|0,0:0|1:0,0:0:0:0:
52,360,158887,2,0,P|96:351|131:365,1,70,2|0,0:0|0:0,0:0:0:0:
217,300,159257,6,0,P|303:315|346:378,1,140,2|0,1:2|0:0,0:0:0:0:
411,310,159813,2,0,P|384:226|384:157,1,140,2|0,1:2|0:0,0:0:0:0:
439,113,160368,1,2,0:0:0:0:
362,77,160553,2,0,P|317:101|292:184,1,140,0|0,1:2|0:0,0:0:0:0:
233,243,161109,2,0,P|273:269|316:266,1,70,2|0,1:2|1:2,0:0:0:0:
348,335,161479,2,0,P|388:304|399:269,1,70,10|0,0:2|1:2,0:0:0:0:
485,297,161850,2,0,P|482:245|469:214,1,70,10|0,0:2|0:0,0:0:0:0:
486,76,162220,6,0,B|410:78|432:128|351:120,1,140,2|0,1:2|0:0,0:0:0:0:
273,118,162776,1,2,1:2:0:0:
196,83,162961,2,0,L|190:1,1,70,8|2,0:2|0:0,0:0:0:0:
107,23,163331,1,2,0:0:0:0:
24,38,163516,2,0,L|37:186,1,140,0|0,1:2|0:0,0:0:0:0:
85,246,164072,1,2,1:2:0:0:
168,256,164257,1,0,1:2:0:0:
218,188,164442,1,10,0:2:0:0:
302,183,164628,2,0,P|331:225|304:313,1,140,0|0,1:2|0:0,0:0:0:0:
199,309,165183,6,0,P|135:250|70:254,1,140,2|0,1:2|0:0,0:0:0:0:
59,329,165739,1,2,1:2:0:0:
0,265,165924,2,0,P|0:211|6:183,1,70,8|0,0:2|0:0,0:0:0:0:
70,150,166294,1,2,0:0:0:0:
129,88,166479,2,0,P|138:47|140:7,1,70,0|0,1:2|0:0,0:0:0:0:
228,53,166850,2,0,P|251:52|283:37,4,35,8|8|8|8|8,0:2|0:2|0:2|0:2|0:2,0:0:0:0:
338,10,167405,1,8,0:2:0:0:
338,10,167498,1,8,0:2:0:0:
338,10,167590,1,0,1:2:0:0:
408,55,167776,2,0,P|440:58|465:55,3,35,8|8|8|8,0:2|0:2|0:2|0:2,0:0:0:0:
484,48,168146,6,0,P|458:102|474:194,1,140,2|0,1:2|0:0,0:0:0:0:
394,223,168702,1,0,1:2:0:0:
410,305,168887,2,0,P|458:326|495:324,1,70,8|0,0:2|0:0,0:0:0:0:
394,223,169257,2,0,P|337:218|302:242,1,70,2|0,0:0|1:2,0:0:0:0:
263,278,169628,2,0,P|208:288|156:221,1,140,2|2,0:0|1:2,0:0:0:0:
195,155,170183,1,0,1:2:0:0:
142,89,170368,2,0,L|71:102,1,70,10|0,0:2|1:2,0:0:0:0:
193,22,170739,2,0,L|277:28,1,70,2|0,0:0|0:0,0:0:0:0:
396,75,171109,6,0,P|346:97|332:203,1,140,2|0,1:2|0:0,0:0:0:0:
365,245,171665,1,0,1:2:0:0:
448,252,171850,2,0,L|536:234,1,70,10|0,0:2|0:0,0:0:0:0:
365,245,172220,2,0,L|271:258,1,70,2|0,0:0|1:2,0:0:0:0:
206,309,172590,2,0,P|248:243|218:159,1,140,2|2,0:0|1:2,0:0:0:0:
217,103,173146,1,0,1:2:0:0:
156,161,173331,1,10,0:2:0:0:
72,157,173516,1,0,1:2:0:0:
19,91,173702,2,0,L|27:16,1,70,10|0,0:2|0:0,0:0:0:0:
72,157,174072,6,0,P|87:214|51:303,1,140,2|0,1:2|0:0,0:0:0:0:
11,356,174628,1,0,1:2:0:0:
93,369,174813,2,0,L|167:374,1,70,8|0,0:2|0:0,0:0:0:0:
246,376,175183,1,0,0:0:0:0:
206,301,175368,1,0,1:2:0:0:
267,244,175553,2,0,P|266:204|174:156,1,140,2|0,0:0|1:2,0:0:0:0:
108,175,176109,1,0,1:2:0:0:
41,124,176294,2,0,P|26:52|88:16,1,140,10|0,0:2|0:0,0:0:0:0:
157,21,176850,1,0,0:0:0:0:
227,66,177035,6,0,P|280:65|317:50,1,70,2|0,1:2|0:0,0:0:0:0:
374,89,177405,2,0,P|405:64|430:36,1,70,0|0,0:0|1:2,0:0:0:0:
505,104,177776,2,0,P|470:145|442:162,1,70,10|0,0:2|0:0,0:0:0:0:
446,249,178146,2,0,P|382:248|358:238,1,70,8|0,0:0|1:2,0:0:0:0:
305,202,178516,6,0,P|248:203|221:219,1,70,2|8,0:0|0:2,0:0:0:0:
180,272,178887,1,8,0:2:0:0:
180,272,178979,1,8,0:2:0:0:
180,272,179072,1,8,0:2:0:0:
106,216,179257,2,0,L|114:130,1,70,8|0,0:2|1:2,0:0:0:0:
120,104,179535,1,0,1:2:0:0:
120,104,179628,2,0,L|69:100,3,35,8|8|8|8,0:2|0:2|0:2|0:2,0:0:0:0:
85,59,179998,6,0,L|242:70,1,140,2|2,1:2|0:0,0:0:0:0:
302,38,180553,2,0,P|272:82|286:172,1,140,2|2,1:2|0:0,0:0:0:0:
349,214,181109,2,0,P|382:198|412:174,1,70,2|0,1:2|0:0,0:0:0:0:
451,249,181479,2,0,P|423:270|391:285,1,70,10|2,0:2|0:0,0:0:0:0:
337,350,181850,1,0,0:0:0:0:
262,312,182035,1,0,1:2:0:0:
179,299,182220,2,0,L|145:370,1,70,10|2,0:2|0:0,0:0:0:0:
64,365,182590,2,0,L|33:301,1,70,2|2,0:0|0:0,0:0:0:0:
129,214,182961,6,0,P|208:202|265:253,1,140,2|2,1:2|0:0,0:0:0:0:
325,277,183516,2,0,P|296:218|302:142,1,140,2|2,1:2|0:0,0:0:0:0:
358,83,184072,2,0,P|413:100|429:116,1,70,2|0,1:2|0:0,0:0:0:0:
504,119,184442,2,0,P|482:166|441:185,1,70,10|2,0:2|0:0,0:0:0:0:
423,247,184813,1,0,0:0:0:0:
347,209,184998,1,2,0:0:0:0:
266,232,185183,2,0,P|251:285|252:321,1,70,10|2,0:2|1:2,0:0:0:0:
169,321,185553,2,0,P|165:286|153:253,1,70,2|2,0:0|1:2,0:0:0:0:
84,204,185924,6,0,P|143:206|205:140,1,140,2|2,1:2|0:0,0:0:0:0:
188,71,186479,2,0,B|276:61|241:130|342:109,1,140,2|2,1:2|0:0,0:0:0:0:
395,84,187035,2,0,P|390:31|376:8,1,70,2|0,1:2|0:0,0:0:0:0:
459,144,187405,6,0,P|439:197|448:222,1,70,10|2,0:2|0:0,0:0:0:0:
470,286,187776,1,0,0:0:0:0:
408,343,187961,1,2,1:2:0:0:
332,306,188146,2,0,L|252:317,1,70,10|2,0:2|0:0,0:0:0:0:
200,372,188516,2,0,L|130:362,1,70,2|2,0:0|0:0,0:0:0:0:
60,315,188887,5,2,1:2:0:0:
33,235,189072,1,0,1:2:0:0:
86,170,189257,1,0,1:2:0:0:
69,87,189442,1,8,0:2:0:0:
235,62,189813,1,8,0:2:0:0:
235,62,189905,1,8,0:2:0:0:
235,62,189998,1,8,0:2:0:0:
252,144,190183,1,0,1:2:0:0:
320,192,190368,1,0,1:2:0:0:
300,273,190553,6,0,P|236:303|169:264,1,140,0|0,1:2|1:2,0:0:0:0:
120,220,191109,1,8,0:2:0:0:
61,279,191294,1,0,1:2:0:0:
11,211,191479,1,8,0:2:0:0:
69,149,191665,1,12,0:2:0:0:
