osu file format v14

[General]
AudioFilename: audio.mp3
AudioLeadIn: 0
PreviewTime: 648
Countdown: 0
SampleSet: Soft
StackLeniency: 0.7
Mode: 0
LetterboxInBreaks: 0
WidescreenStoryboard: 0

[Editor]
DistanceSpacing: 1
BeatDivisor: 4
GridSize: 4
TimelineZoom: 2.3

[Metadata]
Title:2019 Guy
TitleUnicode:2019 Guy
Artist:The Gentle Men
ArtistUnicode:The Gentle Men
Creator:-Keitaro
Version:2019
Source:
Tags:cr1tikal Troy McKubre charlie english rock solstate
BeatmapID:2260859
BeatmapSetID:1080671

[Difficulty]
HPDrainRate:6
CircleSize:4
OverallDifficulty:8
ApproachRate:8.5
SliderMultiplier:1.6
SliderTickRate:1

[Events]
//Background and Video events
0,0,"maxresdefault.jpg",0,0
Video,-476,"2019.mp4"
//Break Periods
2,84643,95219
2,117604,119322
//Storyboard Layer 0 (Background)
//Storyboard Layer 1 (Fail)
//Storyboard Layer 2 (Pass)
//Storyboard Layer 3 (Foreground)
//Storyboard Layer 4 (Overlay)
//Storyboard Sound Samples

[TimingPoints]
741,370.37037037037,4,2,1,50,1,0
12592,-200,4,2,1,50,0,0
24444,-100,4,2,1,60,0,0
36296,-133.333333333333,4,2,1,45,0,0
48148,-90.9090909090909,4,2,1,55,0,0
60740,370.37037037037,4,2,1,70,1,1
84443,-100,4,2,1,50,0,0
95894,401.33779264214,4,2,1,50,1,0
96295,362.537764350453,4,2,1,50,1,0
96295,-200,4,2,1,50,0,0
97745,352.941176470588,4,2,1,50,1,0
97745,-200,4,2,1,50,0,0
98450,363.086232980333,4,2,1,50,1,0
98450,-200,4,2,1,50,0,0
99176,378.310214375788,4,2,1,50,1,0
99176,-200,4,2,1,50,0,0
100689,368.098159509202,4,2,1,50,1,0
100689,-200,4,2,1,50,0,0
101425,346.820809248555,4,2,1,50,1,0
101425,-200,4,2,1,50,0,0
101945,433.212996389892,4,2,1,50,1,0
102161,385.232744783307,4,2,1,50,1,0
102161,-200,4,2,1,50,0,0
102931,370.37037037037,4,2,1,50,1,0
102931,-200,4,2,1,50,0,0
102962,-200,4,2,1,50,0,0
103486,433.212996389892,4,2,1,50,1,0
103702,339.943342776204,4,2,1,50,1,0
103702,-200,4,2,1,50,0,0
104041,385.852090032154,4,2,1,50,1,0
104041,-200,4,2,1,50,0,0
104812,370.37037037037,4,2,1,50,1,0
104812,-200,4,2,1,50,0,0
107260,370.37037037037,4,2,1,50,1,0
107260,-200,4,2,1,50,0,0
107445,394.736842105263,4,2,1,50,1,0
107445,-200,4,2,1,50,0,0
108184,370.37037037037,4,2,1,50,1,0
108184,-200,4,2,1,50,0,0
109627,370.37037037037,4,2,1,50,1,0
109627,-200,4,2,1,50,0,0
119997,-90.9090909090909,4,2,1,55,0,0
132591,370.37037037037,4,2,1,70,1,1
179998,-100,4,2,1,55,0,0

[Colours]
Combo1 : 134,134,134
Combo2 : 0,128,255
Combo3 : 16,160,216
Combo4 : 182,182,182

[HitObjects]
53,31,12222,5,2,0:2:0:0:
53,31,12592,2,0,P|82:85|86:113,1,80,2|0,0:2|0:0,0:0:0:0:
160,126,13333,2,0,P|156:165|140:202,1,80,2|0,0:2|0:0,0:0:0:0:
41,180,14074,6,0,L|-3:175,1,40,2|2,0:2|0:2,0:0:0:0:
67,261,14444,2,0,L|23:256,1,40,2|2,0:2|0:2,0:0:0:0:
99,336,14815,2,0,L|7:330,1,80,2|2,0:2|0:2,0:0:0:0:
256,379,15555,6,0,P|269:334|262:294,1,80,2|0,0:2|0:0,0:0:0:0:
351,303,16296,2,0,P|336:248|310:225,1,80,2|0,0:2|0:0,0:0:0:0:
455,23,17037,6,0,P|468:77|472:107,1,80,2|2,0:2|0:2,0:0:0:0:
425,170,17778,2,0,P|431:195|438:212,2,40,2|2|2,0:2|0:2|0:2,0:0:0:0:
280,21,18518,6,0,P|245:22|205:60,1,80,2|0,0:2|0:0,0:0:0:0:
127,24,19259,2,0,P|122:61|143:108,1,80,2|2,0:2|0:2,0:0:0:0:
265,172,20000,2,0,L|346:164,1,80,2|2,0:2|0:2,0:0:0:0:
409,116,20555,2,0,P|396:155|427:224,1,120,2|2,0:2|0:2,0:0:0:0:
24,354,23518,5,8,0:2:0:0:
24,354,23611,1,8,0:2:0:0:
24,354,23703,1,10,0:2:0:0:
86,304,23889,1,2,1:2:0:0:
35,239,24074,6,0,P|33:194|32:170,1,60,10|0,0:2|0:0,0:0:0:0:
36,186,24444,6,0,B|111:207|90:132|195:155,1,160,2|0,1:2|0:0,0:0:0:0:
160,235,25000,1,0,1:2:0:0:
48,106,25185,2,0,B|35:67|35:67|46:29,1,80,10|0,0:2|0:0,0:0:0:0:
205,66,25555,2,0,L|114:68,1,80,0|0,0:0|1:2,0:0:0:0:
316,17,25926,5,2,0:0:0:0:
290,185,26111,1,2,0:0:0:0:
456,128,26296,2,0,P|408:113|365:131,1,80,2|0,1:2|1:2,0:0:0:0:
233,249,26666,2,0,B|277:289|337:261|337:261|362:224|401:220,1,160,10|2,0:2|1:2,0:0:0:0:
409,301,27222,1,2,0:0:0:0:
290,185,27407,6,0,P|283:142|303:103,1,80,2|0,1:2|0:0,0:0:0:0:
448,9,27778,1,0,0:0:0:0:
361,156,27963,1,0,1:2:0:0:
207,77,28148,2,0,B|117:75|140:147|54:121,1,160,10|0,0:2|0:0,0:0:0:0:
203,175,28703,1,0,1:2:0:0:
76,35,28889,5,2,0:0:0:0:
99,219,29074,1,2,0:0:0:0:
288,103,29259,2,0,P|292:57|271:23,1,80,2|0,1:2|1:2,0:0:0:0:
454,203,29629,2,0,B|372:188|397:268|300:240,1,160,10|2,0:2|1:2,0:0:0:0:
453,294,30185,1,0,0:0:0:0:
235,348,30370,6,0,P|229:290|316:243,1,160,2|0,1:2|0:0,0:0:0:0:
374,345,30926,1,0,1:2:0:0:
328,159,31111,2,0,L|235:165,1,80,10|0,0:2|0:0,0:0:0:0:
155,342,31481,2,0,L|248:348,1,80,2|0,1:2|0:0,0:0:0:0:
32,194,31852,6,0,B|16:308|16:308|46:355,1,160,2|2,1:2|1:2,0:0:0:0:
223,264,32407,1,2,1:2:0:0:
117,138,32592,2,0,L|109:222,1,80,8|0,0:2|0:0,0:0:0:0:
315,180,32963,2,0,L|305:42,1,120,2|0,1:2|0:0,0:0:0:0:
328,44,33333,6,0,B|239:68|258:1|158:30,1,160,0|0,0:0|1:2,0:0:0:0:
199,122,33889,1,0,1:2:0:0:
400,3,34074,2,0,P|411:53|392:91,1,80,8|0,0:2|0:0,0:0:0:0:
315,180,34444,1,0,0:0:0:0:
488,255,34629,6,0,B|403:253|427:317|328:299,1,160,0|0,1:2|0:0,0:0:0:0:
486,143,35185,1,0,1:2:0:0:
315,180,35370,1,8,0:2:0:0:
295,183,35463,1,8,0:2:0:0:
275,186,35555,1,8,0:2:0:0:
401,78,35740,1,0,1:2:0:0:
175,0,35926,2,0,L|186:94,1,80,8|0,0:2|0:0,0:0:0:0:
401,78,36296,6,0,B|406:197|406:197|465:191|465:191|386:358|386:358|284:205|284:205|337:201|337:201|331:74,1,720.000027465821,4|0,3:2|3:2,0:0:0:0:
331,81,38889,1,0,3:2:0:0:
88,367,39259,6,0,B|83:248|83:248|24:254|24:254|103:87|103:87|205:240|205:240|152:244|152:244|158:371,1,720.000027465821,4|0,3:2|3:2,0:0:0:0:
157,363,41852,1,0,3:2:0:0:
511,208,42222,6,0,P|467:144|424:151,1,120.000004577637,4|0,3:2|3:2,0:0:0:0:
365,95,42963,2,0,P|332:143|335:207,1,120.000004577637,0|0,3:2|3:2,0:0:0:0:
269,264,43703,2,0,P|327:295|386:303,1,120.000004577637,0|0,3:2|3:2,0:0:0:0:
459,261,44444,1,0,3:2:0:0:
164,97,44815,2,0,L|105:104,1,60.0000022888184,0|0,3:2|0:0,0:0:0:0:
15,51,45185,6,0,L|23:134,1,60.0000022888184,4|0,3:2|3:2,0:0:0:0:
72,176,45555,2,0,L|64:259,1,60.0000022888184,0|0,3:2|3:2,0:0:0:0:
104,21,45926,2,0,L|112:104,1,60.0000022888184,0|0,3:2|3:2,0:0:0:0:
160,212,46296,2,0,L|152:295,1,60.0000022888184,0|0,3:2|3:2,0:0:0:0:
265,36,46666,5,0,1:2:0:0:
255,192,46852,1,0,1:2:0:0:
369,57,47037,1,0,1:2:0:0:
165,16,47222,1,0,1:2:0:0:
298,275,47407,5,8,0:2:0:0:
298,275,48148,6,0,L|417:286,1,88.000002685547,2|2,1:2|0:0,0:0:0:0:
261,175,48518,1,2,0:0:0:0:
200,250,48703,2,0,P|196:307|222:353,1,88.000002685547,2|8,1:2|0:2,0:0:0:0:
335,109,49074,1,2,0:0:0:0:
261,175,49259,2,0,L|144:166,1,88.000002685547,2|0,1:2|0:0,0:0:0:0:
0,153,49629,5,2,0:0:0:0:
73,16,49815,2,0,L|78:204,1,176.000005371094,2|2,0:0|0:0,0:0:0:0:
81,373,50370,1,10,0:2:0:0:
173,133,50555,1,2,0:0:0:0:
0,279,50740,1,2,0:0:0:0:
218,366,50926,1,2,0:0:0:0:
87,145,51111,6,0,L|-13:154,1,88.000002685547,2|2,1:2|0:0,0:0:0:0:
206,5,51481,1,2,0:0:0:0:
286,46,51666,2,0,P|305:113|288:157,1,88.000002685547,2|8,1:2|0:2,0:0:0:0:
204,0,52037,1,2,0:0:0:0:
163,198,52222,6,0,B|260:191|224:282|344:261,1,176.000005371094,2|2,1:2|0:0,0:0:0:0:
462,166,52778,2,0,P|440:124|389:110,1,88.000002685547,2|0,0:0|0:0,0:0:0:0:
294,143,53148,1,2,0:0:0:0:
401,222,53333,5,10,0:2:0:0:
204,121,53518,1,2,1:2:0:0:
404,109,53703,1,2,0:0:0:0:
317,264,53889,1,10,0:2:0:0:
292,0,54074,6,0,L|284:114,1,88.000002685547,2|2,1:2|0:0,0:0:0:0:
274,241,54444,1,2,0:0:0:0:
404,109,54629,2,0,P|450:123|485:148,1,88.000002685547,2|8,1:2|0:2,0:0:0:0:
268,267,55000,1,2,0:0:0:0:
179,175,55185,6,0,B|92:178|100:258|-6:239,1,176.000005371094,2|2,1:2|0:0,0:0:0:0:
176,293,55740,1,2,0:0:0:0:
28,144,55926,2,0,P|27:94|41:50,1,88.000002685547,0|2,0:0|0:0,0:0:0:0:
254,0,56296,1,10,0:2:0:0:
179,175,56481,1,2,0:0:0:0:
136,24,56666,1,2,0:0:0:0:
291,151,56852,1,2,0:0:0:0:
116,229,57037,6,0,P|98:165|118:124,1,88.000002685547,2|2,1:2|0:0,0:0:0:0:
215,85,57407,1,2,0:0:0:0:
159,333,57592,2,0,L|43:321,1,88.000002685547,2|8,1:2|0:2,0:0:0:0:
219,230,57963,1,2,0:0:0:0:
346,362,58148,6,0,B|390:320|377:268|311:281|361:169,1,176.000005371094,2|2,1:2|0:0,0:0:0:0:
508,162,58703,2,0,P|483:202|440:202,1,88.000002685547,2|0,1:2|0:0,0:0:0:0:
256,80,59074,5,8,0:2:0:0:
252,44,59166,1,8,0:2:0:0:
248,9,59259,1,8,0:2:0:0:
349,150,59444,5,0,1:2:0:0:
262,165,59629,1,0,1:2:0:0:
176,181,59815,1,8,0:2:0:0:
39,25,60000,6,0,L|53:171,1,132.00000402832,0|0,1:2|0:0,0:0:0:0:
72,172,60370,2,0,L|60:324,1,132.00000402832,2|0,1:2|0:0,0:0:0:0:
0,346,60740,6,0,B|69:332|69:332|102:353|102:353|171:338,1,160,2|0,1:2|0:0,0:0:0:0:
305,301,61295,1,2,1:2:0:0:
233,277,61480,2,0,P|230:328|258:364,1,80,8|0,0:2|0:0,0:0:0:0:
429,208,61851,2,0,B|351:228|386:292|286:303,1,160,2|0,0:0|0:0,0:0:0:0:
453,358,62406,1,0,0:0:0:0:
289,208,62591,6,0,P|289:159|320:118,1,80,2|0,1:2|1:2,0:0:0:0:
452,91,62962,2,0,P|409:115|358:109,1,80,10|0,0:2|1:2,0:0:0:0:
269,10,63332,2,0,P|311:34|331:81,1,80,2|0,0:0|0:0,0:0:0:0:
493,241,63702,6,0,B|390:239|419:310|318:281,1,160,2|0,1:2|0:0,0:0:0:0:
186,201,64258,1,2,1:2:0:0:
232,349,64443,2,0,P|245:289|223:257,1,80,8|0,0:2|0:0,0:0:0:0:
46,294,64814,2,0,B|172:308|172:308|122:334,1,160,2|0,0:0|0:0,0:0:0:0:
30,384,65369,1,0,0:0:0:0:
119,84,65554,5,2,1:2:0:0:
172,308,65740,1,0,1:2:0:0:
46,152,65925,1,10,0:2:0:0:
30,384,66110,1,0,1:2:0:0:
229,181,66295,2,0,P|168:167|124:182,1,80,10|0,0:2|0:0,0:0:0:0:
306,0,66665,6,0,B|317:62|317:62|306:82|306:82|319:162,1,160,2|0,1:2|0:0,0:0:0:0:
408,191,67221,2,0,P|417:141|392:99,1,80,2|8,1:2|0:2,0:0:0:0:
321,250,67591,1,2,0:0:0:0:
392,317,67777,2,0,L|482:304,1,80,2|0,0:0|1:2,0:0:0:0:
321,250,68147,2,0,L|230:238,1,80,0|0,0:0|0:0,0:0:0:0:
151,142,68517,5,2,1:2:0:0:
125,320,68702,1,0,1:2:0:0:
10,207,68888,2,0,P|54:212|84:248,1,80,10|0,0:2|1:2,0:0:0:0:
219,113,69258,2,0,P|175:118|145:154,1,80,2|0,0:0|0:0,0:0:0:0:
4,2,69628,6,0,B|107:-9|57:68|169:48,1,160,2|0,1:2|0:0,0:0:0:0:
246,11,70184,1,2,1:2:0:0:
228,191,70369,2,0,P|215:147|224:100,1,80,8|0,0:2|0:0,0:0:0:0:
370,0,70739,2,0,P|373:39|360:77,1,80,2|0,0:0|1:2,0:0:0:0:
228,191,71110,5,0,0:0:0:0:
294,247,71295,1,8,0:2:0:0:
321,242,71388,1,8,0:2:0:0:
349,238,71480,1,8,0:2:0:0:
376,233,71573,1,8,0:2:0:0:
404,229,71665,1,8,0:2:0:0:
487,364,71851,5,8,0:2:0:0:
448,357,71943,1,8,0:2:0:0:
414,350,72036,1,0,1:2:0:0:
400,352,72128,1,0,1:2:0:0:
388,356,72221,1,8,0:2:0:0:
361,326,72314,1,8,0:2:0:0:
355,287,72406,1,8,0:2:0:0:
371,251,72499,1,8,0:2:0:0:
402,229,72591,6,0,B|438:153|362:166|409:64,1,160,2|0,1:2|0:0,0:0:0:0:
483,31,73147,1,0,1:2:0:0:
333,188,73332,2,0,P|276:193|241:165,1,80,8|0,0:2|0:0,0:0:0:0:
123,114,73702,2,0,P|180:109|215:137,1,80,2|0,0:0|1:2,0:0:0:0:
41,319,74073,6,0,L|25:222,1,80,2|0,0:0|0:0,0:0:0:0:
157,188,74443,1,2,1:2:0:0:
123,340,74628,1,0,1:2:0:0:
5,155,74814,2,0,P|66:157|103:194,1,80,10|0,0:2|1:2,0:2:0:0:
315,104,75184,2,8,P|254:106|217:143,1,80,2|0,0:2|0:2,0:2:0:0:
301,351,75554,6,0,P|300:302|286:164,1,160,2|0,1:2|0:0,0:0:0:0:
144,107,76110,1,0,1:2:0:0:
235,16,76295,2,0,P|280:23|330:32,1,80,10|0,0:2|0:0,0:0:0:0:
442,162,76665,2,0,P|397:169|347:178,1,80,2|0,0:0|1:2,0:0:0:0:
156,261,77036,6,0,B|245:251|195:324|310:308,1,160,2|2,0:0|1:2,0:0:0:0:
378,246,77591,1,0,1:2:0:0:
136,156,77777,1,10,0:2:0:0:
189,384,77962,1,0,1:2:0:0:
292,89,78147,2,0,P|249:90|208:114,1,80,10|0,0:2|0:0,0:0:0:0:
40,228,78517,6,0,B|21:221|1:217|1:217|61:206|110:257,1,160,2|0,1:2|0:0,0:0:0:0:
189,384,79073,1,0,1:2:0:0:
307,205,79258,2,0,P|248:200|215:225,1,80,8|0,0:2|0:0,0:0:0:0:
355,355,79628,2,0,L|368:267,1,80,0|0,0:0|1:2,0:0:0:0:
453,102,79999,6,0,L|464:208,1,80,2|0,0:0|0:0,0:0:0:0:
263,332,80369,1,0,1:2:0:0:
473,384,80554,1,0,1:2:0:0:
307,205,80739,1,10,0:2:0:0:
371,384,80925,2,0,L|388:198,1,160,0|0,1:2|0:0,0:0:0:0:
268,7,81480,6,0,L|282:103,1,80,2|0,1:2|0:0,0:0:0:0:
478,265,81851,2,0,L|489:185,1,80,0|0,0:0|1:2,0:0:0:0:
166,45,82221,6,0,L|180:141,1,80,10|0,0:2|0:0,0:0:0:0:
376,303,82591,2,0,L|387:223,1,80,0|0,0:0|1:2,0:0:0:0:
4,152,82962,5,2,0:0:0:0:
79,356,83147,5,8,0:2:0:0:
80,323,83239,1,8,0:2:0:0:
82,290,83332,1,8,0:2:0:0:
83,258,83425,1,8,0:2:0:0:
85,225,83517,1,8,0:2:0:0:
187,356,83702,5,8,0:2:0:0:
184,323,83795,1,8,0:2:0:0:
180,291,83888,1,0,1:2:0:0:
189,285,83980,1,0,1:2:0:0:
197,282,84073,1,8,0:2:0:0:
192,243,84165,1,8,0:2:0:0:
187,204,84258,1,8,0:2:0:0:
182,166,84351,1,8,0:2:0:0:
177,126,84443,1,0,1:2:0:0:
48,35,95894,5,2,0:2:0:0:
120,70,96295,2,0,P|110:106|64:137,1,80,2|0,0:2|0:0,0:0:0:0:
116,219,97020,2,0,P|61:229|33:219,1,80,2|0,0:2|0:0,0:0:0:0:
194,366,97745,6,0,L|191:312,1,40,2|2,0:2|0:2,0:0:0:0:
270,361,98097,2,0,L|267:307,1,40,2|2,0:2|0:2,0:0:0:0:
348,373,98450,2,0,L|342:283,1,80,2|2,0:2|0:2,0:0:0:0:
505,13,99176,6,0,P|488:42|432:52,1,80,2|0,0:2|0:0,0:0:0:0:
450,138,99932,2,0,P|400:134|380:98,1,80,2|0,0:2|0:0,0:0:0:0:
248,21,100689,2,0,P|264:46|257:104,1,80,2|2,0:2|0:2,0:0:0:0:
313,159,101425,2,0,P|280:190|237:187,1,80,2|2,0:2|0:2,0:0:0:0:
220,174,101945,1,2,0:2:0:0:
186,156,102161,6,0,P|153:144|107:170,1,80,2|0,0:2|0:0,0:0:0:0:
26,139,102931,2,0,P|22:179|52:223,1,80,2|2,0:2|0:2,0:0:0:0:
35,249,103486,1,2,0:2:0:0:
30,298,103702,2,0,P|72:299|103:261,1,80,2|2,0:2|0:2,0:0:0:0:
138,261,104233,2,0,P|118:301|130:349,1,80,2|0,0:2|0:0,0:0:0:0:
144,366,104813,2,0,L|322:349,1,160,2|0,0:2|0:0,0:0:0:0:
487,350,107260,5,2,0:2:0:0:
487,350,107445,2,0,L|493:310,2,40,2|2|2,0:2|0:2|0:2,0:0:0:0:
405,256,108184,6,0,P|408:220|441:192,1,80,2|0,0:2|0:0,0:0:0:0:
427,107,108924,2,0,P|465:105|503:140,1,80,2|0,0:2|0:0,0:0:0:0:
334,22,109627,2,0,L|246:27,1,80,2|2,0:2|0:2,0:0:0:0:
230,47,110183,1,2,0:2:0:0:
209,69,110368,2,0,L|111:62,1,80,2|2,0:2|0:2,0:0:0:0:
0,172,111108,6,0,L|95:164,1,80,2|0,0:2|0:0,0:0:0:0:
153,242,111849,2,0,L|248:234,1,80,2|0,0:2|0:0,0:0:0:0:
361,168,112590,2,0,P|374:200|365:247,1,80,2|2,0:2|0:2,0:0:0:0:
438,304,113331,2,0,P|409:342|365:344,1,80,2|2,0:2|0:2,0:0:0:0:
286,361,114071,6,0,P|257:323|211:316,1,80,2|0,0:2|0:0,0:0:0:0:
160,267,114812,2,0,P|130:276|90:320,1,80,2|2,0:2|0:2,0:0:0:0:
84,340,115368,1,2,0:2:0:0:
45,336,115553,2,0,P|16:288|16:254,1,80,2|2,0:2|0:2,0:0:0:0:
32,230,116108,2,0,P|44:188|38:148,1,80,2|2,0:2|0:2,0:0:0:0:
22,128,116664,2,0,P|61:109|185:116,1,160,2|0,0:2|0:0,0:0:0:0:
144,14,119997,5,2,1:2:0:0:
124,182,120183,1,2,0:0:0:0:
257,47,120368,1,2,0:0:0:0:
93,100,120553,2,0,L|-2:110,1,88.000002685547,2|8,1:2|0:2,0:0:0:0:
205,240,120923,1,2,0:0:0:0:
264,158,121108,6,0,P|318:217|295:315,1,176.000005371094,2|2,1:2|0:0,0:0:0:0:
350,111,121664,1,2,0:0:0:0:
205,240,121849,1,0,0:0:0:0:
406,206,122034,1,2,0:0:0:0:
292,18,122220,2,0,L|183:35,1,88.000002685547,10|2,0:2|0:0,0:0:0:0:
352,110,122590,2,0,L|461:127,1,88.000002685547,2|2,0:0|0:0,0:0:0:0:
208,111,122960,5,2,1:2:0:0:
205,240,123145,1,2,0:0:0:0:
352,110,123331,1,2,0:0:0:0:
107,74,123516,2,0,P|97:130|128:178,1,88.000002685547,2|8,1:2|0:2,0:0:0:0:
208,111,123886,1,2,0:0:0:0:
44,37,124071,6,0,P|22:120|61:217,1,176.000005371094,2|2,1:2|0:0,0:0:0:0:
205,287,124627,1,2,0:0:0:0:
108,157,124812,1,0,0:0:0:0:
85,356,124997,1,2,0:0:0:0:
281,250,125183,2,0,P|330:249|391:289,1,88.000002685547,10|2,0:2|1:2,0:0:0:0:
108,157,125553,2,0,P|59:156|-2:196,1,88.000002685547,2|10,0:0|0:2,0:0:0:0:
218,280,125923,5,2,1:2:0:0:
286,65,126108,1,2,0:0:0:0:
159,144,126294,1,2,0:0:0:0:
344,212,126479,2,0,P|402:213|433:196,1,88.000002685547,2|8,1:2|0:2,0:0:0:0:
371,105,126849,1,2,0:0:0:0:
512,336,127034,6,0,P|456:301|337:295,1,176.000005371094,2|2,1:2|0:0,0:0:0:0:
172,367,127590,1,2,0:0:0:0:
263,152,127775,1,0,0:0:0:0:
58,230,127960,1,2,0:0:0:0:
283,384,128145,2,0,L|276:279,1,88.000002685547,10|2,0:2|0:0,0:0:0:0:
63,142,128516,2,0,L|57:229,1,88.000002685547,2|2,0:0|0:0,0:0:0:0:
232,70,128886,5,2,1:2:0:0:
168,238,129071,1,2,0:0:0:0:
146,91,129257,1,2,0:0:0:0:
290,208,129442,2,0,P|348:205|398:171,1,88.000002685547,2|8,1:2|0:2,0:0:0:0:
312,92,129812,1,2,0:0:0:0:
506,327,129997,6,0,P|454:296|321:292,1,176.000005371094,2|2,1:2|0:0,0:0:0:0:
118,177,130553,1,2,1:2:0:0:
175,310,130738,1,0,0:0:0:0:
52,241,130923,5,8,0:2:0:0:
30,244,131016,1,8,0:2:0:0:
8,247,131108,1,8,0:2:0:0:
132,0,131294,5,0,1:2:0:0:
125,99,131479,1,0,1:2:0:0:
118,197,131664,1,8,0:2:0:0:
489,84,131849,6,0,L|329:74,1,132.00000402832,0|0,1:2|0:0,0:0:0:0:
335,49,132220,2,0,L|203:57,1,132.00000402832,2|0,1:2|0:0,0:0:0:0:
157,30,132591,6,0,B|161:99|161:99|153:117|153:117|162:206,1,160,2|0,1:2|0:0,0:0:0:0:
174,367,133146,1,2,1:2:0:0:
323,263,133331,2,0,P|269:261|229:261,1,80,8|0,0:2|0:0,0:0:0:0:
26,267,133702,1,2,0:0:0:0:
102,316,133887,2,0,P|119:247|55:181,1,160,0|0,1:2|0:0,0:0:0:0:
151,0,134442,6,0,P|155:44|153:80,1,80,2|0,1:2|1:2,0:0:0:0:
261,171,134813,2,0,P|250:113|253:75,1,80,10|0,0:2|1:2,0:0:0:0:
357,0,135183,2,0,P|361:44|359:80,1,80,2|0,0:0|0:0,0:0:0:0:
504,206,135553,6,0,B|402:193|434:265|349:254,1,160,2|0,1:2|0:0,0:0:0:0:
450,346,136109,1,2,1:2:0:0:
293,191,136294,2,0,P|264:246|278:288,1,80,8|0,0:2|0:0,0:0:0:0:
340,362,136665,1,2,0:0:0:0:
84,298,136850,6,0,P|130:288|213:368,1,160,0|0,1:2|0:0,0:0:0:0:
44,144,137405,1,2,1:2:0:0:
8,373,137591,1,0,1:2:0:0:
169,112,137776,1,10,0:2:0:0:
210,355,137961,1,0,1:2:0:0:
83,62,138146,2,0,L|0:50,1,80,10|0,0:2|0:0,0:0:0:0:
310,221,138516,6,0,P|338:164|287:71,1,160,2|0,1:2|0:0,0:0:0:0:
416,129,139072,2,0,P|403:81|383:45,1,80,2|8,1:2|0:2,0:0:0:0:
324,0,139442,1,2,0:0:0:0:
477,246,139628,2,0,P|500:201|504:145,1,80,2|0,0:0|1:2,0:0:0:0:
310,221,139998,6,0,P|316:270|330:302,1,80,0|0,0:0|0:0,0:0:0:0:
207,134,140368,1,2,1:2:0:0:
152,305,140553,1,0,1:2:0:0:
21,167,140739,2,0,P|72:182|114:207,1,80,10|0,0:2|1:2,0:0:0:0:
226,277,141109,2,0,P|175:292|133:317,1,80,2|0,0:0|0:0,0:0:0:0:
339,319,141479,6,0,P|353:259|282:196,1,160,2|0,1:2|0:0,0:0:0:0:
384,128,142035,1,2,1:2:0:0:
226,277,142220,2,0,P|160:282|135:268,1,80,8|0,0:2|0:0,0:0:0:0:
384,128,142591,2,0,P|450:123|475:137,1,80,2|0,0:0|1:2,0:0:0:0:
112,9,142961,5,0,0:0:0:0:
184,57,143146,5,8,0:2:0:0:
182,84,143239,1,8,0:2:0:0:
180,112,143331,1,8,0:2:0:0:
179,140,143424,1,8,0:2:0:0:
177,168,143516,1,8,0:2:0:0:
319,240,143702,5,8,0:2:0:0:
292,233,143794,1,8,0:2:0:0:
260,233,143887,1,0,1:2:0:0:
258,243,143979,1,0,1:2:0:0:
258,253,144072,1,8,0:2:0:0:
226,277,144165,1,8,0:2:0:0:
188,287,144257,1,8,0:2:0:0:
149,281,144350,1,8,0:2:0:0:
115,260,144442,6,0,P|62:249|44:350,1,160,2|0,1:2|0:0,0:0:0:0:
177,168,144998,1,0,1:2:0:0:
231,355,145183,2,0,P|227:311|225:263,1,80,8|0,0:2|0:0,0:0:0:0:
299,94,145553,2,0,P|296:133|293:173,1,80,2|0,0:0|1:2,0:0:0:0:
89,80,145924,6,0,P|137:79|175:178,1,160,2|2,0:0|1:2,0:0:0:0:
90,221,146479,1,0,1:2:0:0:
224,45,146665,2,0,P|161:6|137:3,1,80,10|0,0:2|1:2,1:2:0:0:
245,220,147035,2,0,P|310:221|351:192,1,80,2|0,0:0|0:0,0:0:0:0:
446,56,147405,6,0,B|335:28|368:108|280:91,1,160,2|0,1:2|0:0,0:0:0:0:
396,166,147961,1,0,1:2:0:0:
178,168,148146,2,0,P|132:161|94:154,1,80,10|0,0:2|0:0,0:0:0:0:
348,281,148516,2,0,P|394:274|432:267,1,80,2|0,0:0|1:2,0:0:0:0:
143,336,148887,6,0,P|97:329|59:322,1,80,2|0,0:0|0:0,0:0:0:0:
270,145,149257,1,2,1:2:0:0:
260,297,149442,1,0,1:2:0:0:
381,46,149628,1,10,0:2:0:0:
426,267,149813,1,0,1:2:0:0:
287,46,149998,2,0,P|233:48|193:78,1,80,10|0,0:2|0:0,0:0:0:0:
260,297,150368,6,0,B|277:258|277:258|258:179|258:179|273:134,1,160,2|0,1:2|0:0,0:0:0:0:
185,249,150924,1,0,1:2:0:0:
343,193,151109,2,0,P|387:188|436:199,1,80,8|0,0:2|0:0,0:0:0:0:
346,377,151479,1,0,0:0:0:0:
260,297,151665,6,0,P|193:292|80:310,1,160,0|0,1:2|0:0,0:0:0:0:
149,78,152220,1,0,1:2:0:0:
22,231,152405,1,0,1:2:0:0:
246,167,152590,1,10,0:2:0:0:
75,34,152776,2,0,P|63:101|148:165,1,160,0|0,1:2|0:0,0:0:0:0:
261,79,153331,6,0,P|266:30|264:-20,1,80,2|0,1:2|0:0,0:0:0:0:
430,240,153702,1,2,0:0:0:0:
491,141,153887,1,2,1:2:0:0:
261,79,154072,2,0,P|257:137|266:190,1,80,8|0,0:0|0:0,0:0:0:0:
311,348,154442,1,2,0:0:0:0:
430,240,154628,6,0,P|430:302|422:337,1,80,0|2,1:2|0:0,0:0:0:0:
190,209,154998,2,0,P|190:271|198:306,1,80,8|8,0:2|0:2,0:0:0:0:
275,153,155368,1,8,0:2:0:0:
74,278,155553,1,8,0:2:0:0:
290,327,155739,1,0,1:2:0:0:
131,121,155924,1,8,0:2:0:0:
170,383,156109,1,8,0:2:0:0:
185,350,156202,1,8,0:2:0:0:
201,322,156294,6,0,P|204:258|188:130,1,160,2|0,1:2|0:0,0:0:0:0:
261,3,156850,1,2,1:2:0:0:
309,78,157035,2,0,P|240:88|198:76,1,80,8|0,0:2|0:0,0:0:0:0:
8,78,157405,1,2,0:0:0:0:
92,0,157590,6,0,L|77:186,1,160,0|0,1:2|0:0,0:0:0:0:
111,326,158146,1,2,1:2:0:0:
13,224,158331,1,0,1:2:0:0:
172,181,158516,2,0,P|186:256|175:288,1,80,10|0,0:0|1:0,0:0:0:0:
14,384,158887,2,0,P|0:309|11:277,1,80,2|0,0:0|0:0,0:0:0:0:
172,181,159257,6,0,P|98:217|104:304,1,160,2|0,1:2|0:0,0:0:0:0:
272,234,159813,1,2,1:2:0:0:
171,181,159998,2,0,P|120:177|63:170,1,80,8|0,0:2|0:0,0:0:0:0:
265,8,160368,1,2,0:0:0:0:
341,46,160553,6,0,B|366:113|299:115|348:212,1,160,0|0,1:2|0:0,0:0:0:0:
414,299,161109,1,2,1:2:0:0:
419,61,161294,1,0,1:2:0:0:
253,215,161479,1,10,0:2:0:0:
461,174,161665,1,0,1:2:0:0:
217,226,161850,2,0,P|201:169|220:116,1,80,10|0,0:2|0:0,0:0:0:0:
367,12,162220,6,0,P|328:54|204:48,1,160,2|0,1:2|0:0,0:0:0:0:
48,80,162776,1,2,1:2:0:0:
138,16,162961,2,0,L|129:133,1,80,8|2,0:2|0:0,0:0:0:0:
71,332,163331,1,2,0:0:0:0:
22,240,163516,6,0,B|138:232|138:232|109:295,1,160,0|0,1:2|0:0,0:0:0:0:
274,339,164072,2,0,P|229:305|185:304,1,80,2|0,1:2|1:2,0:0:0:0:
398,245,164442,2,0,P|338:257|307:286,1,80,10|0,0:2|1:2,0:0:0:0:
435,84,164813,2,0,P|413:136|416:175,1,80,2|0,0:0|0:0,0:0:0:0:
502,337,165183,6,0,P|442:248|389:247,1,160,2|0,1:2|0:0,0:0:0:0:
272,206,165739,1,2,1:2:0:0:
334,381,165924,2,0,P|339:323|329:283,1,80,8|0,0:2|0:0,0:0:0:0:
204,144,166294,1,2,0:0:0:0:
438,147,166479,2,0,P|375:162|348:158,1,80,0|0,1:2|0:0,0:0:0:0:
232,35,166850,5,8,0:2:0:0:
193,27,166942,1,8,0:2:0:0:
154,36,167035,1,8,0:2:0:0:
122,60,167128,1,8,0:2:0:0:
104,95,167220,1,8,0:2:0:0:
2,222,167405,5,8,0:2:0:0:
37,240,167498,1,8,0:2:0:0:
57,275,167590,1,0,1:2:0:0:
56,294,167683,1,0,1:2:0:0:
53,300,167776,1,8,0:2:0:0:
80,251,167868,1,8,0:2:0:0:
127,223,167961,1,8,0:2:0:0:
182,221,168053,1,8,0:2:0:0:
232,246,168146,6,0,P|312:269|386:224,1,160,2|0,1:2|0:0,0:0:0:0:
336,159,168702,1,0,1:2:0:0:
497,332,168887,2,0,P|457:310|411:311,1,80,8|0,0:2|0:0,0:0:0:0:
263,358,169257,1,2,0:0:0:0:
441,186,169442,1,0,1:2:0:0:
341,79,169628,6,0,L|334:177,1,80,2|0,0:0|0:0,0:0:0:0:
446,265,169998,2,0,L|440:185,1,80,2|0,1:2|1:2,0:0:0:0:
233,179,170368,2,0,P|220:225|248:278,1,80,10|0,0:2|1:2,0:0:0:0:
338,365,170739,2,0,P|350:318|332:285,1,80,2|0,0:0|0:0,0:0:0:0:
192,89,171109,6,0,P|147:118|141:223,1,160,2|0,1:2|0:0,0:0:0:0:
197,332,171665,1,0,1:2:0:0:
70,285,171850,2,0,P|25:284|-13:296,1,80,10|0,0:2|0:0,0:0:0:0:
233,179,172220,2,0,P|291:185|335:173,1,80,2|0,0:0|1:2,0:0:0:0:
91,14,172590,6,0,P|82:69|104:114,1,80,2|0,0:0|0:0,0:0:0:0:
229,269,172961,1,2,1:2:0:0:
65,206,173146,1,0,1:2:0:0:
256,281,173331,1,10,0:2:0:0:
12,354,173516,1,0,1:2:0:0:
229,99,173702,2,0,L|233:191,1,80,10|0,0:2|0:0,0:0:0:0:
382,329,174072,6,0,P|330:270|248:286,1,160,2|0,1:2|0:0,0:0:0:0:
420,185,174628,1,0,1:2:0:0:
298,359,174813,2,0,L|196:369,1,80,8|0,0:2|0:0,0:0:0:0:
472,258,175183,1,0,0:0:0:0:
291,155,175368,1,0,1:2:0:0:
398,373,175553,6,0,P|390:290|394:261,1,80,2|0,0:0|0:0,0:0:0:0:
444,61,175924,1,0,1:2:0:0:
472,258,176109,1,0,1:2:0:0:
291,155,176294,1,10,0:2:0:0:
443,165,176479,2,0,B|377:170|377:170|347:149|347:149|276:156,1,160,0|0,1:2|0:0,0:0:0:0:
173,285,177035,6,0,P|216:264|245:230,1,80,2|0,1:2|0:0,0:0:0:0:
172,23,177405,1,0,0:0:0:0:
88,256,177590,1,0,1:2:0:0:
286,97,177776,6,0,L|180:117,1,80,10|0,0:2|0:0,0:0:0:0:
9,32,178146,1,8,0:0:0:0:
88,256,178331,1,0,1:2:0:0:
172,23,178516,5,2,0:0:0:0:
47,168,178702,1,8,0:2:0:0:
231,194,178887,1,8,0:2:0:0:
231,194,178979,1,8,0:2:0:0:
231,194,179072,1,8,0:2:0:0:
117,95,179257,1,8,0:2:0:0:
170,323,179442,1,0,1:2:0:0:
197,327,179535,1,0,1:2:0:0:
221,352,179628,1,8,0:2:0:0:
256,349,179720,1,8,0:2:0:0:
290,346,179813,1,8,0:2:0:0:
324,344,179905,1,8,0:2:0:0:
359,341,179998,6,0,P|359:304|346:259,1,80,2|2,1:2|0:0,0:0:0:0:
462,116,180368,1,2,0:0:0:0:
393,177,180553,2,0,B|303:206|329:126|230:161,1,160,2|2,1:2|0:0,0:0:0:0:
355,24,181109,2,0,P|370:72|356:113,1,80,2|0,1:2|0:0,0:0:0:0:
261,238,181479,5,10,0:2:0:0:
184,107,181665,1,2,0:0:0:0:
363,99,181850,1,2,0:0:0:0:
241,157,182035,1,0,1:2:0:0:
257,5,182220,2,0,L|252:121,1,80,10|2,0:2|0:0,0:0:0:0:
110,153,182590,2,0,L|106:73,1,80,2|2,0:0|0:0,0:0:0:0:
107,269,182961,6,0,P|33:243|4:256,2,80,2|2|2,1:2|0:0|0:0,0:0:0:0:
221,223,183516,2,0,P|290:257|360:224,1,160,2|2,1:2|0:2,0:0:0:0:
512,128,184072,2,0,P|467:132|426:149,1,80,2|0,1:2|0:0,0:0:0:0:
490,383,184442,6,0,P|495:335|490:203,1,160,10|2,0:2|0:0,0:0:0:0:
434,144,184998,1,2,0:0:0:0:
512,0,185183,1,10,0:2:0:0:
350,80,185368,2,0,P|328:160|389:244,1,160,2|2,1:2|1:2,0:0:0:0:
492,351,185924,6,0,P|445:315|398:314,1,80,2|2,1:2|0:0,0:0:0:0:
330,322,186294,1,2,0:0:0:0:
279,196,186479,2,0,P|322:220|301:347,1,160,2|2,1:2|0:2,0:0:0:0:
165,282,187035,2,0,P|183:227|222:200,1,80,2|0,1:2|0:0,0:0:0:0:
357,51,187405,6,0,P|289:96|194:90,1,160,10|2,0:2|0:0,0:0:0:0:
13,29,187961,1,2,1:2:0:0:
110,248,188146,2,0,P|98:152|86:73,1,160,10|2,0:2|0:0,0:0:0:0:
0,130,188702,1,2,0:0:0:0:
223,238,188887,5,2,1:2:0:0:
25,354,189072,1,0,1:2:0:0:
108,246,189257,1,0,1:2:0:0:
274,316,189442,2,0,P|306:273|306:219,1,80,8|0,0:2|0:0,0:0:0:0:
178,106,189813,1,8,0:2:0:0:
178,106,189905,1,8,0:2:0:0:
178,106,189998,1,8,0:2:0:0:
110,248,190183,1,0,1:2:0:0:
372,166,190368,1,0,1:2:0:0:
292,7,190553,6,0,B|285:74|285:74|263:105|263:105|255:197,1,160,0|0,1:2|1:2,0:0:0:0:
377,296,191109,1,8,0:2:0:0:
458,0,191294,1,0,1:2:0:0:
258,159,191479,1,8,0:2:0:0:
512,256,191665,1,12,0:2:0:0:
