osu file format v14

[General]
AudioFilename: audio.ogg
AudioLeadIn: 0
PreviewTime: 59978
Countdown: 0
SampleSet: Soft
StackLeniency: 0.7
Mode: 0
LetterboxInBreaks: 0
WidescreenStoryboard: 1

[Editor]
Bookmarks: 2730,24064,34730,45397,56064,61397,82730,96064,117397,128064,170730
DistanceSpacing: 0.3
BeatDivisor: 4
GridSize: 16
TimelineZoom: 1.4

[Metadata]
Title:2004 Breakup
TitleUnicode:2004 Breakup
Artist:The Gentle Men
ArtistUnicode:The Gentle Men
Creator:Mimari
Version:Collab Hard
Source:
Tags:pop rock punk english penguinz0 moistcr1tikal critikal charlie troy mckubre solstate washedup player blitzifyyy
BeatmapID:2650850
BeatmapSetID:1275814

[Difficulty]
HPDrainRate:5
CircleSize:3.7
OverallDifficulty:6
ApproachRate:8
SliderMultiplier:1.5
SliderTickRate:1

[Events]
//Background and Video events
0,0,"Capture.PNG",0,0
Video,-17,"2004 Breakup.mp4"
//Break Periods
2,24261,28645
2,29928,33978
2,56079,60645
2,82745,84312
2,117412,127312
//Storyboard Layer 0 (Background)
//Storyboard Layer 1 (Fail)
//Storyboard Layer 2 (Pass)
//Storyboard Layer 3 (Foreground)
//Storyboard Layer 4 (Overlay)
//Storyboard Sound Samples

[TimingPoints]
2729,333.333333333333,4,2,1,80,1,0
2729,-100,4,2,1,80,0,0
13395,-100,4,2,1,85,0,0
24062,-100,4,2,1,30,0,0
29395,-133.333333333333,4,2,1,85,0,0
34728,-111.111111111111,4,2,1,60,0,0
45395,-105.263157894737,4,2,1,65,0,0
54978,-105.263157894737,4,2,1,5,0,0
55062,-105.263157894737,4,2,1,65,0,0
61395,-100,4,2,1,75,0,0
85395,-95.2380952380952,4,2,1,85,0,0
96062,-117.647058823529,4,2,1,65,0,0
114728,-117.647058823529,4,2,1,80,0,0
128062,-111.111111111111,4,2,1,75,0,0

[Colours]
Combo1 : 240,145,145
Combo2 : 123,208,240
Combo3 : 215,158,222
Combo4 : 234,236,140

[HitObjects]
25,58,2729,6,0,B|64:39|95:67|95:67|124:92|171:74,1,150,6|10,3:1|0:1,0:0:0:0:
239,13,3229,1,0,3:0:0:0:
320,54,3396,2,0,B|363:92|363:92|319:190,1,150,2|0,3:1|0:0,0:0:0:0:
244,223,3896,1,0,3:0:0:0:
267,308,4062,6,0,P|318:326|384:249,1,150,2|10,3:1|0:1,0:0:0:0:
455,220,4563,1,0,3:0:0:0:
455,220,4728,2,0,L|471:299,2,75,2|0|10,3:1|3:0|0:1,0:0:0:0:
398,150,5229,1,0,3:0:0:0:
440,58,5396,6,0,B|391:46|391:46|353:65|353:65|278:54,1,150,2|0,3:1|0:0,0:0:0:0:
216,5,5896,1,0,3:0:0:0:
144,57,6062,2,0,P|156:107|182:230,1,150,2|10,3:1|0:1,0:0:0:0:
137,277,6562,1,0,3:0:0:0:
197,359,6728,6,0,B|155:343|126:368|126:368|95:396|56:377,1,150,2|10,3:1|0:1,0:0:0:0:
33,299,7229,1,0,3:0:0:0:
33,299,7396,2,0,P|10:265|19:215,2,75,2|0|0,3:1|3:0|0:0,0:0:0:0:
99,251,7896,5,8,1:1:0:0:
99,251,7979,1,8,1:1:0:0:
99,251,8062,2,0,B|117:200|117:200|113:166|113:166|131:107,1,150,6|10,3:1|0:1,0:0:0:0:
109,22,8562,1,0,3:0:0:0:
201,4,8728,2,0,P|250:3|307:79,1,150,2|10,3:1|0:1,0:0:0:0:
266,156,9229,1,0,3:0:0:0:
298,242,9396,6,0,B|393:259|393:259|418:255|434:225,1,150,2|0,3:1|0:0,0:0:0:0:
480,160,9895,1,0,3:0:0:0:
480,160,10062,2,0,L|462:72,2,75,2|0|10,3:1|3:0|0:1,0:0:0:0:
512,236,10562,1,0,3:0:0:0:
432,265,10729,6,0,B|388:234|388:234|370:184|370:184|332:160,1,150,2|0,3:1|0:0,0:0:0:0:
298,242,11228,1,0,3:0:0:0:
298,242,11395,2,0,B|309:283|309:283|286:331|286:331|295:384,1,150,2|10,3:1|0:1,0:0:0:0:
376,353,11895,1,0,3:0:0:0:
376,353,12062,2,0,B|399:316|399:316|449:298|449:298|480:254,1,150,2|10,3:1|0:1,0:0:0:0:
400,229,12562,1,0,3:0:0:0:
400,229,12728,1,2,3:1:0:0:
437,144,12895,5,8,0:1:0:0:
408,68,13062,1,10,0:1:0:0:
335,36,13228,1,0,3:0:0:0:
256,72,13395,6,0,B|197:82|197:82|160:73|160:73|109:83,1,150,6|10,3:1|0:1,0:0:0:0:
23,54,13895,1,0,3:0:0:0:
6,150,14062,2,0,P|73:152|119:217,1,150,2|0,3:1|0:0,0:0:0:0:
62,291,14562,1,0,3:0:0:0:
137,345,14728,6,0,B|158:380|208:378|208:378|249:357|290:379,1,150,2|10,3:1|0:1,0:0:0:0:
349,315,15228,1,0,3:0:0:0:
349,315,15395,2,0,B|389:311|389:311|417:331,2,75,2|0|10,3:1|3:0|0:1,0:0:0:0:
266,270,15895,1,0,3:0:0:0:
325,196,16062,6,0,B|332:144|332:144|305:110|305:110|309:54,1,150,2|10,3:1|0:1,0:0:0:0:
227,1,16562,1,0,3:0:0:0:
165,75,16728,2,0,B|76:108|76:108|43:111|16:76,1,150,2|10,3:1|0:1,0:0:0:0:
72,23,17228,1,0,3:0:0:0:
111,136,17395,6,0,B|104:188|104:188|131:222|131:222|127:276,1,150,2|10,3:1|0:1,0:0:0:0:
73,347,17895,1,0,3:0:0:0:
73,347,18062,2,0,L|-25:366,2,75,2|0|10,3:1|3:0|1:1,0:0:0:0:
152,384,18562,1,8,1:1:0:0:
238,350,18728,6,0,B|253:253|253:253|244:229|212:212,1,150,6|10,3:1|0:1,0:0:0:0:
195,135,19228,1,0,3:0:0:0:
255,65,19395,2,0,B|294:46|325:74|325:74|354:99|401:81,1,150,2|10,3:1|0:1,0:0:0:0:
475,53,19895,1,0,3:0:0:0:
497,140,20062,6,0,B|470:148|454:191|454:191|467:237|446:293,1,150,2|10,3:1|0:1,0:0:0:0:
435,356,20562,1,0,3:0:0:0:
435,356,20728,2,0,P|472:357|525:318,2,75,2|0|10,3:1|3:0|0:1,0:0:0:0:
360,305,21228,1,0,3:0:0:0:
289,353,21395,5,10,0:1:0:0:
241,263,21562,2,0,B|187:231|187:231|94:269,1,150,0|0,3:0|3:0,0:0:0:0:
26,213,22062,5,10,0:1:0:0:
50,112,22228,2,0,B|130:144|130:144|184:112,1,150,0|0,0:0|3:0,0:0:0:0:
209,25,22728,5,0,0:0:0:0:
121,58,22895,2,0,B|153:136|108:123|129:210,1,150,0|0,3:0|0:0,0:0:0:0:
68,291,23395,5,8,0:1:0:0:
147,345,23562,2,0,B|200:368|252:337|252:337|269:347|269:347|316:313|378:337,1,225,2|0,3:1|0:0,0:0:0:0:
317,65,29395,6,0,B|289:99|289:99|310:187,1,112.500004291535,8|8,3:0|3:0,0:0:0:0:
280,36,34728,6,0,P|211:27|143:48,1,134.999995880127,4|8,3:0|3:0,0:0:0:0:
127,119,35228,1,8,3:0:0:0:
205,161,35395,2,0,L|278:141,1,67.4999979400635,10|0,1:1|0:0,0:0:0:0:
342,94,35728,2,0,L|484:119,1,134.999995880127,0|2,0:0|0:1,0:0:0:0:
493,204,36228,1,8,3:0:0:0:
493,204,36395,2,0,P|492:271|450:335,2,134.999995880127,8|10|2,3:0|0:1|0:1,0:0:0:0:
426,143,37228,1,2,0:1:0:0:
350,184,37395,6,0,P|295:192|208:170,1,134.999995880127,2|8,3:1|3:0,0:0:0:0:
155,113,37895,1,8,3:0:0:0:
82,167,38062,2,0,B|66:197|66:197|77:261,1,67.4999979400635,10|0,0:1|0:0,0:0:0:0:
146,279,38395,2,0,B|162:309|162:309|151:373,1,67.4999979400635,8|8,3:0|3:0,0:0:0:0:
76,366,38728,2,0,P|12:353|18:274,2,134.999995880127,2|8|8,0:1|3:0|0:1,0:0:0:0:
156,342,39562,2,0,L|299:352,1,134.999995880127,4|0,3:3|0:0,0:0:0:0:
378,358,40062,6,0,B|392:321|380:293|380:293|364:261|376:226,1,134.999995880127,6|8,3:1|3:0,0:0:0:0:
326,153,40562,1,8,3:0:0:0:
375,83,40728,2,0,B|448:65,1,67.4999979400635,10|0,1:1|0:0,0:0:0:0:
512,117,41062,2,0,L|367:91,1,134.999995880127,0|2,0:0|0:1,0:0:0:0:
307,35,41562,1,8,3:0:0:0:
231,78,41728,2,0,P|223:111|240:150,1,67.4999979400635,8|8,3:0|3:0,0:0:0:0:
273,214,42062,2,0,P|281:247|264:286,1,67.4999979400635,10|0,1:1|0:0,0:0:0:0:
219,345,42395,1,8,1:0:0:0:
143,311,42562,1,10,1:1:0:0:
67,358,42728,6,0,L|44:271,1,67.4999979400635,2|0,3:0|0:0,0:0:0:0:
80,219,43062,1,8,3:0:0:0:
46,137,43228,1,8,3:0:0:0:
100,64,43395,2,0,B|128:52|128:52|192:66,1,67.4999979400635,10|0,1:1|0:0,0:0:0:0:
179,159,43728,2,0,L|45:136,2,134.999995880127,8|2|8,3:0|0:1|3:0,0:0:0:0:
258,129,44562,1,0,3:0:0:0:
337,104,44728,5,8,1:0:0:0:
308,226,44895,1,4,3:0:0:0:
35,384,45395,5,4,3:0:0:0:
69,305,45562,2,0,B|79:283|79:283|200:272,1,142.49999619484,0|0,3:0|3:0,0:0:0:0:
252,340,46062,1,2,3:1:0:0:
252,340,46228,1,0,3:0:0:0:
332,308,46395,2,0,P|343:264|325:225,1,71.2499980974198,10|0,3:1|3:0,0:0:0:0:
271,185,46728,6,0,L|199:179,1,71.2499980974198,2|0,3:1|3:0,0:0:0:0:
116,232,47062,2,0,P|79:195|87:93,1,142.49999619484,10|2,3:1|3:1,0:0:0:0:
130,36,47562,1,0,3:0:0:0:
209,64,47728,2,0,L|302:43,1,71.2499980974198,10|0,3:1|3:0,0:0:0:0:
351,9,48062,5,2,3:1:0:0:
351,9,48228,1,0,3:0:0:0:
418,72,48395,1,10,3:1:0:0:
418,72,48562,1,0,3:0:0:0:
399,164,48728,2,0,P|367:181|318:178,1,71.2499980974198,2|0,3:1|3:0,0:0:0:0:
267,238,49062,2,0,P|235:221|186:224,1,71.2499980974198,10|0,3:1|3:0,0:0:0:0:
121,277,49395,6,0,B|88:211|88:211|138:135,2,142.49999619484,2|10|2,3:1|3:1|3:1,0:0:0:0:
158,356,50228,1,2,3:1:0:0:
237,326,50395,1,14,3:1:0:0:
300,377,50562,1,0,3:0:0:0:
383,354,50728,6,0,P|424:277|402:212,1,142.49999619484,4|10,3:0|3:1,0:0:0:0:
356,168,51228,1,0,3:0:0:0:
356,168,51395,2,0,P|286:177|228:139,1,142.49999619484,2|10,3:1|3:1,0:0:0:0:
250,56,51895,1,0,3:0:0:0:
250,56,52062,6,0,P|319:46|377:84,1,142.49999619484,2|10,3:1|3:1,0:0:0:0:
454,111,52562,1,0,3:0:0:0:
454,111,52728,2,0,L|477:263,1,142.49999619484,2|10,3:1|3:1,0:0:0:0:
439,333,53228,1,0,3:0:0:0:
357,303,53395,6,0,P|321:307|278:325,1,71.2499980974198,2|0,3:1|3:0,0:0:0:0:
221,364,53728,2,0,P|184:362|143:334,1,71.2499980974198,10|0,3:1|3:0,0:0:0:0:
89,283,54062,1,2,3:1:0:0:
146,224,54228,1,0,3:0:0:0:
96,152,54395,2,0,L|3:171,1,71.2499980974198,10|0,3:1|3:0,0:0:0:0:
53,61,54728,6,0,P|140:70|184:111,2,142.49999619484,2|2|10,3:1|3:1|0:1,0:0:0:0:
512,344,61395,6,0,B|492:370|459:371|459:371|356:334,1,150,4|0,3:0|0:0,0:0:0:0:
302,278,61895,1,0,3:0:0:0:
231,349,62062,2,0,P|166:342|133:266,1,150,10|0,0:1|0:0,0:0:0:0:
182,182,62562,1,0,3:0:0:0:
182,182,62728,2,0,P|223:200|263:197,1,75,2|0,0:1|3:0,0:0:0:0:
287,71,63062,2,0,P|250:97|233:133,1,75,0|0,3:0|0:0,0:0:0:0:
333,214,63396,2,0,P|331:176|315:143,1,75,10|0,0:1|0:0,0:0:0:0:
287,71,63728,6,0,B|225:66|225:66|198:40|198:40|132:37,2,150,0|2|0,0:0|3:1|0:0,0:0:0:0:
376,51,64562,1,0,3:0:0:0:
438,109,64728,2,0,B|453:137|441:168|441:168|365:247,1,150,10|0,0:1|0:0,0:0:0:0:
291,168,65228,1,0,3:0:0:0:
291,168,65395,2,0,L|205:153,1,75,2|0,0:1|3:0,0:0:0:0:
142,198,65728,2,0,L|56:213,1,75,0|0,3:0|0:0,0:0:0:0:
31,280,66062,2,0,B|117:300|117:300|144:319|147:352,1,150,10|0,0:1|0:0,0:0:0:0:
47,369,66562,1,0,3:0:0:0:
108,279,66728,6,0,P|125:205|91:135,1,150,6|0,3:1|0:0,0:0:0:0:
25,64,67228,1,0,0:0:0:0:
116,23,67395,2,0,L|272:50,1,150,10|0,0:1|0:0,0:0:0:0:
210,136,67895,1,0,3:0:0:0:
210,136,68062,2,0,P|213:183|241:224,1,75,2|0,0:1|3:0,0:0:0:0:
298,160,68395,2,0,P|333:191|382:200,1,75,0|0,3:0|0:0,0:0:0:0:
433,82,68728,2,0,P|397:113|348:122,1,75,10|0,0:1|0:0,0:0:0:0:
358,35,69062,6,0,P|409:1|508:33,2,150,0|2|0,0:0|3:1|0:0,0:0:0:0:
292,103,69895,1,0,3:0:0:0:
235,32,70062,2,0,B|212:20|212:20|85:31,1,150,2|0,3:1|0:0,0:0:0:0:
0,109,70562,2,0,L|74:113,1,75,0|2,3:0|0:1,0:0:0:0:
156,150,70895,1,0,3:0:0:0:
99,230,71062,2,0,P|82:268|87:317,1,75,0|0,3:0|0:0,0:0:0:0:
220,331,71395,2,0,P|196:296|151:275,1,75,10|0,1:1|3:0,0:0:0:0:
70,384,71728,2,0,P|111:381|152:353,1,75,8|0,1:0|0:0,0:0:0:0:
259,245,72062,6,0,L|279:66,1,150,6|0,3:1|0:0,0:0:0:0:
342,30,72562,1,0,3:0:0:0:
438,57,72728,2,0,P|475:120|466:193,1,150,10|0,1:1|0:0,0:0:0:0:
488,284,73228,1,0,3:0:0:0:
488,284,73395,2,0,L|394:262,1,75,2|0,0:1|3:0,0:0:0:0:
373,190,73728,2,0,L|279:168,1,75,0|0,3:0|0:0,0:0:0:0:
227,246,74062,2,0,L|133:272,1,75,10|0,1:1|0:0,0:0:0:0:
60,229,74395,6,0,P|42:167|87:94,2,150,0|2|0,0:0|3:1|0:0,0:0:0:0:
86,314,75228,1,0,3:0:0:0:
175,292,75395,2,0,B|208:289|232:263|232:263|327:312,1,150,10|0,1:1|0:0,0:0:0:0:
361,365,75895,1,0,3:0:0:0:
439,327,76062,2,0,B|508:214|400:237|462:90,1,225,2|0,0:1|0:0,0:0:0:0:
401,43,76728,2,0,P|350:32|258:101,1,150,10|0,1:1|0:0,0:0:0:0:
181,107,77228,1,0,3:0:0:0:
224,220,77395,6,0,B|274:217|274:217|313:238|313:238|368:235,1,150,6|0,3:1|0:0,0:0:0:0:
456,256,77895,1,0,3:0:0:0:
395,334,78062,2,0,B|345:331|345:331|306:352|306:352|251:349,1,150,10|0,1:1|0:0,0:0:0:0:
180,291,78562,1,0,3:0:0:0:
180,291,78728,2,0,P|142:291|106:304,1,75,2|0,0:1|3:0,0:0:0:0:
72,215,79062,2,0,P|34:215|0:202,1,75,0|0,3:0|0:0,0:0:0:0:
44,117,79395,2,0,P|118:127|158:191,1,150,10|0,1:1|0:0,0:0:0:0:
240,224,79895,1,0,3:0:0:0:
212,325,80062,6,0,B|306:290|306:290|346:298|360:340,1,150,6|0,3:1|0:0,0:0:0:0:
423,364,80562,1,0,3:0:0:0:
423,364,80728,2,0,L|438:260,1,75,10|0,0:1|0:0,0:0:0:0:
493,235,81062,2,0,L|508:131,1,75,0|0,0:0|3:0,0:0:0:0:
454,88,81395,5,2,3:1:0:0:
371,82,81562,1,8,0:1:0:0:
288,75,81728,1,8,3:0:0:0:
223,12,81895,5,0,3:0:0:0:
251,153,82062,1,10,0:1:0:0:
286,143,85062,5,0,3:0:0:0:
512,192,85395,6,0,B|451:183|451:183|416:201|416:201|348:192,1,157.499995193482,6|10,3:1|0:1,0:0:0:0:
280,240,85895,1,0,3:0:0:0:
352,289,86062,2,0,B|413:280|413:280|448:298|448:298|516:289,1,157.499995193482,2|0,3:1|0:0,0:0:0:0:
512,192,86562,1,0,3:0:0:0:
490,105,86728,2,0,P|452:73|348:81,1,157.499995193482,2|10,3:1|0:1,0:0:0:0:
294,141,87228,1,0,3:0:0:0:
207,139,87395,2,0,P|152:114|118:78,2,78.7499975967408,2|0|10,3:1|3:0|0:1,0:0:0:0:
214,53,87895,5,0,3:0:0:0:
141,19,88062,2,0,P|91:36|75:148,1,157.499995193482,2|0,3:1|0:0,0:0:0:0:
120,192,88562,1,0,3:0:0:0:
127,272,88728,2,0,P|107:305|0:322,1,157.499995193482,2|10,3:1|0:1,0:0:0:0:
46,252,89228,1,0,3:0:0:0:
120,192,89395,2,0,B|143:177|143:177|292:188,1,157.499995193482,2|10,3:1|0:1,0:0:0:0:
346,262,89895,1,0,3:0:0:0:
424,202,90062,2,0,L|440:109,2,78.7499975967408,2|8|10,3:1|0:1|1:1,0:0:0:0:
446,299,90562,1,0,3:0:0:0:
369,356,90728,6,0,P|308:362|218:333,1,157.499995193482,6|10,3:1|0:1,0:0:0:0:
127,342,91228,1,0,3:0:0:0:
124,251,91395,2,0,P|197:223|275:227,1,157.499995193482,2|10,3:1|0:1,0:0:0:0:
359,260,91895,1,0,3:0:0:0:
417,184,92062,2,0,B|429:142|429:142|401:25,1,157.499995193482,2|10,3:1|0:1,0:0:0:0:
311,0,92562,1,0,3:0:0:0:
231,57,92728,2,0,L|154:39,2,78.7499975967408,2|0|10,3:1|3:0|0:1,0:0:0:0:
316,93,93228,1,0,3:0:0:0:
241,149,93395,5,10,0:1:0:0:
270,253,93562,2,0,B|359:242|321:318|431:288,1,157.499995193482,0|0,3:0|3:0,0:0:0:0:
485,243,94062,2,0,B|528:164|528:164|522:123|460:114,1,157.499995193482,10|8,0:1|0:1,0:0:0:0:
453,45,94562,2,0,B|364:34|402:110|292:80,1,157.499995193482,0|0,3:0|3:0,0:0:0:0:
240,32,95062,2,0,P|224:67|225:106,1,78.7499975967408,10|0,0:1|0:0,0:0:0:0:
289,187,95395,5,8,0:1:0:0:
211,265,95562,2,0,B|152:260|152:260|120:285|120:285|56:277,1,157.499995193482,2|0,3:1|0:0,0:0:0:0:
36,200,96062,6,0,L|19:125,1,63.7500012159348,4|0,3:0|3:0,0:0:0:0:
50,62,96395,2,0,L|176:78,1,127.50000243187,10|2,1:0|3:1,0:0:0:0:
248,42,96895,1,0,3:0:0:0:
248,42,97062,2,0,P|262:72|262:105,1,63.7500012159348,10|0,3:1|3:0,0:0:0:0:
206,157,97395,2,0,P|192:187|192:220,1,63.7500012159348,2|0,3:1|3:0,0:0:0:0:
241,292,97728,6,0,P|291:272|383:264,2,127.50000243187,10|2|10,3:1|3:1|3:1,0:0:0:0:
184,356,98562,1,0,3:0:0:0:
98,330,98728,2,0,L|22:315,1,63.7500012159348,2|0,3:1|3:0,0:0:0:0:
17,235,99062,2,0,L|79:247,1,63.7500012159348,10|0,3:1|3:0,0:0:0:0:
121,174,99395,2,0,L|45:159,1,63.7500012159348,2|0,3:1|3:0,0:0:0:0:
14,90,99728,1,10,3:1:0:0:
14,90,99895,1,0,3:0:0:0:
61,24,100062,6,0,P|91:16|123:20,1,63.7500012159348,2|0,3:1|3:0,0:0:0:0:
206,10,100395,2,0,P|225:34|234:65,1,63.7500012159348,10|0,3:1|3:0,0:0:0:0:
309,106,100728,1,2,3:1:0:0:
309,106,100895,1,2,3:1:0:0:
279,183,101062,1,14,3:1:0:0:
459,320,101395,5,4,3:0:0:0:
393,277,101562,2,0,B|308:264|308:264|286:262|270:288,1,127.50000243187,0|0,3:0|3:0,0:0:0:0:
210,344,102062,2,0,P|252:367|344:330,1,127.50000243187,2|10,3:1|3:1,0:0:0:0:
273,283,102562,1,0,3:0:0:0:
191,258,102728,2,0,L|46:289,2,127.50000243187,2|10|2,3:1|3:1|3:1,0:0:0:0:
234,188,103562,1,0,3:0:0:0:
234,188,103728,1,10,3:1:0:0:
5,42,104062,6,0,L|85:53,1,63.7500012159348,2|0,3:1|3:0,0:0:0:0:
133,10,104395,2,0,L|197:2,1,63.7500012159348,10|0,3:1|3:0,0:0:0:0:
189,90,104728,2,0,L|269:101,1,63.7500012159348,2|0,3:1|3:0,0:0:0:0:
317,42,105062,2,0,L|380:33,1,63.7500012159348,10|0,3:1|3:0,0:0:0:0:
488,56,105395,5,2,3:1:0:0:
488,56,105562,1,10,3:1:0:0:
461,142,105728,2,0,L|397:125,1,63.7500012159348,0|0,3:0|0:0,0:0:0:0:
313,138,106062,5,8,0:1:0:0:
301,262,106228,1,0,3:0:0:0:
301,262,106395,2,0,L|384:243,1,63.7500012159348,10|0,0:1|0:0,0:0:0:0:
460,252,106728,5,4,3:0:0:0:
460,252,106895,2,0,L|435:392,1,127.50000243187,0|0,3:0|3:0,0:0:0:0:
347,363,107395,1,10,3:1:0:0:
347,363,107562,2,0,L|196:356,1,127.50000243187,0|0,3:0|3:0,0:0:0:0:
163,292,108062,1,2,3:1:0:0:
163,292,108229,2,0,L|12:308,1,127.50000243187,0|0,3:0|0:0,0:0:0:0:
48,214,108728,1,10,3:1:0:0:
104,148,108895,2,0,P|109:116|104:85,2,63.7500012159348,0|10|0,3:0|3:1|3:0,0:0:0:0:
48,214,109395,5,2,3:1:0:0:
48,214,109562,2,0,P|103:194|188:231,1,127.50000243187,0|0,3:0|3:0,0:0:0:0:
224,288,110062,1,10,3:1:0:0:
224,288,110229,2,0,P|283:308|343:289,1,127.50000243187,2|0,3:1|3:0,0:0:0:0:
393,224,110728,1,2,3:1:0:0:
393,224,110895,2,0,P|448:204|533:241,1,127.50000243187,0|0,3:0|3:0,0:0:0:0:
456,295,111395,1,10,3:1:0:0:
387,341,111562,1,2,3:1:0:0:
305,321,111728,2,0,P|267:304|217:305,1,63.7500012159348,14|0,3:1|3:0,0:0:0:0:
149,381,112062,5,4,3:0:0:0:
149,381,112228,2,0,B|130:353|130:353|124:252,1,127.50000243187,0|8,3:0|3:0,0:0:0:0:
224,260,112728,1,10,3:1:0:0:
224,260,112894,2,0,B|243:232|243:232|249:131,1,127.50000243187,0|0,3:0|3:0,0:0:0:0:
175,121,113395,1,2,3:1:0:0:
175,121,113561,2,0,B|156:93|156:93|150:-8,1,127.50000243187,0|0,3:0|3:0,0:0:0:0:
62,28,114062,1,10,3:1:0:0:
0,97,114228,2,0,P|3:138|15:186,2,63.7500012159348,0|10|0,3:0|3:1|3:0,0:0:0:0:
62,28,114728,5,8,0:1:0:0:
104,143,114895,2,0,P|117:183|106:268,1,127.50000243187,8|8,0:1|0:1,0:0:0:0:
87,278,115312,1,8,0:1:0:0:
87,278,115395,1,8,0:1:0:0:
157,363,115562,2,0,L|299:330,1,127.50000243187,8|0,0:1|3:0,0:0:0:0:
360,264,116062,6,0,L|414:275,3,31.8750006079674,8|8|0|0,0:1|0:1|3:0|3:0,0:0:0:0:
327,228,116395,2,0,L|275:241,3,31.8750006079674,0|0|0|0,3:0|3:0|3:0|3:0,0:0:0:0:
350,187,116728,1,8,0:1:0:0:
0,76,128062,6,0,P|47:95|106:178,1,134.999995880127,4|0,3:0|0:0,0:0:0:0:
110,253,128562,1,0,3:0:0:0:
197,268,128728,2,0,P|250:229|279:152,1,134.999995880127,10|0,0:1|0:0,0:0:0:0:
250,76,129228,2,0,P|307:76|366:136,1,134.999995880127,0|0,3:0|3:0,0:0:0:0:
355,212,129728,2,0,P|360:251|362:298,1,67.4999979400635,0|0,3:0|0:0,0:0:0:0:
438,359,130062,6,0,P|442:283|448:224,1,134.999995880127,10|0,0:1|0:0,0:0:0:0:
512,163,130562,1,0,3:0:0:0:
493,59,130728,2,0,P|448:40|361:44,1,134.999995880127,2|0,3:1|0:0,0:0:0:0:
308,105,131228,1,0,3:0:0:0:
238,155,131395,2,0,P|171:161|108:139,1,134.999995880127,10|0,0:1|0:0,0:0:0:0:
88,38,131895,1,0,3:0:0:0:
88,38,132062,6,0,B|161:25|161:25|208:44|208:44|299:28,1,202.499993820191,2|0,0:1|0:0,0:0:0:0:
373,58,132728,2,0,B|403:61|418:88|418:88|384:187,1,134.999995880127,10|0,0:1|0:0,0:0:0:0:
434,230,133228,1,0,3:0:0:0:
362,302,133395,6,0,P|395:287|503:293,1,134.999995880127,6|0,3:1|0:0,0:0:0:0:
419,366,133895,1,0,0:0:0:0:
419,366,134062,2,0,P|351:382|274:367,1,134.999995880127,10|0,0:1|0:0,0:0:0:0:
217,315,134562,2,0,L|126:321,1,67.4999979400635,0|2,3:0|0:1,0:0:0:0:
80,269,134895,1,0,3:0:0:0:
123,191,135062,2,0,P|126:156|94:115,1,67.4999979400635,0|0,3:0|0:0,0:0:0:0:
38,61,135395,2,0,B|68:33|68:33|188:52,1,134.999995880127,10|0,0:1|0:0,0:0:0:0:
234,95,135895,1,0,3:0:0:0:
234,95,136062,6,0,L|381:85,1,134.999995880127,2|0,3:1|0:0,0:0:0:0:
439,18,136562,1,0,3:0:0:0:
439,18,136728,2,0,P|463:72|434:164,1,134.999995880127,10|0,0:1|0:0,0:0:0:0:
363,172,137228,2,0,P|353:210|381:307,1,134.999995880127,0|0,3:0|3:0,0:0:0:0:
447,348,137728,2,0,P|463:302|448:260,1,67.4999979400635,0|0,3:0|0:0,0:0:0:0:
335,245,138062,5,10,1:1:0:0:
268,293,138228,1,0,3:0:0:0:
248,371,138395,1,8,1:0:0:0:
224,176,138728,6,0,P|216:123|130:78,1,134.999995880127,6|0,3:1|0:0,0:0:0:0:
74,127,139228,1,0,3:0:0:0:
74,127,139395,2,0,P|82:180|168:225,1,134.999995880127,10|0,1:1|0:0,0:0:0:0:
224,176,139895,2,0,P|268:162|367:189,1,134.999995880127,0|0,3:0|3:0,0:0:0:0:
352,272,140395,2,0,P|308:286|209:259,2,134.999995880127,0|10|0,3:0|1:1|0:0,0:0:0:0:
426,226,141228,5,0,3:0:0:0:
382,129,141395,2,0,P|379:84|445:26,1,134.999995880127,2|0,3:1|0:0,0:0:0:0:
461,105,141895,1,0,3:0:0:0:
503,178,142062,2,0,B|512:206|532:220|532:220|489:324,1,134.999995880127,10|0,1:1|0:0,0:0:0:0:
455,362,142562,2,0,P|392:387|314:350,1,134.999995880127,0|0,3:0|3:0,0:0:0:0:
270,311,143062,2,0,P|207:290|145:315,2,134.999995880127,0|10|0,3:0|1:1|0:0,0:0:0:0:
211,381,143895,1,0,3:0:0:0:
145,314,144062,6,0,B|119:243|119:243|120:208|155:193,1,134.999995880127,6|0,3:1|0:0,0:0:0:0:
224,131,144562,1,0,3:0:0:0:
179,51,144728,2,0,P|134:41|35:97,1,134.999995880127,10|0,1:1|0:0,0:0:0:0:
30,150,145228,2,0,B|19:301,1,134.999995880127,0|0,3:0|3:0,0:0:0:0:
102,357,145728,2,0,P|156:355|242:393,2,134.999995880127,0|10|0,3:0|1:1|0:0,0:0:0:0:
140,270,146562,1,0,3:0:0:0:
240,288,146728,6,0,P|285:266|316:167,1,134.999995880127,2|0,3:1|0:0,0:0:0:0:
270,94,147228,1,0,3:0:0:0:
356,51,147395,2,0,P|421:61|451:119,1,134.999995880127,10|8,0:1|0:1,0:0:0:0:
407,192,147895,5,8,0:1:0:0:
407,202,147978,1,8,0:1:0:0:
406,212,148062,2,0,L|392:301,1,67.4999979400635,8|8,0:1|3:0,0:0:0:0:
490,340,148395,2,0,L|485:273,1,67.4999979400635,8|8,3:0|3:0,0:0:0:0:
396,367,148728,5,10,0:1:0:0:
308,325,148895,1,0,3:0:0:0:
230,372,149062,2,0,L|160:378,1,67.4999979400635,8|8,3:0|3:0,0:0:0:0:
59,306,149395,6,0,P|104:298|162:211,1,134.999995880127,4|0,3:0|0:0,0:0:0:0:
98,152,149895,1,0,3:0:0:0:
180,107,150062,2,0,L|335:145,1,134.999995880127,10|0,0:1|0:0,0:0:0:0:
362,210,150562,2,0,P|392:160|375:71,1,134.999995880127,0|0,3:0|3:0,0:0:0:0:
292,5,151062,2,0,L|311:140,2,134.999995880127,0|10|0,3:0|0:1|0:0,0:0:0:0:
380,57,151895,1,0,3:0:0:0:
466,0,152062,6,0,B|504:55|504:55|465:126,1,134.999995880127,2|0,3:1|0:0,0:0:0:0:
505,191,152562,1,0,3:0:0:0:
425,278,152728,2,0,P|373:280|273:231,1,134.999995880127,10|0,0:1|0:0,0:0:0:0:
217,193,153228,2,0,P|165:191|65:240,1,134.999995880127,0|0,3:0|3:0,0:0:0:0:
110,336,153728,2,0,P|162:338|262:289,2,134.999995880127,0|10|0,3:0|0:1|0:0,0:0:0:0:
32,283,154562,1,0,3:0:0:0:
24,151,154728,6,0,B|77:140|77:140|107:150|107:150|185:135,1,134.999995880127,6|0,3:1|0:0,0:0:0:0:
246,120,155228,1,0,3:0:0:0:
325,212,155395,2,0,P|365:200|429:119,1,134.999995880127,10|0,0:1|0:0,0:0:0:0:
362,55,155895,2,0,P|322:67|258:148,2,134.999995880127,0|0|0,3:0|3:0|0:0,0:0:0:0:
419,116,156728,6,0,L|392:273,1,134.999995880127,10|0,0:1|0:0,0:0:0:0:
445,326,157228,1,0,3:0:0:0:
369,368,157395,2,0,P|314:348|229:366,1,134.999995880127,2|0,3:1|0:0,0:0:0:0:
155,325,157895,1,0,3:0:0:0:
88,261,158062,2,0,P|149:275|228:259,1,134.999995880127,10|0,0:1|0:0,0:0:0:0:
305,218,158562,6,0,B|287:201|303:159|303:159|312:123|291:87,1,134.999995880127,0|0,3:0|3:0,0:0:0:0:
300,1,159062,2,0,P|251:6|224:30,1,67.4999979400635,0|0,3:0|0:0,0:0:0:0:
197,90,159395,1,10,1:1:0:0:
133,38,159562,1,0,3:0:0:0:
50,48,159728,1,8,1:0:0:0:
2,236,160062,6,0,B|49:231|49:231|75:244|75:244|137:238,1,134.999995880127,6|0,3:1|0:0,0:0:0:0:
198,172,160562,1,0,3:0:0:0:
276,132,160728,2,0,B|323:127|323:127|349:140|349:140|411:134,1,134.999995880127,10|0,1:1|0:0,0:0:0:0:
405,42,161228,2,0,B|347:36|347:36|321:49|321:49|273:45,1,134.999995880127,0|0,3:0|3:0,0:0:0:0:
192,9,161728,2,0,P|136:26|80:77,2,134.999995880127,0|10|0,3:0|1:1|0:0,0:0:0:0:
273,45,162562,5,0,3:0:0:0:
209,139,162728,2,0,P|208:181|245:279,1,134.999995880127,2|0,3:1|0:0,0:0:0:0:
323,299,163228,1,0,3:0:0:0:
377,232,163395,2,0,P|378:190|341:92,1,134.999995880127,10|0,1:1|0:0,0:0:0:0:
272,45,163895,1,0,3:0:0:0:
368,8,164062,6,0,P|426:25|462:154,1,202.499993820191,2|0,0:1|0:0,0:0:0:0:
506,227,164728,2,0,L|470:369,1,134.999995880127,10|0,1:1|0:0,0:0:0:0:
390,373,165228,5,0,3:0:0:0:
275,287,165395,2,0,P|229:262|136:279,1,134.999995880127,6|0,3:1|0:0,0:0:0:0:
115,358,165895,1,0,3:0:0:0:
49,288,166062,2,0,B|35:197|35:197|48:175|77:170,1,134.999995880127,10|0,1:1|0:0,0:0:0:0:
150,188,166562,2,0,P|290:194|290:194,1,134.999995880127,0|0,3:0|3:0,0:0:0:0:
339,259,167062,2,0,P|367:208|330:126,2,134.999995880127,0|10|0,3:0|1:1|0:0,0:0:0:0:
279,326,167895,5,0,3:0:0:0:
368,375,168062,2,0,P|415:329|498:332,1,134.999995880127,2|0,3:1|0:0,0:0:0:0:
512,246,168562,1,0,3:0:0:0:
463,170,168728,2,0,B|440:154|434:132|434:132|480:46,1,134.999995880127,10|0,0:1|0:0,0:0:0:0:
411,6,169228,5,0,3:0:0:0:
337,48,169395,1,0,3:0:0:0:
258,17,169562,1,10,0:1:0:0:
344,170,169895,5,0,3:0:0:0:
261,192,170062,2,0,L|244:262,1,67.4999979400635,10|0,0:1|3:0,0:0:0:0:
280,335,170395,1,8,3:0:0:0:
363,308,170562,1,8,3:0:0:0:
376,320,170728,5,4,3:0:0:0:
