osu file format v14

[General]
AudioFilename: audio.ogg
AudioLeadIn: 0
PreviewTime: 59978
Countdown: 0
SampleSet: Soft
StackLeniency: 0.7
Mode: 0
LetterboxInBreaks: 0
WidescreenStoryboard: 1

[Editor]
Bookmarks: 2745,13412,24079,29412,29745,34745,45412,56079,72079,82745,85412,96079,106745,117412,128079,138745,149412,160079,170745
DistanceSpacing: 1
BeatDivisor: 4
GridSize: 4
TimelineZoom: 1

[Metadata]
Title:2004 Breakup
TitleUnicode:2004 Breakup
Artist:The Gentle Men
ArtistUnicode:The Gentle Men
Creator:Mimari
Version:Blitzifyyy's Easy
Source:
Tags:pop rock punk english penguinz0 moistcr1tikal critikal charlie troy mckubre solstate washedup player blitzifyyy
BeatmapID:2658848
BeatmapSetID:1275814

[Difficulty]
HPDrainRate:2
CircleSize:2.4
OverallDifficulty:2
ApproachRate:3
SliderMultiplier:0.999999999999999
SliderTickRate:1

[Events]
//Background and Video events
0,0,"Capture.PNG",0,0
Video,-17,"2004 Breakup.mp4"
//Break Periods
2,24079,27955
2,29928,33288
2,56079,59955
2,82745,83955
2,117412,126622
//Storyboard Layer 0 (Background)
//Storyboard Layer 1 (Fail)
//Storyboard Layer 2 (Pass)
//Storyboard Layer 3 (Foreground)
//Storyboard Layer 4 (Overlay)
//Storyboard Sound Samples

[TimingPoints]
2729,333.333333333333,4,2,1,80,1,0
2729,-100,4,2,1,80,0,0
13395,-100,4,2,1,85,0,0
21562,-100,4,2,1,85,0,0
23562,-100,4,2,1,85,0,0
24062,-100,4,2,1,30,0,0
29395,-100,4,2,1,85,0,0
34728,-100,4,2,1,60,0,0
45395,-100,4,2,1,65,0,0
45562,-100,4,2,1,65,0,0
54728,-100,4,2,1,65,0,0
54978,-100,4,2,1,5,0,0
55062,-100,4,2,1,65,0,0
61395,-100,4,2,1,75,0,0
71728,-100,4,2,1,75,0,0
72062,-100,4,2,1,75,0,0
76728,-100,4,2,1,75,0,0
77395,-100,4,2,1,75,0,0
85395,-100,4,2,1,85,0,0
93562,-100,4,2,1,85,0,0
96062,-100,4,2,1,65,0,0
106895,-100,4,2,1,65,0,0
114728,-100,4,2,1,80,0,0
114895,-100,4,2,1,80,0,0
128062,-100,4,2,1,75,0,0
132728,-100,4,2,1,75,0,0
133395,-100,4,2,1,75,0,0
136728,-100,4,2,1,75,0,0
142728,-100,4,2,1,75,0,0
143395,-100,4,2,1,75,0,0
149395,-100,4,2,1,75,0,0
160062,-100,4,2,1,75,0,0
168062,-100,4,2,1,75,0,0

[Colours]
Combo1 : 240,145,145
Combo2 : 123,208,240
Combo3 : 215,158,222
Combo4 : 234,236,140

[HitObjects]
188,141,2728,6,0,B|300:164|252:58|374:76,1,200,2|2,3:1|3:1,0:0:0:0:
459,101,3728,1,10,0:1:0:0:
508,188,4062,2,0,L|504:298,1,99.9999999999999,2|10,3:1|0:1,0:0:0:0:
430,355,4728,2,0,P|378:371|321:346,1,99.9999999999999,2|10,3:1|0:1,0:0:0:0:
336,257,5395,6,0,B|333:166|333:166|326:150|326:150|325:53,1,200,2|2,3:1|3:1,0:0:0:0:
239,6,6395,1,10,0:1:0:0:
167,76,6728,2,0,P|151:127|163:174,1,99.9999999999999,2|10,3:1|0:1,0:0:0:0:
234,239,7395,1,2,3:1:0:0:
34,223,8062,6,0,P|11:145|44:32,1,200,6|2,3:1|3:1,0:0:0:0:
141,12,9062,1,10,0:1:0:0:
206,87,9395,2,0,L|318:82,1,99.9999999999999,2|10,3:1|0:1,0:0:0:0:
382,17,10062,2,0,L|494:22,1,99.9999999999999,2|10,3:1|0:1,0:0:0:0:
493,120,10728,6,0,B|487:264|487:264|504:287|505:315,1,200,2|2,3:1|3:1,0:0:0:0:
422,372,11728,1,10,0:1:0:0:
340,314,12062,2,0,P|292:301|237:317,1,99.9999999999999,2|10,3:1|0:1,0:0:0:0:
173,383,12728,1,2,3:1:0:0:
93,325,13062,1,10,0:1:0:0:
7,376,13395,6,0,B|-39:278|50:278|10:170,1,200,6|2,3:1|3:1,0:0:0:0:
90,118,14395,1,10,0:1:0:0:
165,183,14728,2,0,P|218:198|262:184,1,99.9999999999999,2|10,3:1|0:1,0:0:0:0:
340,126,15395,2,0,P|355:73|341:29,1,99.9999999999999,2|10,3:1|0:1,0:0:0:0:
246,3,16062,6,0,B|159:2|159:2|135:10|135:10|41:8,1,200,2|2,3:1|3:1,0:0:0:0:
0,96,17062,1,10,0:1:0:0:
57,177,17395,2,0,P|70:231|52:280,1,99.9999999999999,2|10,3:1|0:1,0:0:0:0:
12,361,18062,1,2,3:1:0:0:
109,381,18395,1,10,1:1:0:0:
189,322,18728,6,0,B|250:296|250:296|393:322,1,200,6|2,3:1|3:1,0:0:0:0:
468,369,19728,1,10,0:1:0:0:
505,276,20062,2,0,B|520:228|520:228|506:165,1,99.9999999999999,2|10,3:1|0:1,0:0:0:0:
442,104,20728,2,0,L|332:106,1,99.9999999999999,2|10,3:1|0:1,0:0:0:0:
262,166,21395,6,0,L|203:164,1,50,10|0,0:1|3:0,0:0:0:0:
61,164,22062,1,10,0:1:0:0:
3,82,22395,1,8,0:1:0:0:
60,0,22728,2,0,L|175:3,1,99.9999999999999,0|10,0:0|0:1,0:0:0:0:
248,50,23395,2,0,L|300:48,1,50,8|2,0:1|3:1,0:0:0:0:
409,152,29395,6,0,P|424:202|406:253,1,99.9999999999999,8|8,3:0|3:0,0:0:0:0:
7,357,34728,6,0,B|108:386|97:299|209:333,1,200,4|10,3:0|1:1,0:0:0:0:
287,375,35728,1,0,0:0:0:0:
352,299,36062,2,0,P|370:251|350:192,2,99.9999999999999,2|8|10,0:1|3:0|0:1,0:0:0:0:
266,246,37062,1,2,0:1:0:0:
187,307,37395,6,0,B|137:317|92:285|92:285|47:324|-23:307,1,200,2|10,3:1|0:1,0:0:0:0:
23,214,38395,1,8,3:0:0:0:
109,163,38728,2,0,L|220:165,1,99.9999999999999,0|8,0:0|3:0,0:0:0:0:
301,206,39395,1,8,0:1:0:0:
491,145,40062,6,0,P|514:105|402:31,1,200,6|10,3:1|1:1,0:0:0:0:
344,90,41062,1,0,0:0:0:0:
246,66,41395,2,0,L|140:67,2,99.9999999999999,2|8|10,0:1|3:0|1:1,0:0:0:0:
321,0,42395,1,8,1:0:0:0:
413,38,42728,6,0,P|431:85|418:145,1,99.9999999999999,2|8,3:0|3:0,0:0:0:0:
347,197,43395,2,0,L|235:195,1,99.9999999999999,10|8,1:1|3:0,0:0:0:0:
152,228,44062,2,0,B|132:215|117:192|117:192|118:357,1,200,0|8,0:0|1:0,0:0:0:0:
307,277,45395,6,0,L|423:266,1,99.9999999999999,4|10,3:0|1:0,0:0:0:0:
443,174,46062,2,0,P|451:131|426:76,1,99.9999999999999,2|10,3:1|3:1,0:0:0:0:
335,46,46728,2,0,B|246:45|246:45|227:57|227:57|130:56,1,200,2|2,3:1|3:1,0:0:0:0:
43,87,47728,1,10,3:1:0:0:
82,179,48062,6,0,P|97:228|82:279,1,99.9999999999999,2|10,3:1|3:1,0:0:0:0:
38,362,48728,2,0,L|146:358,1,99.9999999999999,2|10,3:1|3:1,0:0:0:0:
229,318,49395,2,0,L|337:322,2,99.9999999999999,2|10|2,3:1|3:1|3:1,0:0:0:0:
38,258,50728,6,0,B|76:161|-16:162|38:64,1,200,4|2,3:0|3:1,0:0:0:0:
133,92,51728,1,10,3:1:0:0:
221,45,52062,2,0,P|267:30|324:50,1,99.9999999999999,2|10,3:1|3:1,0:0:0:0:
398,99,52728,2,0,L|396:202,1,99.9999999999999,2|10,3:1|3:1,0:0:0:0:
409,298,53395,6,0,B|290:293|353:229|226:224,1,200,2|2,3:1|3:1,0:0:0:0:
154,288,54395,1,10,3:1:0:0:
92,209,54728,2,0,B|79:160|79:160|91:104,2,99.9999999999999,2|2|10,3:1|3:1|0:1,0:0:0:0:
427,63,61395,6,0,P|374:46|366:163,1,200,4|10,3:0|0:1,0:0:0:0:
427,217,62395,1,0,0:0:0:0:
501,283,62728,2,0,P|509:330|497:393,2,99.9999999999999,2|0|10,0:1|3:0|0:1,0:0:0:0:
410,326,63728,1,0,0:0:0:0:
319,283,64062,6,0,B|232:285|232:285|209:295|209:295|119:293,1,200,2|10,3:1|0:1,0:0:0:0:
29,335,65062,1,0,0:0:0:0:
5,237,65395,2,0,L|3:133,1,99.9999999999999,2|0,0:1|3:0,0:0:0:0:
53,50,66062,1,10,0:1:0:0:
138,102,66395,6,0,B|203:138|275:96|275:96|290:103|290:103|366:58|432:106,1,300,0|10,0:0|0:1,0:0:0:0:
484,177,67728,1,0,0:0:0:0:
430,261,68062,2,0,P|416:306|430:365,2,99.9999999999999,2|0|10,0:1|3:0|0:1,0:0:0:0:
357,191,69062,6,0,B|264:184|278:268|164:253,1,200,0|0,0:0|0:0,0:0:0:0:
93,194,70062,1,2,3:1:0:0:
156,117,70395,1,0,0:0:0:0:
100,33,70728,2,0,P|49:23|1:41,2,99.9999999999999,2|0|10,0:1|3:0|1:1,0:0:0:0:
55,123,71728,6,0,B|46:203|128:256|128:256|45:306|53:383,1,300,8|10,1:0|1:1,0:0:0:0:
152,366,73062,1,0,0:0:0:0:
242,322,73395,2,0,P|293:307|344:326,2,99.9999999999999,2|0|10,0:1|3:0|1:1,0:0:0:0:
159,265,74395,6,0,B|122:178|26:200|26:200|100:140|57:60,1,300
139,12,75728,1,0,0:0:0:0:
234,42,76062,2,0,B|330:13|330:13|424:46,1,200,2|10,0:1|1:1,0:0:0:0:
458,243,77395,6,0,P|431:287|332:214,1,200,2|10,3:1|1:1,0:0:0:0:
361,133,78395,1,0,0:0:0:0:
295,57,78728,2,0,L|185:60,1,99.9999999999999,2|0,0:1|3:0,0:0:0:0:
120,124,79395,2,0,P|103:174|117:234,1,99.9999999999999,10|0,1:1|0:0,0:0:0:0:
191,277,80062,6,0,B|256:266|256:266|296:278|296:278|338:261|394:275,2,200,6|10|2,3:1|0:1|3:1,0:0:0:0:
15,373,82062,1,10,0:1:0:0:
505,8,85395,6,0,B|551:106|462:106|502:214,1,200,6|2,3:1|3:1,0:0:0:0:
422,266,86395,1,10,0:1:0:0:
347,201,86728,2,0,P|294:186|250:200,1,99.9999999999999,2|10,3:1|0:1,0:0:0:0:
172,258,87395,2,0,P|157:311|171:355,1,99.9999999999999,2|10,3:1|0:1,0:0:0:0:
267,374,88062,6,0,B|354:375|354:375|378:367|378:367|472:369,1,200,2|2,3:1|3:1,0:0:0:0:
511,280,89062,1,10,0:1:0:0:
450,200,89395,2,0,P|437:146|455:97,1,99.9999999999999,2|10,3:1|0:1,0:0:0:0:
499,17,90062,1,2,3:1:0:0:
400,0,90395,1,10,1:1:0:0:
322,62,90728,6,0,B|261:88|261:88|118:62,1,200,6|2,3:1|3:1,0:0:0:0:
44,15,91728,1,10,0:1:0:0:
7,108,92062,2,0,B|-8:156|-8:156|6:219,1,99.9999999999999,2|10,3:1|0:1,0:0:0:0:
70,280,92728,2,0,L|180:278,1,99.9999999999999,2|10,3:1|0:1,0:0:0:0:
250,218,93395,6,0,L|309:220,1,50,10|0,0:1|3:0,0:0:0:0:
451,220,94062,1,10,0:1:0:0:
509,302,94395,1,8,0:1:0:0:
441,375,94728,2,0,L|326:372,1,99.9999999999999,0|10,0:0|0:1,0:0:0:0:
252,324,95395,2,0,L|200:326,1,50,8|2,0:1|3:1,0:0:0:0:
59,374,96062,6,0,P|5:296|60:213,1,200,4|2,3:0|3:1,0:0:0:0:
150,243,97062,1,10,3:1:0:0:
234,190,97395,2,0,L|340:192,1,99.9999999999999,2|10,3:1|3:1,0:0:0:0:
423,146,98062,2,0,P|441:99|425:40,1,99.9999999999999,2|10,3:1|3:1,0:0:0:0:
342,7,98728,6,0,B|255:8|255:8|230:17|230:17|134:16,1,200,2|2,3:1|3:1,0:0:0:0:
44,28,99728,1,10,3:1:0:0:
6,120,100062,2,0,P|-7:166|10:230,2,99.9999999999999,2|10|2,3:1|3:1|3:1,0:0:0:0:
205,137,101395,6,0,B|309:119|292:195|408:157,1,200,4|2,3:0|3:1,0:0:0:0:
471,92,102395,1,10,3:1:0:0:
512,184,102728,2,0,P|519:243|503:296,1,99.9999999999999,2|10,3:1|3:1,0:0:0:0:
433,347,103395,2,0,L|330:345,1,99.9999999999999,2|10,3:1|3:1,0:0:0:0:
234,361,104062,6,0,P|182:334|228:223,1,200,2|2,3:1|3:1,0:0:0:0:
320,260,105062,1,10,3:1:0:0:
409,215,105395,2,0,P|420:164|402:104,2,99.9999999999999,2|0|8,3:1|3:0|0:1,0:0:0:0:
441,17,106728,6,0,B|340:-12|351:75|239:41,1,200,4|10,3:0|3:1,0:0:0:0:
158,2,107728,1,0,0:0:0:0:
98,82,108062,2,0,P|80:130|100:189,2,99.9999999999999,2|2|10,3:1|3:1|3:1,0:0:0:0:
183,133,109062,1,10,3:1:0:0:
271,86,109395,6,0,B|321:76|366:108|366:108|411:69|481:86,1,200,2|10,3:1|3:1,0:0:0:0:
495,175,110395,1,2,3:1:0:0:
405,219,110728,2,0,L|294:217,1,99.9999999999999,2|2,3:1|3:1,0:0:0:0:
212,178,111395,1,10,3:1:0:0:
21,239,112062,6,0,P|-2:279|110:353,1,200,4|10,3:0|3:1,0:0:0:0:
166,292,113062,1,2,3:1:0:0:
262,319,113395,2,0,L|368:318,2,99.9999999999999,2|2|10,3:1|3:1|3:1,0:0:0:0:
190,380,114395,1,10,3:1:0:0:
94,349,114728,6,0,P|76:302|89:242,1,99.9999999999999,8|0,0:1|0:0,0:0:0:0:
159,189,115395,2,0,L|271:191,1,99.9999999999999,8|0,0:1|0:0,0:0:0:0:
351,229,116062,2,0,B|394:300|351:378|351:378|336:355|316:342,1,200,8|8,0:1|0:1,0:0:0:0:
85,321,128062,6,0,P|138:338|146:221,1,200,4|10,3:0|0:1,0:0:0:0:
85,167,129062,1,0,0:0:0:0:
19,93,129395,2,0,B|1:46|1:46|17:-5,2,99.9999999999999,2|0|10,0:1|3:0|0:1,0:0:0:0:
107,45,130395,1,0,0:0:0:0:
190,102,130729,6,0,B|242:90|277:100|277:100|300:90|300:90|341:102|390:92,1,200,2|10,3:1|0:1,0:0:0:0:
477,45,131729,1,0,0:0:0:0:
510,140,132062,2,0,L|512:244,1,99.9999999999999,2|0,0:1|3:0,0:0:0:0:
467,329,132728,6,0,B|401:366|329:324|329:324|314:331|314:331|238:286|172:334,1,300,10|0,0:1|0:0,0:0:0:0:
94,373,134062,1,10,0:1:0:0:
29,296,134395,1,0,0:0:0:0:
85,213,134729,2,0,P|99:168|85:109,2,99.9999999999999,2|0|10,0:1|3:0|0:1,0:0:0:0:
154,285,135729,6,0,B|247:292|233:208|347:223,1,200,0|0,0:0|0:0,0:0:0:0:
421,274,136729,1,10,0:1:0:0:
471,187,137062,1,0,0:0:0:0:
409,108,137395,2,0,P|398:56|415:7,2,99.9999999999999,2|0|10,0:1|3:0|1:1,0:0:0:0:
345,185,138395,1,8,1:0:0:0:
262,128,138728,6,0,B|204:106|204:106|57:140,1,200,6|10,3:1|1:1,0:0:0:0:
9,216,139728,1,0,0:0:0:0:
59,302,140062,2,0,P|107:315|155:294,1,99.9999999999999,2|0,0:1|3:0,0:0:0:0:
232,237,140728,2,0,L|335:239,1,99.9999999999999,10|0,1:1|0:0,0:0:0:0:
427,267,141395,6,0,B|438:218|416:188|416:188|428:55,1,200,2|10,3:1|1:1,0:0:0:0:
352,3,142395,1,0,0:0:0:0:
275,67,142728,2,0,P|224:74|174:62,1,99.9999999999999,2|0,0:1|0:0,0:0:0:0:
88,17,143395,1,10,1:1:0:0:
133,211,144062,6,0,P|192:202|198:318,1,200,6|10,3:1|1:1,0:0:0:0:
16,376,145395,2,0,B|-2:317|32:280|32:280|-2:238|9:168,1,200,2|10,0:1|1:1,0:0:0:0:
77,117,146395,1,0,0:0:0:0:
146,189,146728,6,0,L|250:186,1,99.9999999999999,2|0,3:1|0:0,0:0:0:0:
329,130,147395,2,0,L|433:133,1,99.9999999999999,10|8,0:1|0:1,0:0:0:0:
503,199,148062,2,0,P|512:261|490:316,2,99.9999999999999,8|8|10,0:1|3:0|0:1,0:0:0:0:
428,132,149062,1,8,3:0:0:0:
344,187,149395,6,0,P|291:204|283:87,1,200,4|10,3:0|0:1,0:0:0:0:
353,45,150395,1,0,0:0:0:0:
417,121,150728,2,0,L|528:118,2,99.9999999999999,2|0|10,0:1|3:0|0:1,0:0:0:0:
344,187,151728,1,0,0:0:0:0:
266,123,152062,6,0,B|179:121|179:121|156:111|156:111|66:113,1,200,2|10,3:1|0:1,0:0:0:0:
2,188,153062,1,0,0:0:0:0:
58,270,153395,2,0,P|76:320|50:374,2,99.9999999999999,2|0|10,0:1|3:0|0:1,0:0:0:0:
104,180,154395,6,0,B|169:144|241:186|241:186|256:179|256:179|332:224|398:176,1,300,0|10,0:0|0:1,0:0:0:0:
467,122,155728,1,0,0:0:0:0:
505,214,156062,2,0,L|501:319,2,99.9999999999999,2|0|10,0:1|3:0|0:1,0:0:0:0:
405,202,157062,6,0,B|312:209|326:125|212:140,1,200,0|0,0:0|0:0,0:0:0:0:
131,182,158062,1,10,0:1:0:0:
182,267,158395,1,0,0:0:0:0:
121,346,158728,2,0,P|70:356|22:338,2,99.9999999999999,2|0|10,0:1|3:0|1:1,0:0:0:0:
80,254,159728,6,0,B|71:174|153:121|153:121|70:71|78:-6,1,300,8|10,1:0|1:1,0:0:0:0:
177,22,161062,1,0,0:0:0:0:
275,38,161395,2,0,P|326:53|377:34,2,99.9999999999999,2|0|10,0:1|3:0|1:1,0:0:0:0:
205,109,162395,6,0,B|165:177|93:152|93:152|202:206|156:302,1,300,0|10,0:0|1:1,0:0:0:0:
123,377,163728,1,0,0:0:0:0:
222,364,164062,2,0,B|429:343,1,200,2|10,0:1|1:1,0:0:0:0:
473,150,165395,6,0,P|446:106|347:179,1,200,6|10,3:1|1:1,0:0:0:0:
367,262,166395,1,0,0:0:0:0:
312,346,166728,2,0,L|202:343,1,99.9999999999999,2|0,0:1|3:0,0:0:0:0:
157,257,167395,2,0,P|140:207|154:147,1,99.9999999999999,10|0,1:1|0:0,0:0:0:0:
197,74,168062,6,0,B|148:51|100:71|100:71|68:60|68:60|-5:67,2,200,2|10|0,3:1|0:1|3:0,0:0:0:0:
357,192,170062,1,10,0:1:0:0:
293,269,170395,1,8,3:0:0:0:
202,312,170728,5,4,3:0:0:0:
