osu file format v14

[General]
AudioFilename: audio.ogg
AudioLeadIn: 0
PreviewTime: 59978
Countdown: 0
SampleSet: Soft
StackLeniency: 0.7
Mode: 0
LetterboxInBreaks: 0
WidescreenStoryboard: 0

[Editor]
Bookmarks: 2745,13412,24079,29412,29745,34745,45412,56079,72079,82745,85412,96079,106745,117412,128079,138745,149412,160079,170745
DistanceSpacing: 1
BeatDivisor: 4
GridSize: 4
TimelineZoom: 1

[Metadata]
Title:2004 Breakup
TitleUnicode:2004 Breakup
Artist:The Gentle Men
ArtistUnicode:The Gentle Men
Creator:Mimari
Version:2004
Source:
Tags:pop rock punk english penguinz0 moistcr1tikal critikal charlie troy mckubre solstate washedup player blitzifyyy
BeatmapID:2650781
BeatmapSetID:1275814

[Difficulty]
HPDrainRate:6
CircleSize:4
OverallDifficulty:8
ApproachRate:9
SliderMultiplier:1.75
SliderTickRate:1

[Events]
//Background and Video events
0,0,"Capture.PNG",0,0
Video,-17,"2004 Breakup.mp4"
//Break Periods
2,24262,28795
2,29928,34128
2,56079,60795
2,82745,84462
2,116928,127462
//Storyboard Layer 0 (Background)
//Storyboard Layer 1 (Fail)
//Storyboard Layer 2 (Pass)
//Storyboard Layer 3 (Foreground)
//Storyboard Layer 4 (Overlay)
//Storyboard Sound Samples

[TimingPoints]
2729,333.333333333333,4,2,1,80,1,0
2729,-100,4,2,1,80,0,0
13395,-90.9090909090909,4,2,1,85,0,0
21562,-100,4,2,1,85,0,0
23562,-111.111111111111,4,2,1,85,0,0
24062,-111.111111111111,4,2,1,30,0,0
29395,-111.111111111111,4,2,1,85,0,0
34728,-125,4,2,1,60,0,0
45395,-125,4,2,1,65,0,0
45562,-111.111111111111,4,2,1,65,0,0
54728,-90.9090909090909,4,2,1,65,0,0
54978,-90.9090909090909,4,2,1,5,0,0
55062,-83.3333333333333,4,2,1,65,0,0
61395,-117.647058823529,4,2,1,75,0,0
71728,-105.263157894737,4,2,1,75,0,0
72062,-117.647058823529,4,2,1,75,0,0
76728,-105.263157894737,4,2,1,75,0,0
77395,-117.64705882353,4,2,1,75,0,0
85395,-90.9090909090909,4,2,1,85,0,0
93562,-100,4,2,1,85,0,0
96062,-111.111111111111,4,2,1,65,0,0
106895,-117.647058823529,4,2,1,65,0,0
114728,-117.647058823529,4,2,1,80,0,0
114895,-105.263157894737,4,2,1,80,0,0
128062,-117.64705882353,4,2,1,75,0,0
132728,-105.263157894737,4,2,1,75,0,0
133395,-117.64705882353,4,2,1,75,0,0
136728,-105.263157894737,4,2,1,75,0,0
142728,-95.2380952380954,4,2,1,75,0,0
143395,-105.263157894737,4,2,1,75,0,0
149395,-95.2380952380952,4,2,1,75,0,0
160062,-86.9565217391304,4,2,1,75,0,0
168062,-100,4,2,1,75,0,0

[Colours]
Combo1 : 240,145,145
Combo2 : 123,208,240
Combo3 : 215,158,222
Combo4 : 234,236,140

[HitObjects]
48,270,2728,6,0,B|108:261|108:261|154:290|154:290|233:276,1,175,6|2,3:1|3:1,0:0:0:0:
367,323,3228,1,0,3:0:0:0:
283,126,3395,2,0,P|227:119|180:231,1,175,2|10,3:1|0:1,0:0:0:0:
241,361,3895,1,0,3:0:0:0:
360,204,4062,6,0,B|457:176|416:299|541:249,1,175,2|10,3:1|0:1,0:0:0:0:
283,126,4562,1,0,3:0:0:0:
469,52,4728,2,0,L|453:139,1,87.5,2|0,3:1|3:0,0:0:0:0:
375,290,5062,2,0,L|359:203,1,87.5,10|0,0:1|3:0,0:0:0:0:
242,44,5395,6,0,P|186:37|131:149,1,175,2|10,3:1|0:1,0:0:0:0:
177,309,5895,1,0,3:0:0:0:
245,186,6062,2,0,B|185:177|185:177|139:206|139:206|60:192,1,175,2|10,3:1|0:1,0:0:0:0:
3,98,6562,1,0,3:0:0:0:
153,19,6728,6,0,B|250:-9|209:114|334:64,1,175,2|10,3:1|0:1,0:0:0:0:
417,31,7228,1,0,3:0:0:0:
271,155,7395,1,2,3:1:0:0:
459,223,7562,1,0,3:0:0:0:
305,73,7728,5,10,0:1:0:0:
257,280,7895,1,8,1:1:0:0:
266,318,7978,1,8,1:1:0:0:
272,355,8062,6,0,B|175:383|216:260|91:310,1,175,6|10,3:1|0:1,0:0:0:0:
0,366,8562,1,0,3:0:0:0:
91,219,8728,2,0,B|82:279|82:279|111:325|111:325|97:404,1,175,2|10,3:1|0:1,0:0:0:0:
7,186,9228,1,0,3:0:0:0:
167,259,9395,6,0,P|226:256|260:141,1,175,2|10,3:1|0:1,0:0:0:0:
198,9,9895,1,0,3:0:0:0:
82,136,10062,2,0,P|74:180|105:232,1,87.5,2|0,3:1|3:0,0:0:0:0:
211,115,10395,2,0,P|177:85|116:85,1,87.5,10|0,0:1|3:0,0:0:0:0:
43,319,10728,6,0,B|103:310|103:310|149:339|149:339|228:325,1,175,2|10,3:1|0:1,0:0:0:0:
362,372,11228,1,0,3:0:0:0:
278,175,11395,2,0,P|222:168|175:280,1,175,2|10,3:1|0:1,0:0:0:0:
274,384,11895,1,0,3:0:0:0:
397,240,12062,6,0,B|406:180|406:180|377:134|377:134|387:74,1,175,2|10,3:1|0:1,0:0:0:0:
234,14,12562,1,0,3:0:0:0:
316,197,12728,1,2,3:1:0:0:
423,3,12895,5,8,0:1:0:0:
185,103,13062,1,10,0:1:0:0:
397,240,13228,1,0,3:0:0:0:
282,93,13395,6,0,B|185:65|228:196|98:150,1,192.500005874634,6|10,3:1|0:1,0:0:0:0:
5,52,13895,1,0,3:0:0:0:
168,15,14062,2,0,P|192:56|180:109,1,96.250002937317,2|0,3:1|0:0,0:0:0:0:
42,230,14395,1,10,0:1:0:0:
90,69,14562,1,0,3:0:0:0:
176,287,14728,6,0,B|110:276|110:276|63:314|63:314|-24:297,1,192.500005874634,2|10,3:1|0:1,0:0:0:0:
155,197,15228,1,0,3:0:0:0:
230,362,15395,2,0,L|117:382,1,96.250002937317,2|0,3:1|3:0,0:0:0:0:
245,222,15728,2,0,L|358:242,1,96.250002937317,10|0,0:1|3:0,0:0:0:0:
174,24,16062,6,0,P|101:43|89:156,1,192.500005874634,2|10,3:1|0:1,0:0:0:0:
176,287,16562,1,0,3:0:0:0:
266,135,16728,2,0,P|310:111|357:122,1,96.250002937317,2|0,3:1|0:0,0:0:0:0:
230,362,17062,1,10,0:1:0:0:
165,161,17228,1,0,3:0:0:0:
350,307,17395,6,0,L|449:329,1,96.250002937317,2|0,3:1|0:0,0:0:0:0:
165,161,17728,2,0,L|66:183,1,96.250002937317,10|0,0:1|3:0,0:0:0:0:
230,362,18062,1,2,3:1:0:0:
271,109,18228,1,0,3:0:0:0:
116,288,18395,5,10,1:1:0:0:
358,202,18562,1,8,1:1:0:0:
179,54,18728,6,0,B|82:26|125:157|-5:111,1,192.500005874634,6|10,3:1|0:1,0:0:0:0:
197,242,19228,1,0,3:0:0:0:
46,35,19395,2,0,P|12:75|39:146,1,96.250002937317,2|0,3:1|0:0,0:0:0:0:
114,302,19728,1,10,0:1:0:0:
187,75,19895,1,0,3:0:0:0:
20,324,20062,6,0,B|86:313|86:313|133:351|133:351|220:334,1,192.500005874634,2|10,3:1|0:1,0:0:0:0:
366,273,20562,1,0,3:0:0:0:
172,170,20728,2,0,L|153:269,1,96.250002937317,2|0,3:1|3:0,0:0:0:0:
320,384,21062,1,10,0:1:0:0:
273,139,21228,1,0,3:0:0:0:
196,338,21395,5,10,0:1:0:0:
443,243,21562,2,0,P|500:282|480:384,1,175,0|0,3:0|3:0,0:0:0:0:
274,219,22062,2,0,P|259:177|291:122,1,87.5,10|0,0:1|0:0,0:0:0:0:
442,141,22395,2,0,P|413:175|350:176,1,87.5,8|0,0:1|3:0,0:0:0:0:
363,17,22728,6,0,B|354:77|354:77|383:123|383:123|369:202,1,175,0|10,0:0|0:1,0:0:0:0:
300,382,23228,1,0,0:0:0:0:
213,167,23395,5,8,0:1:0:0:
441,282,23562,2,0,B|371:230|323:321|346:306|302:394|213:318,1,236.249992790222,2|0,3:1|0:0,0:0:0:0:
334,189,29395,6,0,B|274:180|274:180|238:203|238:203|148:191,1,157.499995193482,8|8,3:0|3:0,0:0:0:0:
61,51,34728,6,0,L|136:34,1,70,4|0,3:0|0:0,0:0:0:0:
46,137,35062,2,0,L|121:120,1,70,8|8,3:0|3:0,0:0:0:0:
231,281,35395,6,0,P|170:286|128:206,1,140,10|0,1:1|0:0,0:0:0:0:
189,142,35895,2,0,L|204:230,1,70,0|2,3:0|0:1,0:0:0:0:
82,312,36228,5,8,3:0:0:0:
126,227,36395,1,8,3:0:0:0:
193,369,36562,1,8,3:0:0:0:
231,281,36728,2,0,L|313:260,1,70,10|0,0:1|0:0,0:0:0:0:
424,348,37062,2,0,B|351:366|351:366|312:369|289:333,1,140,2|2,0:1|3:1,0:0:0:0:
482,158,37728,6,0,P|489:194|466:243,1,70,8|8,3:0|3:0,0:0:0:0:
416,105,38062,2,0,P|443:80|497:74,1,70,10|0,0:1|0:0,0:0:0:0:
403,190,38395,1,8,3:0:0:0:
335,136,38562,6,0,B|322:91|322:91|333:55|333:55|315:-12,1,140,8|8,3:0|3:0,0:0:0:0:
164,16,39062,1,8,3:0:0:0:
240,48,39228,1,8,3:0:0:0:
130,99,39395,1,8,0:1:0:0:
262,144,39562,2,0,B|307:131|307:131|343:142|343:142|410:124,1,140,4|0,3:3|0:0,0:0:0:0:
230,284,40062,6,0,P|218:230|236:197,1,70,6|0,3:1|0:0,0:0:0:0:
339,268,40395,2,0,P|343:302|330:334,1,70,8|8,3:0|3:0,0:0:0:0:
189,384,40728,2,0,B|107:354|107:354|65:354|66:408,1,140,10|0,1:1|0:0,0:0:0:0:
3,294,41228,2,0,P|41:295|87:256,1,70,0|2,3:0|0:1,0:0:0:0:
100,188,41562,5,8,3:0:0:0:
20,217,41728,1,8,3:0:0:0:
134,90,41895,1,8,3:0:0:0:
51,119,42062,6,0,L|24:27,1,70,10|0,1:1|0:0,0:0:0:0:
244,7,42395,1,8,1:0:0:0:
198,166,42562,1,10,1:1:0:0:
134,90,42728,1,2,3:0:0:0:
380,56,43062,6,0,L|447:72,1,70,8|8,3:0|3:0,0:0:0:0:
292,117,43395,2,0,L|359:133,1,70,10|0,1:1|0:0,0:0:0:0:
499,170,43728,1,8,3:0:0:0:
392,277,43895,6,0,P|338:274|295:190,1,140,8|8,3:0|3:0,0:0:0:0:
359,133,44395,2,0,P|372:166|353:224,1,70,8|0,3:0|3:0,0:0:0:0:
266,316,44728,5,8,1:0:0:0:
202,193,44895,2,0,B|128:176|156:253|61:229,1,140,4|0,3:0|0:0,0:0:0:0:
27,152,45395,5,4,3:0:0:0:
87,355,45562,1,0,3:0:0:0:
201,192,45729,2,0,L|283:214,1,78.7499975967408,10|0,1:0|3:0,0:0:0:0:
75,232,46062,1,2,3:1:0:0:
243,322,46228,1,0,3:0:0:0:
123,172,46395,6,0,P|118:133|135:98,1,78.7499975967408,10|0,3:1|3:0,0:0:0:0:
287,189,46728,1,2,3:1:0:0:
155,271,46895,1,0,3:0:0:0:
268,103,47062,2,0,L|355:124,1,78.7499975967408,10|0,3:1|3:0,0:0:0:0:
155,271,47395,2,0,L|68:292,1,78.7499975967408,2|0,3:1|3:0,0:0:0:0:
18,110,47728,1,10,3:1:0:0:
123,172,47895,1,0,3:0:0:0:
0,308,48062,5,2,3:1:0:0:
51,217,48228,1,0,3:0:0:0:
134,363,48395,2,0,P|97:381|46:367,1,78.7499975967408,10|0,3:1|3:0,0:0:0:0:
187,244,48728,2,0,P|221:266|235:317,1,78.7499975967408,2|0,3:1|3:0,0:0:0:0:
51,217,49062,2,0,P|52:175|88:137,1,78.7499975967408,10|0,3:1|3:0,0:0:0:0:
111,277,49395,5,2,3:1:0:0:
0,308,49562,1,0,3:0:0:0:
128,200,49728,2,0,L|230:226,1,78.7499975967408,10|0,3:1|3:0,0:0:0:0:
62,109,50062,1,2,3:1:0:0:
111,277,50228,1,2,3:1:0:0:
162,72,50395,1,14,3:1:0:0:
235,273,50562,1,0,3:0:0:0:
235,273,50645,1,0,3:0:0:0:
235,273,50728,6,0,B|315:253|294:360|406:306,1,157.499995193482,4|10,3:0|3:1,0:0:0:0:
512,255,51228,1,0,3:0:0:0:
377,169,51395,2,0,P|359:203|374:269,1,78.7499975967408,2|0,3:1|3:0,0:0:0:0:
481,149,51728,2,0,P|482:110|464:75,1,78.7499975967408,10|0,3:1|3:0,0:0:0:0:
290,6,52062,6,0,B|282:67|282:67|302:96|302:96|292:162,1,157.499995193482,2|10,3:1|3:1,0:0:0:0:
205,289,52562,1,0,3:0:0:0:
144,140,52728,2,0,L|244:111,1,78.7499975967408,2|0,3:1|3:0,0:0:0:0:
327,245,53062,2,0,L|251:223,1,78.7499975967408,10|0,3:1|3:0,0:0:0:0:
110,361,53395,5,2,3:1:0:0:
62,201,53562,1,0,3:0:0:0:
205,289,53728,2,0,P|222:326|202:389,1,78.7499975967408,10|0,3:1|3:0,0:0:0:0:
6,279,54062,5,2,3:1:0:0:
199,210,54228,1,0,3:0:0:0:
77,123,54395,2,0,P|35:123|-4:159,1,78.7499975967408,10|0,3:1|3:0,0:0:0:0:
104,375,54728,6,0,B|120:318|120:318|107:287|107:287|127:212,1,144.375004405975,2|0,3:1|0:0,0:0:0:0:
199,210,55062,2,0,B|195:176|195:176|178:155|178:155|166:74,1,104.999996795654,2|2,3:1|3:1,0:0:0:0:
256,1,55395,5,10,0:1:0:0:
492,93,61395,6,0,B|433:82|433:82|400:103|400:103|325:87,1,148.750002837181,4|0,3:0|0:0,0:0:0:0:
289,40,61895,1,0,3:0:0:0:
208,206,62062,6,0,B|273:170|309:241|296:250|338:304|423:246,1,223.125004255772,10|0,0:1|3:0,0:0:0:0:
388,123,62728,2,0,P|366:154|365:204,1,74.3750014185906,2|0,0:1|3:0,0:0:0:0:
491,242,63062,2,0,P|475:207|433:180,1,74.3750014185906,0|0,3:0|0:0,0:0:0:0:
331,268,63395,2,0,P|368:272|413:250,1,74.3750014185906,10|0,0:1|0:0,0:0:0:0:
467,107,63728,5,0,0:0:0:0:
361,189,63895,1,0,3:0:0:0:
479,302,64062,2,0,B|494:215|494:215|476:177|435:186,1,148.750002837181,2|0,3:1|0:0,0:0:0:0:
402,258,64562,1,0,3:0:0:0:
298,84,64728,6,0,B|233:48|197:119|210:128|168:182|83:124,1,223.125004255772,10|0,0:1|3:0,0:0:0:0:
130,0,65395,2,0,P|149:37|138:82,1,74.3750014185906,2|0,0:1|3:0,0:0:0:0:
16,104,65728,2,0,P|37:68|82:54,1,74.3750014185906,0|0,3:0|0:0,0:0:0:0:
172,155,66062,2,0,P|130:154|95:123,1,74.3750014185906,10|0,0:1|0:0,0:0:0:0:
0,4,66395,1,0,0:0:0:0:
172,155,66562,1,0,3:0:0:0:
26,266,66728,6,0,P|31:215|175:156,1,223.125004255772,6|0,3:1|0:0,0:0:0:0:
252,312,67395,2,0,L|234:395,1,74.3750014185906,10|0,0:1|0:0,0:0:0:0:
133,306,67728,2,0,L|120:233,1,74.3750014185906,0|0,0:0|3:0,0:0:0:0:
233,128,68062,6,0,P|252:165|241:210,1,74.3750014185906,2|0,0:1|3:0,0:0:0:0:
119,232,68395,2,0,P|140:196|185:182,1,74.3750014185906,0|0,3:0|0:0,0:0:0:0:
275,283,68729,2,0,P|233:282|198:251,1,74.3750014185906,10|0,0:1|0:0,0:0:0:0:
155,105,69062,1,0,0:0:0:0:
248,196,69228,1,0,3:0:0:0:
69,124,69395,6,0,P|77:62|158:19,1,148.750002837181,2|0,3:1|0:0,0:0:0:0:
225,58,69895,1,0,3:0:0:0:
193,241,70062,6,0,B|128:205|92:276|105:285|63:339|-22:281,1,223.125004255772,2|0,3:1|3:0,0:0:0:0:
29,152,70728,2,0,L|42:246,1,74.3750014185906,2|0,0:1|3:0,0:0:0:0:
152,384,71062,2,0,L|167:282,1,74.3750014185906,0|0,3:0|0:0,0:0:0:0:
190,110,71395,5,10,1:1:0:0:
276,355,71562,1,0,3:0:0:0:
115,145,71728,2,0,P|108:92|145:47,1,83.1249977803231,8|0,1:0|0:0,0:0:0:0:
323,155,72062,6,0,B|312:214|312:214|333:247|333:247|322:295,1,148.750002837181,6|0,3:1|0:0,0:0:0:0:
276,355,72562,1,0,3:0:0:0:
226,98,72729,6,0,B|291:62|327:133|314:142|356:196|441:138,1,223.125004255772,10|0,1:1|0:0,0:0:0:0:
407,16,73395,2,0,P|385:47|384:97,1,74.3750014185906,2|0,0:1|3:0,0:0:0:0:
510,135,73729,2,0,P|494:100|452:73,1,74.3750014185906,0|0,3:0|0:0,0:0:0:0:
350,161,74062,2,0,P|387:165|432:143,1,74.3750014185906,10|0,1:1|0:0,0:0:0:0:
491,0,74395,5,0,0:0:0:0:
421,151,74562,1,0,3:0:0:0:
302,21,74728,2,0,B|215:1|215:1|172:1|149:61,1,148.750002837181,2|0,3:1|0:0,0:0:0:0:
161,109,75228,1,0,3:0:0:0:
327,252,75395,6,0,B|262:216|226:287|239:296|197:350|112:292,1,223.125004255772,10|0,1:1|3:0,0:0:0:0:
92,157,76062,1,2,0:1:0:0:
166,218,76228,1,0,3:0:0:0:
133,304,76395,2,0,L|49:285,1,74.3750014185906,0|0,3:0|0:0,0:0:0:0:
0,52,76728,6,0,B|75:10|112:86|102:93|144:167|250:98,1,249.374993340969,10|0,1:1|3:0,0:0:0:0:
362,43,77395,6,0,P|266:20|219:128,1,223.125004255772,6|0,3:1|3:0,0:0:0:0:
370,215,78062,2,0,L|460:199,1,74.3750014185906,10|0,1:1|0:0,0:0:0:0:
302,304,78395,2,0,L|229:286,1,74.3750014185906,0|0,0:0|3:0,0:0:0:0:
259,153,78728,6,0,P|281:190|268:243,1,74.3750014185906,2|0,0:1|3:0,0:0:0:0:
141,255,79062,2,0,P|161:217|213:200,1,74.3750014185906,0|0,3:0|0:0,0:0:0:0:
248,372,79395,2,0,B|189:361|189:361|156:382|156:382|81:366,1,148.750002837181,10|0,1:1|0:0,0:0:0:0:
27,350,79895,1,0,3:0:0:0:
62,144,80062,6,0,B|127:108|163:179|150:188|192:242|277:184,1,223.125004255772,6|0,3:1|3:0,0:0:0:0:
229,52,80728,2,0,L|214:155,1,74.3750014185906,10|0,0:1|0:0,0:0:0:0:
104,293,81062,2,0,L|93:219,1,74.3750014185906,0|0,0:0|3:0,0:0:0:0:
240,38,81395,5,2,3:1:0:0:
207,249,81562,1,8,0:1:0:0:
124,22,81728,1,8,3:0:0:0:
296,166,81895,1,0,3:0:0:0:
19,267,82062,5,10,0:1:0:0:
200,343,85062,5,0,3:0:0:0:
207,356,85395,6,0,B|218:290|218:290|180:243|180:243|197:156,1,192.500005874634,6|10,3:1|0:1,0:0:0:0:
90,31,85895,1,0,3:0:0:0:
17,215,86062,2,0,P|71:220|119:184,1,96.250002937317,2|0,3:1|0:0,0:0:0:0:
192,6,86395,1,10,0:1:0:0:
7,96,86562,1,0,3:0:0:0:
192,179,86728,6,0,L|303:161,1,96.250002937317,2|0,3:1|0:0,0:0:0:0:
90,124,87062,1,10,0:1:0:0:
200,292,87228,1,0,3:0:0:0:
278,92,87395,2,0,P|292:47|270:-5,1,96.250002937317,2|0,3:1|3:0,0:0:0:0:
192,179,87728,1,10,0:1:0:0:
391,122,87895,1,0,3:0:0:0:
205,48,88062,6,0,L|93:67,1,96.250002937317,2|0,3:1|0:0,0:0:0:0:
282,224,88395,1,10,0:1:0:0:
328,33,88562,1,0,3:0:0:0:
192,179,88728,2,0,P|175:221|207:288,1,96.250002937317,2|0,3:1|0:0,0:0:0:0:
356,273,89062,2,0,P|328:236|254:229,1,96.250002937317,10|0,0:1|3:0,0:0:0:0:
113,317,89395,5,2,3:1:0:0:
180,381,89562,2,0,P|225:376|269:316,1,96.250002937317,0|10,0:0|0:1,0:0:0:0:
273,122,89895,1,0,3:0:0:0:
190,302,90062,1,2,3:1:0:0:
165,71,90228,5,8,0:1:0:0:
277,254,90395,1,10,1:1:0:0:
289,36,90562,1,0,3:0:0:0:
135,238,90728,6,0,P|79:249|17:140,1,192.500005874634,6|10,3:1|0:1,0:0:0:0:
90,0,91228,1,0,3:0:0:0:
200,169,91395,2,0,L|92:150,1,96.250002937317,2|0,3:1|0:0,0:0:0:0:
283,48,91728,1,10,0:1:0:0:
289,243,91895,1,0,3:0:0:0:
171,89,92062,6,0,P|162:41|185:-3,1,96.250002937317,2|0,3:1|0:0,0:0:0:0:
402,231,92395,1,10,0:1:0:0:
200,169,92562,1,0,3:0:0:0:
371,82,92728,2,0,L|475:99,1,96.250002937317,2|0,3:1|3:0,0:0:0:0:
200,169,93062,2,0,L|96:186,1,96.250002937317,10|0,0:1|3:0,0:0:0:0:
362,62,93395,5,10,0:1:0:0:
471,282,93562,2,0,B|405:271|405:271|367:302|367:302|270:289,1,175,0|0,3:0|3:0,0:0:0:0:
299,131,94062,2,0,P|333:167|329:227,1,87.5,10|0,0:1|0:0,0:0:0:0:
284,384,94395,1,8,0:1:0:0:
152,142,94562,6,0,B|55:114|101:229|-22:189,1,175,0|0,3:0|3:0,0:0:0:0:
192,293,95062,2,0,P|212:253|192:187,1,87.5,10|0,0:1|0:0,0:0:0:0:
11,107,95395,5,8,0:1:0:0:
70,329,95562,2,0,B|167:301|121:416|244:376,1,175,2|0,3:1|0:0,0:0:0:0:
306,355,96062,6,0,P|321:321|306:266,1,78.7499975967408,4|0,3:0|3:0,0:0:0:0:
201,218,96395,2,0,P|186:252|201:307,1,78.7499975967408,10|0,1:0|3:0,0:0:0:0:
271,162,96728,5,2,3:1:0:0:
114,192,96895,1,0,3:0:0:0:
269,267,97062,2,0,L|363:245,1,78.7499975967408,10|0,3:1|3:0,0:0:0:0:
312,103,97395,6,0,P|280:124|271:168,1,78.7499975967408,2|0,3:1|3:0,0:0:0:0:
431,276,97728,1,10,3:1:0:0:
460,140,97895,1,0,3:0:0:0:
345,249,98062,2,0,L|365:343,1,78.7499975967408,2|0,3:1|3:0,0:0:0:0:
312,103,98395,2,0,L|332:9,1,78.7499975967408,10|0,3:1|3:0,0:0:0:0:
370,166,98728,5,2,3:1:0:0:
216,109,98895,1,0,3:0:0:0:
406,70,99062,1,10,3:1:0:0:
242,14,99228,1,0,3:0:0:0:
382,183,99395,2,0,P|435:184|474:145,1,78.7499975967408,2|0,3:1|3:0,0:0:0:0:
207,94,99728,2,0,P|154:93|115:132,1,78.7499975967408,10|0,3:1|3:0,0:0:0:0:
245,272,100062,6,0,L|263:177,1,78.7499975967408,2|0,3:1|3:0,0:0:0:0:
66,70,100395,1,10,3:1:0:0:
108,243,100562,1,0,3:0:0:0:
207,94,100728,2,0,P|260:93|299:132,1,78.7499975967408,2|2,3:1|3:1,0:0:0:0:
172,328,101062,1,14,3:1:0:0:
101,139,101228,1,0,3:0:0:0:
21,331,101395,6,0,B|81:321|81:321|119:340|119:340|192:323,1,157.499995193482,4|10,3:0|3:1,0:0:0:0:
297,294,101895,1,0,3:0:0:0:
129,239,102062,1,2,3:1:0:0:
247,372,102228,1,0,3:0:0:0:
293,180,102395,2,0,L|197:153,1,78.7499975967408,10|0,3:1|3:0,0:0:0:0:
370,341,102728,6,0,P|386:295|367:247,1,78.7499975967408,2|0,3:1|3:0,0:0:0:0:
238,247,103062,2,0,P|269:284|320:292,1,78.7499975967408,10|0,3:1|3:0,0:0:0:0:
381,124,103395,1,2,3:1:0:0:
217,158,103562,1,0,3:0:0:0:
379,266,103728,2,0,L|471:284,1,78.7499975967408,10|0,3:1|3:0,0:0:0:0:
295,192,104062,5,2,3:1:0:0:
351,358,104228,1,0,3:0:0:0:
420,195,104395,1,10,3:1:0:0:
478,373,104561,1,0,3:0:0:0:
416,176,104728,2,0,L|428:83,1,78.7499975967408,2|0,3:1|3:0,0:0:0:0:
294,279,105062,1,10,3:1:0:0:
505,225,105228,1,0,3:0:0:0:
330,124,105395,5,2,3:1:0:0:
374,324,105562,2,0,P|417:326|461:288,1,78.7499975967408,10|0,3:1|3:0,0:0:0:0:
259,169,105895,1,0,0:0:0:0:
251,361,106062,5,8,0:1:0:0:
358,221,106228,1,0,3:0:0:0:
159,171,106395,2,0,L|176:262,1,78.7499975967408,10|0,0:1|0:0,0:0:0:0:
326,92,106728,5,4,3:0:0:0:
198,0,106895,2,0,P|132:10|99:99,1,148.750002837181,0|0,3:0|3:0,0:0:0:0:
150,243,107395,1,10,3:1:0:0:
267,120,107562,6,0,B|187:104|218:191|124:162,1,148.750002837181,0|0,3:0|3:0,0:0:0:0:
29,57,108062,1,2,3:1:0:0:
162,0,108228,2,0,P|175:40|160:86,1,74.3750014185906,0|2,3:0|3:1,0:0:0:0:
83,178,108562,1,0,3:0:0:0:
19,51,108728,2,0,L|107:39,1,74.3750014185906,10|0,3:1|3:0,0:0:0:0:
236,159,109062,2,0,L|148:147,1,74.3750014185906,10|0,3:1|3:0,0:0:0:0:
38,253,109395,5,2,3:1:0:0:
92,354,109562,2,0,B|151:343|151:343|184:364|184:364|232:353,1,148.750002837181,0|0,3:0|3:0,0:0:0:0:
382,301,110062,1,10,3:1:0:0:
216,214,110228,2,0,P|197:253|212:308,1,74.3750014185906,2|2,3:1|3:1,0:0:0:0:
315,364,110562,1,0,3:0:0:0:
434,219,110728,5,2,3:1:0:0:
296,291,110895,2,0,L|318:377,1,74.3750014185906,0|2,3:0|3:1,0:0:0:0:
443,201,111228,1,0,3:0:0:0:
320,215,111395,5,10,3:1:0:0:
492,279,111562,1,2,3:1:0:0:
364,144,111728,1,14,3:1:0:0:
413,328,111895,1,0,3:0:0:0:
439,122,112062,5,4,3:0:0:0:
319,241,112228,2,0,B|239:225|270:312|176:283,1,148.750002837181,0|8,3:0|3:0,0:0:0:0:
48,197,112728,1,10,3:1:0:0:
186,132,112895,2,0,L|199:223,1,74.3750014185906,0|2,3:0|3:1,0:0:0:0:
103,84,113228,1,0,3:0:0:0:
280,138,113395,5,2,3:1:0:0:
124,10,113562,2,0,P|80:9|37:48,1,74.3750014185906,0|2,3:0|3:1,0:0:0:0:
196,205,113895,1,0,3:0:0:0:
233,32,114062,5,10,3:1:0:0:
89,175,114228,1,0,3:0:0:0:
290,229,114395,2,0,L|374:209,1,74.3750014185906,10|0,3:1|3:0,0:0:0:0:
184,116,114728,5,8,0:1:0:0:
248,303,114895,2,0,L|232:393,1,83.1249977803231,8|0,0:1|0:0,0:0:0:0:
316,99,115228,5,8,0:1:0:0:
316,99,115312,1,8,0:1:0:0:
316,99,115395,1,8,0:1:0:0:
163,284,115562,2,0,P|116:301|65:284,1,83.1249977803231,8|0,0:1|0:0,0:0:0:0:
8,56,115895,1,0,3:0:0:0:
223,187,116062,5,8,0:1:0:0:
223,187,116145,1,8,0:1:0:0:
223,187,116228,2,0,L|211:245,1,41.5624988901615,0|0,3:0|3:0,0:0:0:0:
86,156,116395,5,0,3:0:0:0:
86,156,116478,1,0,3:0:0:0:
86,156,116561,2,0,L|74:98,1,41.5624988901615,0|0,3:0|3:0,0:0:0:0:
283,17,116728,5,8,0:1:0:0:
457,335,128062,6,0,B|447:279|447:279|467:243|467:243|451:168,1,148.750002837181,4|0,3:0|0:0,0:0:0:0:
499,128,128562,1,0,3:0:0:0:
329,263,128728,6,0,B|264:227|228:298|241:307|199:361|114:303,1,223.125004255772,10|0,0:1|3:0,0:0:0:0:
152,180,129395,2,0,P|174:211|175:261,1,74.3750014185906,2|0,0:1|3:0,0:0:0:0:
49,299,129729,2,0,P|65:264|107:237,1,74.3750014185906,0|0,3:0|0:0,0:0:0:0:
209,325,130062,2,0,P|172:329|127:307,1,74.3750014185906,10|0,0:1|0:0,0:0:0:0:
67,165,130395,5,0,0:0:0:0:
179,246,130562,1,0,3:0:0:0:
75,363,130728,2,0,P|49:323|109:238,1,148.750002837181,2|0,3:1|0:0,0:0:0:0:
179,246,131228,1,0,3:0:0:0:
10,76,131395,6,0,B|75:40|111:111|98:120|140:174|225:116,1,223.125004255772,10|0,0:1|3:0,0:0:0:0:
353,40,132062,1,2,0:1:0:0:
358,118,132228,1,0,3:0:0:0:
289,158,132395,2,0,P|274:116|293:76,1,74.3750014185906,0|0,3:0|0:0,0:0:0:0:
478,190,132728,6,0,B|403:148|366:224|376:231|334:305|228:236,1,249.374993340969,10|0,0:1|3:0,0:0:0:0:
115,326,133395,6,0,P|211:349|258:241,1,223.125004255772,6|0,3:1|0:0,0:0:0:0:
171,164,134062,2,0,L|159:270,1,74.3750014185906,10|0,0:1|0:0,0:0:0:0:
359,326,134395,2,0,L|349:251,1,74.3750014185906,0|0,0:0|3:0,0:0:0:0:
182,87,134728,6,0,P|145:87|114:107,1,74.3750014185906,2|0,0:1|3:0,0:0:0:0:
154,232,135062,2,0,P|172:200|170:163,1,74.3750014185906,0|0,3:0|0:0,0:0:0:0:
18,240,135395,2,0,B|105:260|105:260|143:263|171:200,1,148.750002837181,10|0,0:1|0:0,0:0:0:0:
97,179,135895,1,0,3:0:0:0:
286,310,136062,6,0,B|221:274|185:345|198:354|156:408|71:350,1,223.125004255772,2|0,3:1|3:0,0:0:0:0:
287,201,136728,2,0,P|366:243|346:389,1,249.374993340969,10|0,0:1|3:0,0:0:0:0:
214,237,137395,6,0,P|202:195|227:148,1,83.1249977803231,2|0,0:1|3:0,0:0:0:0:
321,5,137728,2,0,P|333:47|308:94,1,83.1249977803231,0|0,3:0|0:0,0:0:0:0:
228,261,138062,5,10,1:1:0:0:
168,23,138228,1,0,3:0:0:0:
357,237,138395,2,0,L|340:333,1,83.1249977803231,8|0,1:0|0:0,0:0:0:0:
224,72,138728,6,0,B|296:25|338:95|320:107|370:186|462:119,1,249.374993340969,6|0,3:1|3:0,0:0:0:0:
463,0,139395,2,0,P|414:31|407:82,1,83.1249977803231,10|0,1:1|0:0,0:0:0:0:
442,221,139728,1,0,0:0:0:0:
508,156,139895,2,0,P|506:98|466:65,1,83.1249977803231,0|2,3:0|0:1,0:0:0:0:
331,15,140228,1,0,3:0:0:0:
363,107,140395,2,0,P|413:135|461:117,1,83.1249977803231,0|0,3:0|0:0,0:0:0:0:
228,21,140728,6,0,B|169:27|169:27|139:62|139:62|52:76,1,166.249995560646,10|0,1:1|0:0,0:0:0:0:
5,38,141228,1,0,3:0:0:0:
82,220,141395,6,0,B|154:173|196:243|178:255|228:334|320:267,1,249.374993340969,2|0,3:1|3:0,0:0:0:0:
288,136,142062,2,0,P|261:178|273:240,1,83.1249977803231,10|0,1:1|0:0,0:0:0:0:
392,265,142395,2,0,P|369:220|310:198,1,83.1249977803231,0|0,0:0|3:0,0:0:0:0:
67,260,142728,6,0,B|139:213|186:282|170:302|232:375|311:313,1,275.624991588593,2|0,0:1|0:0,0:0:0:0:
469,145,143395,2,0,B|378:166|378:166|359:216|359:216|228:248,1,249.374993340969,10|0,1:1|3:0,0:0:0:0:
131,93,144062,6,0,P|217:101|240:267,1,249.374993340969,6|0,3:1|3:0,0:0:0:0:
175,315,144728,2,0,P|156:275|174:216,1,83.1249977803231,10|0,1:1|0:0,0:0:0:0:
280,105,145062,1,0,0:0:0:0:
318,187,145228,2,0,P|293:223|233:238,1,83.1249977803231,0|2,3:0|0:1,0:0:0:0:
75,188,145562,1,0,3:0:0:0:
129,116,145728,2,0,P|173:120|214:166,1,83.1249977803231,0|0,3:0|0:0,0:0:0:0:
78,328,146062,6,0,B|39:235|39:235|40:189|83:187,1,166.249995560646,10|0,1:1|0:0,0:0:0:0:
134,247,146562,1,0,3:0:0:0:
221,28,146728,6,0,B|149:-19|107:51|125:63|75:142|-17:75,1,249.374993340969,2|0,3:1|3:0,0:0:0:0:
202,168,147395,2,0,L|310:146,1,83.1249977803231,10|0,0:1|0:0,0:0:0:0:
41,18,147728,1,8,0:1:0:0:
143,212,147895,1,8,0:1:0:0:
138,229,147978,1,8,0:1:0:0:
134,247,148062,5,8,0:1:0:0:
78,137,148228,1,8,3:0:0:0:
227,241,148395,1,8,3:0:0:0:
63,315,148562,1,8,3:0:0:0:
202,168,148728,6,0,L|322:147,1,83.1249977803231,10|0,0:1|3:0,0:0:0:0:
86,52,149062,5,8,3:0:0:0:
134,247,149228,1,8,3:0:0:0:
258,75,149395,6,0,B|329:68|329:68|370:94|370:94|463:82,1,183.749994392395,4|0,3:0|0:0,0:0:0:0:
492,0,149895,1,0,3:0:0:0:
422,197,150062,2,0,B|319:161|364:291|231:240,1,183.749994392395,10|0,0:1|0:0,0:0:0:0:
229,92,150562,6,0,P|270:128|271:191,1,91.8749971961976,0|2,3:0|0:1,0:0:0:0:
220,334,150895,1,0,3:0:0:0:
143,252,151062,2,0,P|152:198|206:165,1,91.8749971961976,0|0,3:0|0:0,0:0:0:0:
389,331,151395,6,0,B|268:303|268:303|229:304|211:352,1,183.749994392395,10|0,0:1|0:0,0:0:0:0:
284,384,151895,1,0,3:0:0:0:
377,166,152062,2,0,P|361:102|251:87,1,183.749994392395,2|0,3:1|0:0,0:0:0:0:
216,239,152562,1,0,3:0:0:0:
418,31,152728,6,0,B|318:-3|360:125|227:74,1,183.749994392395,10|0,0:1|0:0,0:0:0:0:
60,36,153228,2,0,P|102:8|160:13,1,91.8749971961976,0|2,3:0|0:1,0:0:0:0:
216,239,153562,1,0,3:0:0:0:
121,286,153728,2,0,P|75:264|49:212,1,91.8749971961976,0|0,3:0|0:0,0:0:0:0:
256,83,154062,6,0,B|356:49|314:177|447:126,1,183.749994392395,10|0,0:1|0:0,0:0:0:0:
512,51,154562,1,0,3:0:0:0:
319,209,154728,2,0,B|312:280|312:280|338:321|338:321|326:414,1,183.749994392395,6|0,3:1|0:0,0:0:0:0:
238,99,155228,1,0,3:0:0:0:
399,256,155395,6,0,P|480:225|481:128,1,183.749994392395,10|0,0:1|0:0,0:0:0:0:
334,0,155895,2,0,P|309:43|331:108,1,91.8749971961976,0|2,3:0|0:1,0:0:0:0:
450,205,156228,1,0,3:0:0:0:
486,137,156395,2,0,P|462:93|394:78,1,91.8749971961976,0|0,3:0|0:0,0:0:0:0:
207,241,156728,6,0,B|271:233|271:233|312:259|312:259|383:252,1,183.749994392395,10|0,0:1|0:0,0:0:0:0:
260,116,157228,1,0,3:0:0:0:
202,321,157395,6,0,B|102:287|144:415|11:364,1,183.749994392395,2|0,3:1|0:0,0:0:0:0:
109,110,157895,1,0,3:0:0:0:
192,155,158062,2,0,P|213:203|197:257,1,91.8749971961976,10|0,0:1|0:0,0:0:0:0:
40,373,158395,1,0,0:0:0:0:
39,277,158562,2,0,P|70:235|125:223,1,91.8749971961976,0|2,3:0|0:1,0:0:0:0:
317,315,158895,1,0,3:0:0:0:
233,362,159062,2,0,P|181:354|143:312,1,91.8749971961976,0|0,3:0|0:0,0:0:0:0:
254,84,159395,5,10,1:1:0:0:
322,339,159562,1,0,3:0:0:0:
415,90,159728,2,0,L|399:-19,1,91.8749971961976,8|0,1:0|0:0,0:0:0:0:
506,313,160062,6,0,B|397:275|443:408|309:354,1,201.250003838539,6|0,3:1|0:0,0:0:0:0:
200,280,160562,1,0,3:0:0:0:
315,126,160728,2,0,P|381:124|418:247,1,201.250003838539,10|0,1:1|0:0,0:0:0:0:
332,294,161228,6,0,P|325:239|363:193,1,100.62500191927,0|2,3:0|0:1,0:0:0:0:
494,81,161562,1,0,3:0:0:0:
512,202,161728,2,0,P|468:236|409:227,1,100.62500191927,0|0,3:0|0:0,0:0:0:0:
398,0,162062,2,0,B|448:-2|459:51|459:51|407:166,1,201.250003838539,10|0,1:1|0:0,0:0:0:0:
490,314,162562,1,0,3:0:0:0:
350,99,162728,6,0,B|241:61|287:194|153:140,1,201.250003838539,2|0,3:1|0:0,0:0:0:0:
45,62,163228,1,0,3:0:0:0:
19,285,163395,2,0,B|90:278|90:278|135:311|135:311|235:297,1,201.250003838539,10|0,1:1|0:0,0:0:0:0:
258,127,163895,1,0,3:0:0:0:
76,371,164062,5,2,0:1:0:0:
284,334,164228,1,0,3:0:0:0:
175,136,164395,2,0,P|149:178|169:248,1,100.62500191927,0|0,3:0|0:0,0:0:0:0:
351,377,164728,1,10,1:1:0:0:
324,174,164895,2,0,P|275:167|219:214,1,100.62500191927
197,342,165228,1,0,3:0:0:0:
405,221,165395,6,0,B|412:150|412:150|379:105|379:105|393:5,1,201.250003838539,6|0,3:1|0:0,0:0:0:0:
503,0,165895,1,0,3:0:0:0:
324,174,166062,6,0,B|215:136|261:269|127:215,1,201.250003838539,10|0,1:1|0:0,0:0:0:0:
149,53,166562,2,0,P|179:95|170:161,1,100.62500191927,0|2,3:0|0:1,0:0:0:0:
93,293,166895,1,0,3:0:0:0:
33,190,167062,2,0,P|53:142|114:116,1,100.62500191927,0|0,3:0|0:0,0:0:0:0:
203,357,167395,6,0,B|82:385|82:385|31:386|20:329,1,201.250003838539,10|0,1:1|0:0,0:0:0:0:
93,293,167895,1,0,3:0:0:0:
305,165,168062,6,0,P|381:182|389:294,1,175,2|0,3:1|0:0,0:0:0:0:
297,384,168562,1,0,3:0:0:0:
243,270,168728,2,0,L|337:237,1,87.5,10|0,0:1|0:0,0:0:0:0:
465,373,169062,2,0,L|382:344,1,87.5,0|0,0:0|3:0,0:0:0:0:
255,95,169395,5,0,3:0:0:0:
439,199,169562,2,0,P|454:243|431:303,1,87.5,10|0,0:1|0:0,0:0:0:0:
245,81,169895,1,0,3:0:0:0:
501,41,170062,5,10,0:1:0:0:
296,185,170229,1,0,3:0:0:0:
405,0,170395,5,8,3:0:0:0:
448,218,170562,1,8,3:0:0:0:
354,93,170728,5,4,3:0:0:0:
