osu file format v14

[General]
AudioFilename: audio.ogg
AudioLeadIn: 0
PreviewTime: 59895
Countdown: 0
SampleSet: Normal
StackLeniency: 0.7
Mode: 1
LetterboxInBreaks: 0
WidescreenStoryboard: 1

[Editor]
Bookmarks: 2728,13395,24062,34728,45395,95562,96062,106728,128062
DistanceSpacing: 1.9
BeatDivisor: 4
GridSize: 32
TimelineZoom: 1.1

[Metadata]
Title:2004 Breakup
TitleUnicode:2004 Breakup
Artist:The Gentle Men
ArtistUnicode:The Gentle Men
Creator:Aljotzi
Version:krytwal's Futsuu
Source:
Tags:fa featured artist hivie krytwal indie pop rock punk english penguinz0 moistcr1tikal critikal charlie troy mckubre solstate
BeatmapID:3654329
BeatmapSetID:1762614

[Difficulty]
HPDrainRate:7
CircleSize:2
OverallDifficulty:4
ApproachRate:10
SliderMultiplier:1.4
SliderTickRate:1

[Events]
//Background and Video events
Video,-140,"output.mp4"
0,0,"capture.jpg",0,0
//Break Periods
2,23762,28945
2,29928,34278
2,56262,60945
2,116928,127612
//Storyboard Layer 0 (Background)
//Storyboard Layer 1 (Fail)
//Storyboard Layer 2 (Pass)
//Storyboard Layer 3 (Foreground)
//Storyboard Layer 4 (Overlay)
//Storyboard Sound Samples

[TimingPoints]
1395,500,4,1,0,60,1,8
2729,333.333333333333,4,1,0,60,1,0
61395,-100,4,1,0,70,0,1
82062,-100,4,1,0,60,0,0
85395,333.333333333333,4,1,0,60,1,0
128061,-100,4,1,0,70,0,1
170728,-100,4,1,0,40,0,0

[HitObjects]
256,192,2729,5,12,0:0:0:0:
256,192,3228,1,8,0:0:0:0:
256,192,3395,1,8,0:0:0:0:
256,192,3895,1,0,0:0:0:0:
256,192,4062,1,8,0:0:0:0:
256,192,4562,1,8,0:0:0:0:
256,192,4728,1,0,0:0:0:0:
256,192,5228,1,0,0:0:0:0:
256,192,5395,1,0,0:0:0:0:
256,192,5895,1,8,0:0:0:0:
256,192,6062,1,8,0:0:0:0:
256,192,6562,1,0,0:0:0:0:
256,192,6728,1,0,0:0:0:0:
256,192,7395,1,8,0:0:0:0:
256,192,7728,1,8,0:0:0:0:
256,192,7895,1,0,0:0:0:0:
256,192,8062,1,8,0:0:0:0:
256,192,8562,1,8,0:0:0:0:
256,192,8728,1,8,0:0:0:0:
256,192,9228,1,0,0:0:0:0:
256,192,9395,1,8,0:0:0:0:
256,192,9895,1,8,0:0:0:0:
256,160,10062,1,0,0:0:0:0:
256,192,10562,1,0,0:0:0:0:
256,192,10728,1,0,0:0:0:0:
256,192,11228,1,8,0:0:0:0:
256,192,11395,1,8,0:0:0:0:
256,192,11895,1,0,0:0:0:0:
256,192,12062,1,0,0:0:0:0:
256,192,12728,1,0,0:0:0:0:
256,192,12895,1,0,0:0:0:0:
256,192,13062,1,8,0:0:0:0:
256,192,13228,1,0,0:0:0:0:
256,192,13395,1,12,0:0:0:0:
256,160,13895,1,8,0:0:0:0:
256,160,14062,1,8,0:0:0:0:
256,160,14395,1,8,0:0:0:0:
256,160,14562,1,0,0:0:0:0:
256,160,14728,1,8,0:0:0:0:
256,160,15228,1,8,0:0:0:0:
256,192,15395,1,0,0:0:0:0:
256,160,15728,1,0,0:0:0:0:
256,160,15895,1,8,0:0:0:0:
256,160,16062,1,0,0:0:0:0:
256,160,16562,1,0,0:0:0:0:
256,160,16728,1,8,0:0:0:0:
256,160,17228,1,8,0:0:0:0:
256,160,17395,1,8,0:0:0:0:
256,128,18062,1,8,0:0:0:0:
256,160,18228,1,8,0:0:0:0:
256,160,18395,1,0,0:0:0:0:
256,160,18562,1,8,0:0:0:0:
256,160,18728,1,0,0:0:0:0:
256,160,19228,1,8,0:0:0:0:
256,160,19395,1,8,0:0:0:0:
256,160,19728,1,8,0:0:0:0:
256,160,19895,1,0,0:0:0:0:
256,160,20062,1,8,0:0:0:0:
256,160,20562,1,8,0:0:0:0:
256,192,20728,1,0,0:0:0:0:
256,160,21062,1,0,0:0:0:0:
256,160,21228,1,8,0:0:0:0:
256,160,21395,1,0,0:0:0:0:
256,160,21895,1,0,0:0:0:0:
256,160,22062,1,8,0:0:0:0:
256,160,22562,1,8,0:0:0:0:
256,160,22728,1,8,0:0:0:0:
256,160,23228,1,0,0:0:0:0:
256,128,23395,1,8,0:0:0:0:
256,160,23562,1,8,0:0:0:0:
256,192,29395,5,4,0:0:0:0:
256,192,29728,1,4,0:0:0:0:
256,192,34728,5,12,0:0:0:0:
256,192,35062,1,0,0:0:0:0:
256,192,35228,1,0,0:0:0:0:
256,192,35395,1,8,0:0:0:0:
256,192,35895,1,8,0:0:0:0:
256,192,36228,1,0,0:0:0:0:
256,192,36395,1,8,0:0:0:0:
256,192,36728,1,0,0:0:0:0:
256,192,37395,1,0,0:0:0:0:
256,192,37728,1,0,0:0:0:0:
256,192,37895,1,0,0:0:0:0:
256,192,38062,1,8,0:0:0:0:
256,192,38395,1,8,0:0:0:0:
256,192,38562,1,0,0:0:0:0:
256,192,38895,1,0,0:0:0:0:
256,192,39062,1,8,0:0:0:0:
256,192,39395,1,0,0:0:0:0:
256,192,40062,1,4,0:0:0:0:
256,192,40395,1,0,0:0:0:0:
256,192,40562,1,0,0:0:0:0:
256,192,40728,1,8,0:0:0:0:
256,192,41228,1,8,0:0:0:0:
256,192,41562,1,0,0:0:0:0:
256,192,41728,1,0,0:0:0:0:
256,192,42062,1,8,0:0:0:0:
256,192,42395,1,8,0:0:0:0:
256,192,42728,1,0,0:0:0:0:
256,192,43062,1,0,0:0:0:0:
256,192,43228,1,0,0:0:0:0:
256,192,43395,1,8,0:0:0:0:
256,192,43728,1,8,0:0:0:0:
256,192,43895,1,8,0:0:0:0:
256,192,44228,1,0,0:0:0:0:
256,192,44395,1,0,0:0:0:0:
256,192,44728,1,8,0:0:0:0:
256,192,45395,1,12,0:0:0:0:
256,192,45728,1,0,0:0:0:0:
256,192,46395,1,8,0:0:0:0:
256,192,46562,1,0,0:0:0:0:
256,192,46728,1,8,0:0:0:0:
256,192,47062,1,8,0:0:0:0:
256,192,47395,1,0,0:0:0:0:
256,192,48062,1,0,0:0:0:0:
256,192,48228,1,0,0:0:0:0:
256,192,48395,1,8,0:0:0:0:
256,192,48728,1,0,0:0:0:0:
256,192,49062,1,8,0:0:0:0:
256,192,49395,1,8,0:0:0:0:
256,192,49728,1,8,0:0:0:0:
256,192,50062,1,0,0:0:0:0:
256,192,50728,1,8,0:0:0:0:
256,192,51395,1,0,0:0:0:0:
256,192,52062,1,8,0:0:0:0:
256,192,52395,1,8,0:0:0:0:
256,192,52728,1,0,0:0:0:0:
256,192,53062,1,8,0:0:0:0:
256,192,53228,1,0,0:0:0:0:
256,192,53728,1,8,0:0:0:0:
256,192,54395,1,8,0:0:0:0:
256,192,54728,1,0,0:0:0:0:
256,192,55062,1,0,0:0:0:0:
256,192,55395,1,8,0:0:0:0:
256,192,56062,1,8,0:0:0:0:
256,192,61395,5,4,0:0:0:0:
256,192,61728,1,8,0:0:0:0:
256,192,61895,1,0,0:0:0:0:
256,192,62062,1,8,0:0:0:0:
256,192,62562,1,0,0:0:0:0:
256,192,62895,1,0,0:0:0:0:
256,192,63062,1,0,0:0:0:0:
256,192,63395,1,8,0:0:0:0:
256,192,63562,1,0,0:0:0:0:
256,192,63728,1,8,0:0:0:0:
256,192,63895,1,8,0:0:0:0:
256,192,64062,1,4,0:0:0:0:
256,192,64562,1,0,0:0:0:0:
256,192,64728,1,8,0:0:0:0:
256,192,65395,1,8,0:0:0:0:
256,192,65562,1,0,0:0:0:0:
256,192,65728,1,8,0:0:0:0:
256,192,66062,1,8,0:0:0:0:
256,192,66228,1,8,0:0:0:0:
256,192,66395,1,0,0:0:0:0:
256,192,66562,1,0,0:0:0:0:
256,192,66728,1,12,0:0:0:0:
256,192,67395,1,8,0:0:0:0:
256,192,67895,1,0,0:0:0:0:
256,192,68228,1,0,0:0:0:0:
256,192,68395,1,0,0:0:0:0:
256,192,68728,1,0,0:0:0:0:
256,192,68895,1,8,0:0:0:0:
256,192,69062,1,8,0:0:0:0:
256,192,69228,1,8,0:0:0:0:
256,192,69395,1,4,0:0:0:0:
256,192,69895,1,0,0:0:0:0:
256,192,70062,1,8,0:0:0:0:
256,192,70728,1,8,0:0:0:0:
256,192,70895,1,0,0:0:0:0:
256,192,71062,1,8,0:0:0:0:
256,192,71395,1,8,0:0:0:0:
256,192,71562,1,8,0:0:0:0:
256,192,71728,1,0,0:0:0:0:
256,192,71895,1,0,0:0:0:0:
256,192,72062,1,12,0:0:0:0:
256,192,72395,1,8,0:0:0:0:
256,192,72562,1,0,0:0:0:0:
256,192,72728,1,8,0:0:0:0:
256,192,73228,1,0,0:0:0:0:
256,192,73562,1,0,0:0:0:0:
256,192,73728,1,0,0:0:0:0:
256,192,74062,1,8,0:0:0:0:
256,192,74228,1,0,0:0:0:0:
256,192,74395,1,8,0:0:0:0:
256,192,74562,1,8,0:0:0:0:
256,192,74728,1,4,0:0:0:0:
256,192,75228,1,0,0:0:0:0:
256,192,75395,1,8,0:0:0:0:
256,192,76062,1,8,0:0:0:0:
256,192,76228,1,0,0:0:0:0:
256,192,76395,1,8,0:0:0:0:
256,192,76728,1,8,0:0:0:0:
256,192,76895,1,0,0:0:0:0:
256,192,77062,1,0,0:0:0:0:
256,192,77228,1,0,0:0:0:0:
256,192,77395,1,12,0:0:0:0:
256,192,78062,1,8,0:0:0:0:
256,192,78562,1,0,0:0:0:0:
256,192,78895,1,0,0:0:0:0:
256,192,79062,1,0,0:0:0:0:
256,192,79395,1,8,0:0:0:0:
256,192,79728,1,8,0:0:0:0:
256,192,79895,1,8,0:0:0:0:
256,192,80062,1,4,0:0:0:0:
256,192,80562,1,0,0:0:0:0:
256,192,80728,1,8,0:0:0:0:
256,192,81228,1,0,0:0:0:0:
256,192,81395,1,8,0:0:0:0:
256,192,81562,1,0,0:0:0:0:
256,192,81728,1,8,0:0:0:0:
256,192,81895,1,0,0:0:0:0:
256,192,82062,1,8,0:0:0:0:
256,192,85062,1,8,0:0:0:0:
256,192,85395,1,12,0:0:0:0:
256,160,85895,1,8,0:0:0:0:
256,160,86062,1,8,0:0:0:0:
256,160,86395,1,8,0:0:0:0:
256,160,86562,1,0,0:0:0:0:
256,160,86728,1,8,0:0:0:0:
256,160,87228,1,8,0:0:0:0:
256,192,87395,1,0,0:0:0:0:
256,160,87728,1,0,0:0:0:0:
256,160,87895,1,8,0:0:0:0:
256,160,88062,1,0,0:0:0:0:
256,160,88562,1,0,0:0:0:0:
256,160,88728,1,8,0:0:0:0:
256,160,89228,1,8,0:0:0:0:
256,160,89395,1,8,0:0:0:0:
256,128,90062,1,8,0:0:0:0:
256,160,90228,1,8,0:0:0:0:
256,160,90395,1,0,0:0:0:0:
256,160,90562,1,8,0:0:0:0:
256,160,90728,1,0,0:0:0:0:
256,160,91228,1,8,0:0:0:0:
256,160,91395,1,8,0:0:0:0:
256,160,91728,1,8,0:0:0:0:
256,160,91895,1,0,0:0:0:0:
256,160,92062,1,8,0:0:0:0:
256,160,92562,1,8,0:0:0:0:
256,192,92728,1,0,0:0:0:0:
256,160,93062,1,0,0:0:0:0:
256,160,93228,1,8,0:0:0:0:
256,160,93395,1,0,0:0:0:0:
256,160,93895,1,0,0:0:0:0:
256,160,94062,1,8,0:0:0:0:
256,160,94562,1,8,0:0:0:0:
256,160,94728,1,8,0:0:0:0:
256,160,95228,1,0,0:0:0:0:
256,128,95395,1,8,0:0:0:0:
256,160,95562,1,8,0:0:0:0:
256,192,96062,1,12,0:0:0:0:
256,192,96395,1,8,0:0:0:0:
256,192,97062,1,8,0:0:0:0:
256,192,97228,1,0,0:0:0:0:
256,192,97395,1,8,0:0:0:0:
256,192,97728,1,8,0:0:0:0:
256,192,98062,1,0,0:0:0:0:
256,192,98728,1,0,0:0:0:0:
256,192,98895,1,0,0:0:0:0:
256,192,99062,1,8,0:0:0:0:
256,192,99395,1,0,0:0:0:0:
256,192,99728,1,8,0:0:0:0:
256,192,100062,1,8,0:0:0:0:
256,192,100228,1,0,0:0:0:0:
256,192,100395,1,8,0:0:0:0:
256,192,100728,1,0,0:0:0:0:
256,192,101395,1,8,0:0:0:0:
256,192,102062,1,0,0:0:0:0:
256,192,102728,1,8,0:0:0:0:
256,192,103062,1,8,0:0:0:0:
256,192,103395,1,0,0:0:0:0:
256,192,103562,1,0,0:0:0:0:
256,192,103728,1,8,0:0:0:0:
256,192,104062,1,0,0:0:0:0:
256,192,104395,1,8,0:0:0:0:
256,192,104728,1,8,0:0:0:0:
256,192,104895,1,0,0:0:0:0:
256,192,105062,1,8,0:0:0:0:
256,192,105395,1,0,0:0:0:0:
256,192,105728,1,0,0:0:0:0:
256,192,106062,1,8,0:0:0:0:
256,192,106728,1,8,0:0:0:0:
256,192,107228,1,0,0:0:0:0:
256,192,107395,1,8,0:0:0:0:
256,192,107562,1,0,0:0:0:0:
256,192,108062,1,0,0:0:0:0:
256,192,108562,1,8,0:0:0:0:
256,192,108728,1,8,0:0:0:0:
256,192,108895,1,0,0:0:0:0:
256,192,109395,1,0,0:0:0:0:
256,192,109895,1,0,0:0:0:0:
256,192,110062,1,8,0:0:0:0:
256,192,110228,1,0,0:0:0:0:
256,192,110728,1,8,0:0:0:0:
256,192,111228,1,8,0:0:0:0:
256,192,111395,1,8,0:0:0:0:
256,192,112062,1,8,0:0:0:0:
256,192,112562,1,0,0:0:0:0:
256,192,112728,1,0,0:0:0:0:
256,192,112895,1,8,0:0:0:0:
256,192,113395,1,0,0:0:0:0:
256,192,113895,1,8,0:0:0:0:
256,192,114062,1,0,0:0:0:0:
256,192,114228,1,8,0:0:0:0:
256,192,114728,1,0,0:0:0:0:
256,192,114895,1,0,0:0:0:0:
256,192,115228,1,0,0:0:0:0:
256,192,115395,1,0,0:0:0:0:
256,192,115562,1,8,0:0:0:0:
256,192,115895,1,0,0:0:0:0:
256,192,116062,1,8,0:0:0:0:
256,192,116228,1,0,0:0:0:0:
256,192,116562,1,8,0:0:0:0:
256,192,116728,1,0,0:0:0:0:
256,192,128062,5,4,0:0:0:0:
256,192,128395,1,8,0:0:0:0:
256,192,128562,1,0,0:0:0:0:
256,192,128728,1,8,0:0:0:0:
256,192,129228,1,0,0:0:0:0:
256,192,129562,1,0,0:0:0:0:
256,192,129728,1,0,0:0:0:0:
256,192,130062,1,8,0:0:0:0:
256,192,130228,1,0,0:0:0:0:
256,192,130395,1,8,0:0:0:0:
256,192,130562,1,8,0:0:0:0:
256,192,130728,1,4,0:0:0:0:
256,192,131228,1,0,0:0:0:0:
256,192,131395,1,8,0:0:0:0:
256,192,132062,1,8,0:0:0:0:
256,192,132228,1,0,0:0:0:0:
256,192,132395,1,8,0:0:0:0:
256,192,132728,1,8,0:0:0:0:
256,192,132895,1,8,0:0:0:0:
256,192,133062,1,0,0:0:0:0:
256,192,133228,1,0,0:0:0:0:
256,192,133395,1,12,0:0:0:0:
256,192,134062,1,8,0:0:0:0:
256,192,134562,1,0,0:0:0:0:
256,192,134895,1,0,0:0:0:0:
256,192,135062,1,0,0:0:0:0:
256,192,135395,1,0,0:0:0:0:
256,192,135562,1,8,0:0:0:0:
256,192,135728,1,8,0:0:0:0:
256,192,135895,1,8,0:0:0:0:
256,192,136062,1,4,0:0:0:0:
256,192,136562,1,0,0:0:0:0:
256,192,136728,1,8,0:0:0:0:
256,192,137395,1,8,0:0:0:0:
256,192,137562,1,0,0:0:0:0:
256,192,137728,1,8,0:0:0:0:
256,192,138062,1,8,0:0:0:0:
256,192,138228,1,8,0:0:0:0:
256,192,138395,1,0,0:0:0:0:
256,192,138562,1,0,0:0:0:0:
256,192,138728,1,12,0:0:0:0:
256,192,139062,1,8,0:0:0:0:
256,192,139228,1,0,0:0:0:0:
256,192,139395,1,8,0:0:0:0:
256,192,139895,1,0,0:0:0:0:
256,192,140228,1,0,0:0:0:0:
256,192,140395,1,0,0:0:0:0:
256,192,140728,1,8,0:0:0:0:
256,192,140895,1,0,0:0:0:0:
256,192,141062,1,8,0:0:0:0:
256,192,141228,1,8,0:0:0:0:
256,192,141395,1,4,0:0:0:0:
256,192,141895,1,0,0:0:0:0:
256,192,142062,1,8,0:0:0:0:
256,192,142728,1,8,0:0:0:0:
256,192,142895,1,0,0:0:0:0:
256,192,143062,1,8,0:0:0:0:
256,192,143395,1,8,0:0:0:0:
256,192,143562,1,0,0:0:0:0:
256,192,143728,1,0,0:0:0:0:
256,192,143895,1,0,0:0:0:0:
256,192,144062,1,12,0:0:0:0:
256,192,144728,1,8,0:0:0:0:
256,192,145228,1,0,0:0:0:0:
256,192,145562,1,0,0:0:0:0:
256,192,145728,1,0,0:0:0:0:
256,192,146062,1,0,0:0:0:0:
256,192,146228,1,8,0:0:0:0:
256,192,146395,1,8,0:0:0:0:
256,192,146562,1,8,0:0:0:0:
256,192,146728,1,4,0:0:0:0:
256,192,147228,1,0,0:0:0:0:
256,192,147395,1,8,0:0:0:0:
256,192,147728,1,8,0:0:0:0:
256,192,148062,1,8,0:0:0:0:
256,192,148228,1,0,0:0:0:0:
256,192,148395,1,8,0:0:0:0:
256,192,148562,1,0,0:0:0:0:
256,192,148728,1,8,0:0:0:0:
256,192,149062,1,0,0:0:0:0:
256,192,149395,1,12,0:0:0:0:
256,192,149728,1,8,0:0:0:0:
256,192,149895,1,0,0:0:0:0:
256,192,150062,1,8,0:0:0:0:
256,192,150562,1,0,0:0:0:0:
256,192,150895,1,0,0:0:0:0:
256,192,151062,1,0,0:0:0:0:
256,192,151395,1,8,0:0:0:0:
256,192,151562,1,0,0:0:0:0:
256,192,151728,1,8,0:0:0:0:
256,192,151895,1,8,0:0:0:0:
256,192,152062,1,4,0:0:0:0:
256,192,152562,1,0,0:0:0:0:
256,192,152728,1,8,0:0:0:0:
256,192,153395,1,8,0:0:0:0:
256,192,153562,1,0,0:0:0:0:
256,192,153728,1,8,0:0:0:0:
256,192,154062,1,8,0:0:0:0:
256,192,154228,1,8,0:0:0:0:
256,192,154395,1,0,0:0:0:0:
256,192,154562,1,0,0:0:0:0:
256,192,154728,1,12,0:0:0:0:
256,192,155395,1,8,0:0:0:0:
256,192,155895,1,0,0:0:0:0:
256,192,156228,1,0,0:0:0:0:
256,192,156395,1,0,0:0:0:0:
256,192,156728,1,8,0:0:0:0:
256,192,156895,1,0,0:0:0:0:
256,192,157062,1,8,0:0:0:0:
256,192,157228,1,8,0:0:0:0:
256,192,157395,1,4,0:0:0:0:
256,192,157895,1,0,0:0:0:0:
256,192,158062,1,8,0:0:0:0:
256,192,158728,1,8,0:0:0:0:
256,192,158895,1,0,0:0:0:0:
256,192,159062,1,8,0:0:0:0:
256,192,159395,1,8,0:0:0:0:
256,192,159562,1,0,0:0:0:0:
256,192,159728,1,0,0:0:0:0:
256,192,159895,1,0,0:0:0:0:
256,192,160062,1,12,0:0:0:0:
256,192,160395,1,8,0:0:0:0:
256,192,160562,1,0,0:0:0:0:
256,192,160728,1,8,0:0:0:0:
256,192,161228,1,0,0:0:0:0:
256,192,161562,1,0,0:0:0:0:
256,192,161728,1,0,0:0:0:0:
256,192,162062,1,8,0:0:0:0:
256,192,162228,1,8,0:0:0:0:
256,192,162395,1,8,0:0:0:0:
256,192,162562,1,8,0:0:0:0:
256,192,162728,1,4,0:0:0:0:
256,192,163228,1,0,0:0:0:0:
256,192,163395,1,8,0:0:0:0:
256,192,164062,1,8,0:0:0:0:
256,192,164228,1,0,0:0:0:0:
256,192,164395,1,8,0:0:0:0:
256,192,164728,1,0,0:0:0:0:
256,192,164895,1,0,0:0:0:0:
256,192,165062,1,8,0:0:0:0:
256,192,165228,1,0,0:0:0:0:
256,192,165395,1,12,0:0:0:0:
256,192,166062,1,8,0:0:0:0:
256,192,166562,1,0,0:0:0:0:
256,192,166895,1,0,0:0:0:0:
256,192,167062,1,0,0:0:0:0:
256,192,167395,1,8,0:0:0:0:
256,192,167562,1,0,0:0:0:0:
256,192,167728,1,8,0:0:0:0:
256,192,167895,1,8,0:0:0:0:
256,192,168062,1,4,0:0:0:0:
256,192,168562,1,0,0:0:0:0:
256,192,168728,1,8,0:0:0:0:
256,192,169228,1,0,0:0:0:0:
256,192,169395,1,8,0:0:0:0:
256,192,169562,1,0,0:0:0:0:
256,192,169728,1,8,0:0:0:0:
256,192,169895,1,0,0:0:0:0:
256,192,170062,1,8,0:0:0:0:
256,192,170395,1,0,0:0:0:0:
256,192,170562,1,0,0:0:0:0:
256,192,170728,1,12,0:0:0:0:
256,192,171062,12,0,180062,0:0:0:0:
