osu file format v14

[General]
AudioFilename: audio.ogg
AudioLeadIn: 0
PreviewTime: 59895
Countdown: 0
SampleSet: Normal
StackLeniency: 0.7
Mode: 1
LetterboxInBreaks: 0
WidescreenStoryboard: 1

[Editor]
Bookmarks: 149395
DistanceSpacing: 3.3
BeatDivisor: 4
GridSize: 32
TimelineZoom: 0.9999999

[Metadata]
Title:2004 Breakup
TitleUnicode:2004 Breakup
Artist:The Gentle Men
ArtistUnicode:The Gentle Men
Creator:Aljotzi
Version:Hivie's Kantan
Source:
Tags:fa featured artist hivie krytwal indie pop rock punk english penguinz0 moistcr1tikal critikal charlie troy mckubre solstate
BeatmapID:3624725
BeatmapSetID:1762614

[Difficulty]
HPDrainRate:8
CircleSize:2
OverallDifficulty:3
ApproachRate:10
SliderMultiplier:1.4
SliderTickRate:1

[Events]
//Background and Video events
Video,-140,"output.mp4"
0,0,"capture.jpg",0,0
//Break Periods
2,24062,28945
2,29928,34278
2,56062,60945
2,82728,84612
2,116928,127612
//Storyboard Layer 0 (Background)
//Storyboard Layer 1 (Fail)
//Storyboard Layer 2 (Pass)
//Storyboard Layer 3 (Foreground)
//Storyboard Layer 4 (Overlay)
//Storyboard Sound Samples

[TimingPoints]
1395,500,4,1,0,70,1,8
2729,333.333333333333,4,1,0,70,1,0
61395,-100,4,1,0,80,0,1
82062,-100,4,1,0,70,0,0
85395,333.333333333333,4,1,0,70,1,0
128061,-100,4,1,0,80,0,1
170728,-100,4,1,0,70,0,0

[HitObjects]
253,197,2729,5,12,0:0:0:0:
253,197,3395,1,0,0:0:0:0:
253,197,4062,1,8,0:0:0:0:
253,197,4728,1,0,0:0:0:0:
253,197,5062,1,8,0:0:0:0:
253,197,5395,1,0,0:0:0:0:
253,197,6062,1,8,0:0:0:0:
253,197,6728,1,0,0:0:0:0:
253,197,7728,1,0,0:0:0:0:
253,197,8062,1,8,0:0:0:0:
253,197,8728,1,0,0:0:0:0:
253,197,9395,1,8,0:0:0:0:
253,197,10062,1,0,0:0:0:0:
253,197,10395,1,8,0:0:0:0:
253,197,10728,1,0,0:0:0:0:
253,197,11395,1,8,0:0:0:0:
253,197,12062,1,0,0:0:0:0:
253,197,13062,1,0,0:0:0:0:
253,197,13395,1,12,0:0:0:0:
253,197,14062,1,0,0:0:0:0:
253,197,14395,1,8,0:0:0:0:
253,197,14728,1,0,0:0:0:0:
253,197,15395,1,8,0:0:0:0:
253,197,15728,1,0,0:0:0:0:
253,197,16062,1,8,0:0:0:0:
253,197,16729,1,0,0:0:0:0:
253,197,17062,1,0,0:0:0:0:
253,197,17395,1,8,0:0:0:0:
253,197,18395,1,0,0:0:0:0:
253,197,18728,1,12,0:0:0:0:
253,197,19395,1,0,0:0:0:0:
253,197,19728,1,8,0:0:0:0:
253,197,20062,1,8,0:0:0:0:
253,197,20728,1,0,0:0:0:0:
253,197,21062,1,0,0:0:0:0:
253,197,21395,1,8,0:0:0:0:
253,197,22062,1,0,0:0:0:0:
253,197,22728,1,0,0:0:0:0:
253,197,23395,1,8,0:0:0:0:
253,197,29395,5,4,0:0:0:0:
253,197,29728,1,4,0:0:0:0:
253,197,34728,5,4,0:0:0:0:
253,197,35395,1,8,0:0:0:0:
253,197,36062,1,0,0:0:0:0:
253,197,36395,1,0,0:0:0:0:
253,197,36728,1,8,0:0:0:0:
253,197,37395,1,0,0:0:0:0:
253,197,38062,1,8,0:0:0:0:
253,197,38728,1,0,0:0:0:0:
253,197,40062,1,0,0:0:0:0:
253,197,40728,1,8,0:0:0:0:
253,197,41395,1,0,0:0:0:0:
253,197,41728,1,8,0:0:0:0:
253,197,42062,1,0,0:0:0:0:
253,197,42728,1,0,0:0:0:0:
253,197,43395,1,8,0:0:0:0:
253,197,44062,1,0,0:0:0:0:
253,197,45395,1,4,0:0:0:0:
253,197,46062,1,8,0:0:0:0:
253,197,46395,1,0,0:0:0:0:
253,197,47062,1,8,0:0:0:0:
253,197,47395,1,0,0:0:0:0:
253,197,47728,1,8,0:0:0:0:
253,197,48062,1,8,0:0:0:0:
253,197,48728,1,0,0:0:0:0:
253,197,49395,1,0,0:0:0:0:
253,197,49728,1,8,0:0:0:0:
253,197,50062,1,0,0:0:0:0:
253,197,50728,1,0,0:0:0:0:
253,197,51728,1,0,0:0:0:0:
253,197,52062,1,8,0:0:0:0:
253,197,52728,1,8,0:0:0:0:
253,197,53062,1,0,0:0:0:0:
253,197,53395,1,8,0:0:0:0:
253,197,54062,1,0,0:0:0:0:
253,197,54728,1,0,0:0:0:0:
253,197,55062,1,0,0:0:0:0:
253,197,55395,1,12,0:0:0:0:
253,197,61395,5,12,0:0:0:0:
253,197,62062,1,8,0:0:0:0:
253,197,62728,1,0,0:0:0:0:
253,197,63062,1,8,0:0:0:0:
253,197,63395,1,0,0:0:0:0:
253,197,63728,1,0,0:0:0:0:
253,197,64062,1,8,0:0:0:0:
253,197,64729,1,0,0:0:0:0:
253,197,65395,1,8,0:0:0:0:
253,197,66395,1,8,0:0:0:0:
253,197,66728,1,0,0:0:0:0:
253,197,67395,1,8,0:0:0:0:
253,197,68062,1,0,0:0:0:0:
253,197,68395,1,0,0:0:0:0:
253,197,68728,1,8,0:0:0:0:
253,197,69062,1,8,0:0:0:0:
253,197,69395,1,0,0:0:0:0:
253,197,70062,1,8,0:0:0:0:
253,197,70728,1,0,0:0:0:0:
253,197,71728,1,8,0:0:0:0:
253,197,72062,1,4,0:0:0:0:
253,197,72728,1,8,0:0:0:0:
253,197,73395,1,0,0:0:0:0:
253,197,73728,1,8,0:0:0:0:
253,197,74062,1,8,0:0:0:0:
253,197,74395,1,8,0:0:0:0:
253,197,74728,1,0,0:0:0:0:
253,197,75395,1,8,0:0:0:0:
253,197,76062,1,0,0:0:0:0:
253,197,76728,1,8,0:0:0:0:
253,197,77395,1,0,0:0:0:0:
253,197,78395,1,8,0:0:0:0:
253,197,78728,1,0,0:0:0:0:
253,197,79395,1,8,0:0:0:0:
253,197,80062,1,0,0:0:0:0:
253,197,80728,1,8,0:0:0:0:
253,197,81062,1,8,0:0:0:0:
253,197,81395,1,0,0:0:0:0:
253,197,81728,1,0,0:0:0:0:
253,197,82062,1,8,0:0:0:0:
256,192,85062,5,0,0:0:0:0:
253,197,85395,5,12,0:0:0:0:
253,197,86062,1,0,0:0:0:0:
253,197,86395,1,8,0:0:0:0:
253,197,86728,1,0,0:0:0:0:
253,197,87395,1,8,0:0:0:0:
253,197,87728,1,0,0:0:0:0:
253,197,88062,1,8,0:0:0:0:
253,197,88729,1,0,0:0:0:0:
253,197,89062,1,0,0:0:0:0:
253,197,89395,1,8,0:0:0:0:
253,197,90395,1,0,0:0:0:0:
253,197,90728,1,12,0:0:0:0:
253,197,91395,1,0,0:0:0:0:
253,197,91728,1,8,0:0:0:0:
253,197,92062,1,8,0:0:0:0:
253,197,92728,1,0,0:0:0:0:
253,197,93062,1,0,0:0:0:0:
253,197,93395,1,8,0:0:0:0:
253,197,94062,1,0,0:0:0:0:
253,197,94728,1,0,0:0:0:0:
253,197,95395,1,8,0:0:0:0:
253,197,96062,5,4,0:0:0:0:
253,197,97062,1,8,0:0:0:0:
253,197,97395,1,8,0:0:0:0:
253,197,98062,1,0,0:0:0:0:
253,197,98728,1,8,0:0:0:0:
253,197,99062,1,8,0:0:0:0:
253,197,99395,1,0,0:0:0:0:
253,197,99728,1,0,0:0:0:0:
253,197,100062,1,8,0:0:0:0:
253,197,100728,1,8,0:0:0:0:
253,197,101395,1,0,0:0:0:0:
253,197,102728,1,0,0:0:0:0:
253,197,103062,1,8,0:0:0:0:
256,192,103395,1,0,0:0:0:0:
253,197,104062,1,8,0:0:0:0:
253,197,104395,1,8,0:0:0:0:
253,197,104728,1,0,0:0:0:0:
253,197,105062,1,0,0:0:0:0:
253,197,105395,1,8,0:0:0:0:
253,197,106062,1,0,0:0:0:0:
253,197,106728,1,12,0:0:0:0:
253,197,108062,1,0,0:0:0:0:
253,197,108728,1,8,0:0:0:0:
253,197,109395,1,0,0:0:0:0:
253,197,110062,1,8,0:0:0:0:
253,197,110728,1,8,0:0:0:0:
253,197,111395,1,0,0:0:0:0:
253,197,111728,1,8,0:0:0:0:
253,197,112062,1,4,0:0:0:0:
253,197,113395,1,0,0:0:0:0:
253,197,114062,1,0,0:0:0:0:
253,197,114395,1,0,0:0:0:0:
256,192,114728,1,8,0:0:0:0:
253,197,115395,1,8,0:0:0:0:
253,197,116062,1,8,0:0:0:0:
253,197,116395,1,0,0:0:0:0:
253,197,116728,1,8,0:0:0:0:
253,197,128062,5,12,0:0:0:0:
253,197,128729,1,8,0:0:0:0:
253,197,129395,1,0,0:0:0:0:
253,197,129729,1,8,0:0:0:0:
253,197,130062,1,0,0:0:0:0:
253,197,130395,1,0,0:0:0:0:
253,197,130729,1,8,0:0:0:0:
253,197,131394,1,0,0:0:0:0:
253,197,132062,1,8,0:0:0:0:
253,197,132728,1,8,0:0:0:0:
253,197,133395,1,0,0:0:0:0:
253,197,134395,1,0,0:0:0:0:
253,197,134728,1,8,0:0:0:0:
253,197,135062,1,0,0:0:0:0:
253,197,135395,1,8,0:0:0:0:
253,197,135729,1,8,0:0:0:0:
253,197,136062,1,0,0:0:0:0:
253,197,136729,1,8,0:0:0:0:
253,197,137395,1,0,0:0:0:0:
253,197,138062,1,8,0:0:0:0:
253,197,138729,1,4,0:0:0:0:
256,192,139395,1,8,0:0:0:0:
256,192,139728,1,8,0:0:0:0:
256,192,140728,1,8,0:0:0:0:
253,197,141395,1,0,0:0:0:0:
253,197,142062,1,8,0:0:0:0:
253,197,142729,1,0,0:0:0:0:
253,197,143062,1,0,0:0:0:0:
253,197,143395,1,8,0:0:0:0:
253,197,144062,1,0,0:0:0:0:
253,197,145062,1,8,0:0:0:0:
253,197,145395,1,0,0:0:0:0:
253,197,146062,1,8,0:0:0:0:
253,197,146729,1,0,0:0:0:0:
253,197,147395,1,8,0:0:0:0:
253,197,147729,1,8,0:0:0:0:
253,197,148062,1,0,0:0:0:0:
253,197,148395,1,0,0:0:0:0:
253,197,148729,1,8,0:0:0:0:
253,197,149395,5,4,0:0:0:0:
253,197,150062,1,8,0:0:0:0:
253,197,150728,1,0,0:0:0:0:
253,197,151062,1,8,0:0:0:0:
253,197,151395,1,0,0:0:0:0:
253,197,151728,1,0,0:0:0:0:
253,197,152062,1,8,0:0:0:0:
253,197,152729,1,0,0:0:0:0:
253,197,153395,1,8,0:0:0:0:
253,197,154395,1,8,0:0:0:0:
253,197,154728,1,0,0:0:0:0:
253,197,155395,1,8,0:0:0:0:
253,197,156062,1,0,0:0:0:0:
253,197,156395,1,0,0:0:0:0:
253,197,156728,1,8,0:0:0:0:
253,197,157062,1,8,0:0:0:0:
253,197,157395,1,0,0:0:0:0:
253,197,158062,1,8,0:0:0:0:
253,197,158728,1,0,0:0:0:0:
253,197,159728,1,8,0:0:0:0:
253,197,160062,1,4,0:0:0:0:
253,197,160728,1,8,0:0:0:0:
253,197,161395,1,0,0:0:0:0:
253,197,161728,1,8,0:0:0:0:
253,197,162062,1,8,0:0:0:0:
253,197,162395,1,8,0:0:0:0:
253,197,162728,1,0,0:0:0:0:
253,197,163395,1,8,0:0:0:0:
253,197,164062,1,0,0:0:0:0:
253,197,164728,1,8,0:0:0:0:
253,197,165395,1,0,0:0:0:0:
253,197,166395,1,8,0:0:0:0:
253,197,166728,1,0,0:0:0:0:
253,197,167395,1,8,0:0:0:0:
253,197,168062,1,0,0:0:0:0:
253,197,168728,1,8,0:0:0:0:
253,197,169062,1,8,0:0:0:0:
253,197,169395,1,0,0:0:0:0:
253,197,169728,1,0,0:0:0:0:
253,197,170062,1,8,0:0:0:0:
256,192,170395,1,0,0:0:0:0:
256,192,170728,1,12,0:0:0:0:
