osu file format v14

[General]
AudioFilename: The General%E2%80%8E Flying a Wing Suit.mp3
AudioLeadIn: 0
PreviewTime: 0
Countdown: 1
SampleSet: Soft
StackLeniency: 0.5
Mode: 0
LetterboxInBreaks: 0
WidescreenStoryboard: 1

[Editor]
Bookmarks: 100,322,544
DistanceSpacing: 0.4
BeatDivisor: 4
GridSize: 8
TimelineZoom: 4.299998

[Metadata]
Title:The General's Salute
TitleUnicode:The General's Salute
Artist:The General Insurance Company
ArtistUnicode:The General Insurance Company
Creator:Hpocks
Version:Zev's literally fokin rainbowz
Source:
Tags:
BeatmapID:1018713
BeatmapSetID:372271

[Difficulty]
HPDrainRate:6.9
CircleSize:4.3
OverallDifficulty:10
ApproachRate:9
SliderMultiplier:3.59999990463257
SliderTickRate:2

[Events]
//Background and Video events
0,0,"wingsuit-241x175.jpg",0,0
//Break Periods
//Storyboard Layer 0 (Background)
//Storyboard Layer 1 (Fail)
//Storyboard Layer 2 (Pass)
//Storyboard Layer 3 (Foreground)
//Storyboard Sound Samples

[TimingPoints]
100,444.444444444444,4,2,0,100,1,0
100,-66.6666666666667,4,2,0,100,0,0
1988,-33.3333333333333,4,2,0,100,0,0
4266,-33.3333333333333,4,2,0,83,0,0
4322,-33.3333333333333,4,2,0,57,0,0
4377,-33.3333333333333,4,2,0,41,0,0
4433,-100,4,2,0,31,0,0
4488,-100,4,2,0,14,0,0
4544,-100,4,2,0,5,0,0

[Colours]
Combo1 : 38,41,183
Combo2 : 255,0,0
Combo3 : 255,153,15
Combo4 : 249,255,15
Combo5 : 24,198,0
Combo6 : 43,106,255

[HitObjects]
32,352,100,38,2,P|0:288|32:160,1,135.000001573563,2|0,0:1|0:1,0:1:0:0:
32,32,322,2,2,P|64:96|45:223,1,135.000001573563,0|0,0:1|0:1,0:1:0:0:
129,351,544,2,2,P|211:323|254:229,1,135.000001573563,2|0,0:1|0:1,0:1:0:0:
128,208,766,2,0,L|352:208,2,135.000001573563,0|0|2,0:0|0:0|0:0,0:0:0:0:
56,208,1099,5,0,0:0:0:0:
257,313,1211,2,0,P|314:297|352:234,1,135.000001573563,2|0,0:0|0:0,0:0:0:0:
352,32,1433,2,0,P|352:160|384:192,1,135.000001573563,2|0,0:0|0:0,0:0:0:0:
448,96,1655,1,2,0:0:0:0:
256,96,1766,2,0,L|256:256,1,135.000001573563,2|0,0:0|0:0,0:0:0:0:
129,288,1877,2,0,B|256:319|256:319|416:280,1,270.000003147125,2|0,0:0|0:0,0:0:0:0:
256,320,1988,1,0,0:0:0:0:
128,192,2322,69,2,0:0:0:0:
260,202,2377,1,2,0:0:0:0:
390,181,2433,1,2,0:0:0:0:
384,192,2544,5,2,0:0:0:0:
251,202,2599,1,2,0:0:0:0:
121,181,2655,1,2,0:0:0:0:
0,96,2766,5,0,0:0:0:0:
26,91,2877,5,0,0:0:0:0:
52,87,2988,5,0,0:0:0:0:
78,83,3099,5,0,0:0:0:0:
105,80,3211,5,0,0:0:0:0:
131,76,3285,5,0,0:0:0:0:
157,73,3359,5,0,0:0:0:0:
183,70,3433,5,0,0:0:0:0:
209,67,3507,5,0,0:0:0:0:
235,64,3581,5,0,0:0:0:0:
261,61,3655,5,0,0:0:0:0:
287,64,3711,5,0,0:0:0:0:
313,67,3766,5,0,0:0:0:0:
339,70,3822,5,0,0:0:0:0:
365,73,3877,5,0,0:0:0:0:
391,76,3933,5,0,0:0:0:0:
417,80,3988,5,0,0:0:0:0:
443,84,4044,5,0,0:0:0:0:
469,88,4099,5,0,0:0:0:0:
457,127,4137,5,0,0:0:0:0:
449,152,4174,5,0,0:0:0:0:
441,177,4211,5,0,0:0:0:0:
433,202,4248,5,0,0:0:0:0:
425,227,4285,5,0,0:0:0:0:
391,240,4322,5,0,0:0:0:0:
366,249,4349,5,0,0:0:0:0:
340,259,4377,5,0,0:0:0:0:
314,269,4405,5,0,0:0:0:0:
288,279,4433,5,0,0:0:0:0:
262,289,4461,5,0,0:0:0:0:
237,299,4488,5,0,0:0:0:0:
210,306,4516,5,0,0:0:0:0:
183,313,4544,5,0,0:0:0:0:
