osu file format v14

[General]
AudioFilename: The General%E2%80%8E Flying a Wing Suit.mp3
AudioLeadIn: 0
PreviewTime: 0
Countdown: 1
SampleSet: None
StackLeniency: 0.3
Mode: 1
LetterboxInBreaks: 0
WidescreenStoryboard: 1

[Editor]
Bookmarks: 544
DistanceSpacing: 0.5
BeatDivisor: 12
GridSize: 32
TimelineZoom: 4.799997

[Metadata]
Title:The General's Salute
TitleUnicode:The General's Salute
Artist:The General Insurance Company
ArtistUnicode:The General Insurance Company
Creator:Hpocks
Version:Rilene's Ura Oni
Source:
Tags:
BeatmapID:909469
BeatmapSetID:372271

[Difficulty]
HPDrainRate:6
CircleSize:4
OverallDifficulty:9
ApproachRate:10
SliderMultiplier:2.79999990463257
SliderTickRate:1

[Events]
//Background and Video events
0,0,"wingsuit-241x175.jpg",0,0
//Break Periods
//Storyboard Layer 0 (Background)
//Storyboard Layer 1 (Fail)
//Storyboard Layer 2 (Pass)
//Storyboard Layer 3 (Foreground)
//Storyboard Sound Samples

[TimingPoints]
100,444.444444444444,4,2,0,40,1,0

[Colours]
Combo1 : 0,128,0
Combo2 : 255,255,0

[HitObjects]
256,192,100,5,0,0:0:0:0:
256,192,155,1,8,0:0:0:0:
256,192,211,1,8,0:0:0:0:
256,192,322,1,0,0:0:0:0:
256,192,377,1,8,0:0:0:0:
256,192,488,1,0,0:0:0:0:
256,192,544,1,8,0:0:0:0:
256,192,599,1,0,0:0:0:0:
256,192,655,1,8,0:0:0:0:
256,192,766,1,8,0:0:0:0:
256,192,821,1,0,0:0:0:0:
256,192,932,1,0,0:0:0:0:
256,192,988,1,8,0:0:0:0:
256,192,1099,1,0,0:0:0:0:
256,192,1155,1,8,0:0:0:0:
256,192,1211,1,8,0:0:0:0:
256,192,1322,1,0,0:0:0:0:
256,192,1433,1,8,0:0:0:0:
256,192,1544,1,0,0:0:0:0:
256,192,1599,1,8,0:0:0:0:
256,192,1655,1,8,0:0:0:0:
256,192,1766,1,0,0:0:0:0:
256,192,1822,1,8,0:0:0:0:
256,192,1877,1,0,0:0:0:0:
256,192,1933,1,8,0:0:0:0:
256,192,1988,1,8,0:0:0:0:
256,192,2099,1,0,0:0:0:0:
256,192,2211,1,8,0:0:0:0:
256,192,2266,1,0,0:0:0:0:
256,192,2322,1,8,0:0:0:0:
256,192,2377,1,8,0:0:0:0:
256,192,2433,1,0,0:0:0:0:
256,192,2488,1,8,0:0:0:0:
256,192,2544,1,0,0:0:0:0:
256,192,2655,1,0,0:0:0:0:
256,192,2766,1,8,0:0:0:0:
256,192,2822,1,0,0:0:0:0:
256,192,2877,1,0,0:0:0:0:
256,192,2933,1,8,0:0:0:0:
256,192,2988,1,0,0:0:0:0:
256,192,3044,1,0,0:0:0:0:
256,192,3099,1,8,0:0:0:0:
256,192,3155,1,8,0:0:0:0:
256,192,3211,1,0,0:0:0:0:
256,192,3266,1,8,0:0:0:0:
256,192,3322,1,0,0:0:0:0:
256,192,3377,1,8,0:0:0:0:
256,192,3433,1,0,0:0:0:0:
256,192,3488,1,0,0:0:0:0:
256,192,3544,1,8,0:0:0:0:
256,192,3599,1,8,0:0:0:0:
256,192,3655,1,0,0:0:0:0:
256,192,3692,1,8,0:0:0:0:
256,192,3729,1,0,0:0:0:0:
256,192,3766,5,8,0:0:0:0:
256,192,3803,1,0,0:0:0:0:
256,192,3840,1,0,0:0:0:0:
256,192,3877,1,8,0:0:0:0:
256,192,3914,1,8,0:0:0:0:
256,192,3951,1,0,0:0:0:0:
256,192,3988,1,8,0:0:0:0:
256,192,4025,1,0,0:0:0:0:
256,192,4062,1,8,0:0:0:0:
256,192,4099,1,0,0:0:0:0:
