osu file format v14

[General]
AudioFilename: The General%E2%80%8E Flying a Wing Suit.mp3
AudioLeadIn: 0
PreviewTime: 0
Countdown: 1
SampleSet: None
StackLeniency: 0.7
Mode: 1
LetterboxInBreaks: 0
WidescreenStoryboard: 1

[Editor]
Bookmarks: 1488
DistanceSpacing: 2
BeatDivisor: 16
GridSize: 8
TimelineZoom: 1

[Metadata]
Title:The General's Salute
TitleUnicode:The General's Salute
Artist:The General Insurance Company
ArtistUnicode:The General Insurance Company
Creator:Hpocks
Version:Extreme Death Hyper Oni
Source:
Tags:
BeatmapID:885216
BeatmapSetID:372271

[Difficulty]
HPDrainRate:7.3
CircleSize:3.3
OverallDifficulty:7.1
ApproachRate:6
SliderMultiplier:3.30000000596047
SliderTickRate:1

[Events]
//Background and Video events
0,0,"wingsuit-241x175.jpg",0,0
//Break Periods
//Storyboard Layer 0 (Background)
//Storyboard Layer 1 (Fail)
//Storyboard Layer 2 (Pass)
//Storyboard Layer 3 (Foreground)
//Storyboard Sound Samples

[TimingPoints]
100,444.444444444444,4,1,0,10,1,0
2988,444.444444444444,4,1,0,10,1,0

[HitObjects]
256,192,100,5,0,0:0:0:0:
256,192,211,1,8,0:0:0:0:
256,192,322,1,0,0:0:0:0:
256,192,433,1,8,0:0:0:0:
256,192,544,1,0,0:0:0:0:
256,192,599,1,0,0:0:0:0:
256,192,655,1,0,0:0:0:0:
256,192,711,1,0,0:0:0:0:
256,192,766,1,0,0:0:0:0:
256,192,822,1,0,0:0:0:0:
256,192,877,1,0,0:0:0:0:
256,192,933,1,0,0:0:0:0:
256,192,988,1,8,0:0:0:0:
256,192,1099,1,0,0:0:0:0:
256,192,1211,1,8,0:0:0:0:
256,192,1266,1,0,0:0:0:0:
256,192,1322,1,8,0:0:0:0:
256,192,1433,1,0,0:0:0:0:
256,192,1544,1,0,0:0:0:0:
256,192,1655,1,8,0:0:0:0:
256,192,1766,1,0,0:0:0:0:
256,192,1877,1,0,0:0:0:0:
256,192,1933,1,0,0:0:0:0:
256,192,1988,1,8,0:0:0:0:
256,192,2044,1,0,0:0:0:0:
256,192,2099,1,8,0:0:0:0:
256,192,2155,1,0,0:0:0:0:
256,192,2211,1,8,0:0:0:0:
256,192,2266,1,8,0:0:0:0:
256,192,2322,1,0,0:0:0:0:
256,192,2433,1,0,0:0:0:0:
256,192,2544,1,8,0:0:0:0:
256,192,2655,1,0,0:0:0:0:
256,192,2766,1,0,0:0:0:0:
256,192,2822,1,0,0:0:0:0:
256,192,2877,1,8,0:0:0:0:
256,192,2933,1,0,0:0:0:0:
256,192,2988,1,8,0:0:0:0:
256,192,3043,1,0,0:0:0:0:
256,192,3099,1,0,0:0:0:0:
256,192,3154,1,0,0:0:0:0:
256,192,3210,1,8,0:0:0:0:
256,192,3265,1,0,0:0:0:0:
256,192,3321,1,0,0:0:0:0:
256,192,3376,1,0,0:0:0:0:
256,192,3432,1,8,0:0:0:0:
256,192,3487,1,0,0:0:0:0:
256,192,3543,1,0,0:0:0:0:
256,192,3599,1,0,0:0:0:0:
256,192,3654,1,8,0:0:0:0:
256,192,3710,1,0,0:0:0:0:
256,192,3765,1,8,0:0:0:0:
256,192,3821,1,0,0:0:0:0:
256,192,3876,1,8,0:0:0:0:
256,192,3932,1,0,0:0:0:0:
256,192,3987,1,8,0:0:0:0:
256,192,4043,1,0,0:0:0:0:
256,192,4099,1,8,0:0:0:0:
256,192,4154,1,8,0:0:0:0:
256,192,4210,1,8,0:0:0:0:
256,192,4265,1,8,0:0:0:0:
256,192,4321,1,0,0:0:0:0:
256,192,4543,1,0,0:0:0:0:
256,192,4571,1,0,0:0:0:0:
256,192,4599,1,0,0:0:0:0:
256,192,4626,1,0,0:0:0:0:
256,192,4654,1,8,0:0:0:0:
