osu file format v14

[General]
AudioFilename: The General%E2%80%8E Flying a Wing Suit.mp3
AudioLeadIn: 0
PreviewTime: 0
Countdown: 1
SampleSet: None
StackLeniency: 0.5
Mode: 2
LetterboxInBreaks: 0
WidescreenStoryboard: 1

[Editor]
DistanceSpacing: 1
BeatDivisor: 1
GridSize: 32
TimelineZoom: 2.899999

[Metadata]
Title:The General's Salute
TitleUnicode:The General's Salute
Artist:The General Insurance Company
ArtistUnicode:The General Insurance Company
Creator:Hpocks
Version:2160 BPM Streaming
Source:
Tags:
BeatmapID:898411
BeatmapSetID:372271

[Difficulty]
HPDrainRate:6
CircleSize:3
OverallDifficulty:9
ApproachRate:9
SliderMultiplier:3.59999990463257
SliderTickRate:2

[Events]
//Background and Video events
0,0,"wingsuit-241x175.jpg",0,0
//Break Periods
//Storyboard Layer 0 (Background)
//Storyboard Layer 1 (Fail)
//Storyboard Layer 2 (Pass)
//Storyboard Layer 3 (Foreground)
//Storyboard Sound Samples

[TimingPoints]
100,55.5555555555556,4,1,0,20,1,0

[Colours]
Combo1 : 0,128,0
Combo2 : 255,255,0

[HitObjects]
256,192,100,1,0,0:0:0:0:
256,192,127,1,0,0:0:0:0:
256,192,155,1,0,0:0:0:0:
256,192,183,1,0,0:0:0:0:
256,192,211,1,0,0:0:0:0:
256,192,238,1,0,0:0:0:0:
256,192,266,1,0,0:0:0:0:
256,192,294,1,0,0:0:0:0:
256,192,322,1,0,0:0:0:0:
256,192,349,1,0,0:0:0:0:
256,192,377,1,0,0:0:0:0:
256,192,405,1,0,0:0:0:0:
256,192,433,1,0,0:0:0:0:
256,192,460,1,0,0:0:0:0:
256,192,488,1,0,0:0:0:0:
256,192,516,1,0,0:0:0:0:
256,192,544,1,0,0:0:0:0:
256,192,571,1,0,0:0:0:0:
256,192,599,1,0,0:0:0:0:
256,192,627,1,0,0:0:0:0:
256,192,655,1,0,0:0:0:0:
256,192,682,1,0,0:0:0:0:
256,192,710,1,0,0:0:0:0:
256,192,738,1,0,0:0:0:0:
256,192,766,1,0,0:0:0:0:
256,192,793,1,0,0:0:0:0:
256,192,821,1,0,0:0:0:0:
256,192,849,1,0,0:0:0:0:
256,192,877,1,0,0:0:0:0:
256,192,904,1,0,0:0:0:0:
256,192,932,1,0,0:0:0:0:
256,192,960,1,0,0:0:0:0:
256,192,988,1,0,0:0:0:0:
256,192,1015,1,0,0:0:0:0:
256,192,1043,1,0,0:0:0:0:
256,192,1071,1,0,0:0:0:0:
256,192,1099,1,0,0:0:0:0:
256,192,1126,1,0,0:0:0:0:
256,192,1154,1,0,0:0:0:0:
256,192,1182,1,0,0:0:0:0:
256,192,1210,1,0,0:0:0:0:
256,192,1237,1,0,0:0:0:0:
256,192,1265,1,0,0:0:0:0:
256,192,1293,1,0,0:0:0:0:
256,192,1321,1,0,0:0:0:0:
256,192,1348,1,0,0:0:0:0:
256,192,1376,1,0,0:0:0:0:
256,192,1404,1,0,0:0:0:0:
256,192,1433,1,0,0:0:0:0:
256,192,1460,1,0,0:0:0:0:
256,192,1488,1,0,0:0:0:0:
256,192,1516,1,0,0:0:0:0:
256,192,1544,1,0,0:0:0:0:
256,192,1571,1,0,0:0:0:0:
256,192,1599,1,0,0:0:0:0:
256,192,1627,1,0,0:0:0:0:
256,192,1655,1,0,0:0:0:0:
256,192,1682,1,0,0:0:0:0:
256,192,1710,1,0,0:0:0:0:
256,192,1738,1,0,0:0:0:0:
256,192,1766,1,0,0:0:0:0:
256,192,1793,1,0,0:0:0:0:
256,192,1821,1,0,0:0:0:0:
256,192,1849,1,0,0:0:0:0:
256,192,1877,1,0,0:0:0:0:
256,192,1904,1,0,0:0:0:0:
256,192,1932,1,0,0:0:0:0:
256,192,1960,1,0,0:0:0:0:
256,192,1988,1,0,0:0:0:0:
256,192,2015,1,0,0:0:0:0:
256,192,2043,1,0,0:0:0:0:
256,192,2071,1,0,0:0:0:0:
256,192,2099,1,0,0:0:0:0:
256,192,2126,1,0,0:0:0:0:
256,192,2154,1,0,0:0:0:0:
256,192,2182,1,0,0:0:0:0:
256,192,2210,1,0,0:0:0:0:
256,192,2237,1,0,0:0:0:0:
256,192,2265,1,0,0:0:0:0:
256,192,2293,1,0,0:0:0:0:
256,192,2321,1,0,0:0:0:0:
256,192,2348,1,0,0:0:0:0:
256,192,2376,1,0,0:0:0:0:
256,192,2404,1,0,0:0:0:0:
256,192,2432,1,0,0:0:0:0:
256,192,2459,1,0,0:0:0:0:
256,192,2487,1,0,0:0:0:0:
256,192,2515,1,0,0:0:0:0:
256,192,2543,1,0,0:0:0:0:
256,192,2570,1,0,0:0:0:0:
256,192,2598,1,0,0:0:0:0:
256,192,2626,1,0,0:0:0:0:
256,192,2654,1,0,0:0:0:0:
256,192,2681,1,0,0:0:0:0:
256,192,2709,1,0,0:0:0:0:
256,192,2737,1,0,0:0:0:0:
256,192,2766,1,0,0:0:0:0:
256,192,2793,1,0,0:0:0:0:
256,192,2821,1,0,0:0:0:0:
256,192,2849,1,0,0:0:0:0:
256,192,2877,1,0,0:0:0:0:
256,192,2904,1,0,0:0:0:0:
256,192,2932,1,0,0:0:0:0:
256,192,2960,1,0,0:0:0:0:
256,192,2988,1,0,0:0:0:0:
256,192,3015,1,0,0:0:0:0:
256,192,3043,1,0,0:0:0:0:
256,192,3071,1,0,0:0:0:0:
256,192,3099,1,0,0:0:0:0:
256,192,3126,1,0,0:0:0:0:
256,192,3154,1,0,0:0:0:0:
256,192,3182,1,0,0:0:0:0:
256,192,3210,1,0,0:0:0:0:
256,192,3237,1,0,0:0:0:0:
256,192,3265,1,0,0:0:0:0:
256,192,3293,1,0,0:0:0:0:
256,192,3321,1,0,0:0:0:0:
256,192,3348,1,0,0:0:0:0:
256,192,3376,1,0,0:0:0:0:
256,192,3404,1,0,0:0:0:0:
256,192,3432,1,0,0:0:0:0:
256,192,3459,1,0,0:0:0:0:
256,192,3487,1,0,0:0:0:0:
256,192,3515,1,0,0:0:0:0:
256,192,3543,1,0,0:0:0:0:
256,192,3570,1,0,0:0:0:0:
256,192,3598,1,0,0:0:0:0:
256,192,3626,1,0,0:0:0:0:
256,192,3654,1,0,0:0:0:0:
256,192,3681,1,0,0:0:0:0:
256,192,3709,1,0,0:0:0:0:
256,192,3737,1,0,0:0:0:0:
256,192,3765,1,0,0:0:0:0:
256,192,3792,1,0,0:0:0:0:
256,192,3820,1,0,0:0:0:0:
256,192,3848,1,0,0:0:0:0:
256,192,3876,1,0,0:0:0:0:
256,192,3903,1,0,0:0:0:0:
256,192,3931,1,0,0:0:0:0:
256,192,3959,1,0,0:0:0:0:
256,192,3987,1,0,0:0:0:0:
256,192,4014,1,0,0:0:0:0:
256,192,4042,1,0,0:0:0:0:
256,192,4070,1,0,0:0:0:0:
256,192,4099,1,0,0:0:0:0:
256,192,4126,1,0,0:0:0:0:
256,192,4154,1,0,0:0:0:0:
256,192,4182,1,0,0:0:0:0:
256,192,4210,1,0,0:0:0:0:
256,192,4237,1,0,0:0:0:0:
256,192,4265,1,0,0:0:0:0:
256,192,4293,1,0,0:0:0:0:
256,192,4321,1,0,0:0:0:0:
256,192,4348,1,0,0:0:0:0:
256,192,4376,1,0,0:0:0:0:
256,192,4404,1,0,0:0:0:0:
256,192,4432,1,0,0:0:0:0:
256,192,4459,1,0,0:0:0:0:
256,192,4487,1,0,0:0:0:0:
256,192,4515,1,0,0:0:0:0:
256,192,4543,1,0,0:0:0:0:
256,192,4570,1,0,0:0:0:0:
256,192,4598,1,0,0:0:0:0:
256,192,4626,1,0,0:0:0:0:
256,192,4654,1,0,0:0:0:0:
256,192,4681,1,0,0:0:0:0:
256,192,4709,1,0,0:0:0:0:
256,192,4737,1,0,0:0:0:0:
256,192,4765,1,0,0:0:0:0:
256,192,4792,1,0,0:0:0:0:
256,192,4820,1,0,0:0:0:0:
256,192,4848,1,0,0:0:0:0:
256,192,4876,1,0,0:0:0:0:
256,192,4903,1,0,0:0:0:0:
256,192,4931,1,0,0:0:0:0:
256,192,4959,1,0,0:0:0:0:
256,192,4987,1,0,0:0:0:0:
256,192,5014,1,0,0:0:0:0:
256,192,5042,1,0,0:0:0:0:
256,192,5070,1,0,0:0:0:0:
