osu file format v14

[General]
AudioFilename: The General%E2%80%8E Flying a Wing Suit.mp3
AudioLeadIn: 0
PreviewTime: 0
Countdown: 1
SampleSet: None
StackLeniency: 0.5
Mode: 2
LetterboxInBreaks: 0
WidescreenStoryboard: 1

[Editor]
DistanceSpacing: 1
BeatDivisor: 1
GridSize: 32
TimelineZoom: 2.899999

[Metadata]
Title:The General's Salute
TitleUnicode:The General's Salute
Artist:The General Insurance Company
ArtistUnicode:The General Insurance Company
Creator:Hpocks
Version:1080 BPM Streaming
Source:
Tags:
BeatmapID:898410
BeatmapSetID:372271

[Difficulty]
HPDrainRate:6
CircleSize:3
OverallDifficulty:9
ApproachRate:9
SliderMultiplier:3.59999990463257
SliderTickRate:2

[Events]
//Background and Video events
0,0,"wingsuit-241x175.jpg",0,0
//Break Periods
//Storyboard Layer 0 (Background)
//Storyboard Layer 1 (Fail)
//Storyboard Layer 2 (Pass)
//Storyboard Layer 3 (Foreground)
//Storyboard Sound Samples

[TimingPoints]
100,55.5555555555556,4,1,0,20,1,0

[Colours]
Combo1 : 0,128,0
Combo2 : 255,255,0

[HitObjects]
256,192,100,5,0,0:0:0:0:
256,192,155,1,0,0:0:0:0:
256,192,211,1,0,0:0:0:0:
256,192,266,1,0,0:0:0:0:
256,192,322,1,0,0:0:0:0:
256,192,377,1,0,0:0:0:0:
256,192,433,1,0,0:0:0:0:
256,192,488,1,0,0:0:0:0:
256,192,544,1,0,0:0:0:0:
256,192,599,1,0,0:0:0:0:
256,192,655,1,0,0:0:0:0:
256,192,710,1,0,0:0:0:0:
256,192,766,1,0,0:0:0:0:
256,192,821,1,0,0:0:0:0:
256,192,877,1,0,0:0:0:0:
256,192,932,1,0,0:0:0:0:
256,192,988,1,0,0:0:0:0:
256,192,1043,1,0,0:0:0:0:
256,192,1099,1,0,0:0:0:0:
256,192,1154,1,0,0:0:0:0:
256,192,1210,1,0,0:0:0:0:
256,192,1265,1,0,0:0:0:0:
256,192,1321,1,0,0:0:0:0:
256,192,1376,1,0,0:0:0:0:
256,192,1432,1,0,0:0:0:0:
256,192,1487,1,0,0:0:0:0:
256,192,1543,1,0,0:0:0:0:
256,192,1598,1,0,0:0:0:0:
256,192,1654,1,0,0:0:0:0:
256,192,1709,1,0,0:0:0:0:
256,192,1765,1,0,0:0:0:0:
256,192,1820,1,0,0:0:0:0:
256,192,1876,1,0,0:0:0:0:
256,192,1877,1,0,0:0:0:0:
256,192,1932,1,0,0:0:0:0:
256,192,1988,1,0,0:0:0:0:
256,192,2043,1,0,0:0:0:0:
256,192,2099,1,0,0:0:0:0:
256,192,2154,1,0,0:0:0:0:
256,192,2210,1,0,0:0:0:0:
256,192,2265,1,0,0:0:0:0:
256,192,2321,1,0,0:0:0:0:
256,192,2376,1,0,0:0:0:0:
256,192,2432,1,0,0:0:0:0:
256,192,2487,1,0,0:0:0:0:
256,192,2543,1,0,0:0:0:0:
256,192,2598,1,0,0:0:0:0:
256,192,2654,1,0,0:0:0:0:
256,192,2709,1,0,0:0:0:0:
256,192,2765,1,0,0:0:0:0:
256,192,2820,1,0,0:0:0:0:
256,192,2876,1,0,0:0:0:0:
256,192,2931,1,0,0:0:0:0:
256,192,2987,1,0,0:0:0:0:
256,192,3042,1,0,0:0:0:0:
256,192,3098,1,0,0:0:0:0:
256,192,3153,1,0,0:0:0:0:
256,192,3209,1,0,0:0:0:0:
256,192,3264,1,0,0:0:0:0:
256,192,3320,1,0,0:0:0:0:
256,192,3375,1,0,0:0:0:0:
256,192,3431,1,0,0:0:0:0:
256,192,3486,1,0,0:0:0:0:
256,192,3542,1,0,0:0:0:0:
256,192,3597,1,0,0:0:0:0:
256,192,3653,1,0,0:0:0:0:
256,192,3655,1,0,0:0:0:0:
256,192,3710,1,0,0:0:0:0:
256,192,3766,1,0,0:0:0:0:
256,192,3821,1,0,0:0:0:0:
256,192,3877,1,0,0:0:0:0:
256,192,3932,1,0,0:0:0:0:
256,192,3988,1,0,0:0:0:0:
256,192,4043,1,0,0:0:0:0:
256,192,4099,1,0,0:0:0:0:
256,192,4154,1,0,0:0:0:0:
256,192,4210,1,0,0:0:0:0:
256,192,4265,1,0,0:0:0:0:
256,192,4321,1,0,0:0:0:0:
256,192,4376,1,0,0:0:0:0:
256,192,4432,1,0,0:0:0:0:
256,192,4487,1,0,0:0:0:0:
256,192,4543,1,0,0:0:0:0:
256,192,4598,1,0,0:0:0:0:
256,192,4654,1,0,0:0:0:0:
256,192,4709,1,0,0:0:0:0:
256,192,4765,1,0,0:0:0:0:
256,192,4820,1,0,0:0:0:0:
256,192,4876,1,0,0:0:0:0:
256,192,4931,1,0,0:0:0:0:
256,192,4987,1,0,0:0:0:0:
256,192,5042,1,0,0:0:0:0:
