osu file format v14

[General]
AudioFilename: audio.mp3
AudioLeadIn: 0
PreviewTime: 164658
Countdown: 0
SampleSet: Soft
StackLeniency: 0.7
Mode: 0
LetterboxInBreaks: 0
WidescreenStoryboard: 0

[Editor]
Bookmarks: 31343,100559,178506
DistanceSpacing: 1
BeatDivisor: 4
GridSize: 4
TimelineZoom: 1

[Metadata]
Title:le Internet Medley
TitleUnicode:le Internet Medley
Artist:The GAG Quartet
ArtistUnicode:The GAG Quartet
Creator:riot1133
Version:le trole
Source:
Tags:instrumental rock novelty memes trolle nyanyanyanyanyanyanya! ievan polkka polka leekspin keyboard cat Я очень рад, ведь я, наконец, возвращаюсь домой trolololololololo song chacarron macarron shoop da whoop dragostea din tei numa numa friday never gonna give you up rick roll chocolate rain dramatic chipmunk
BeatmapID:4005065
BeatmapSetID:1937520

[Difficulty]
HPDrainRate:4
CircleSize:4
OverallDifficulty:8.4
ApproachRate:8.6
SliderMultiplier:1.4
SliderTickRate:1

[Events]
//Background and Video events
0,0,"desktop-1600x900.jpg",0,0
Video,-818,"video720p.mp4"
//Break Periods
2,219939,221071
//Storyboard Layer 0 (Background)
//Storyboard Layer 1 (Fail)
//Storyboard Layer 2 (Pass)
//Storyboard Layer 3 (Foreground)
//Storyboard Layer 4 (Overlay)
//Storyboard Sound Samples

[TimingPoints]
68,424.028268551237,4,2,1,50,1,0
3460,428.571428571429,4,2,1,65,1,0
30031,437.956204379562,4,2,1,65,1,8
30906,437.956204379562,4,2,1,65,1,0
31343,545.454545454545,4,2,1,65,1,0
31888,582.52427184466,4,2,1,65,1,0
32471,612.244897959184,4,2,1,65,1,0
33083,600,4,2,1,50,1,0
37883,597.014925373134,4,2,1,50,1,0
42659,600,4,2,1,50,1,0
46859,612.244897959184,4,2,1,50,1,0
47471,600,4,2,1,50,1,0
47471,-83.3333333333333,4,2,1,60,0,0
55883,303.030303030303,3,2,1,70,1,0
56792,353.982300884956,4,2,1,70,1,0
58207,352.941176470588,4,2,1,50,1,0
62442,352.941176470588,4,2,1,50,1,0
68089,-125,4,2,1,50,0,0
76559,-166.666666666667,4,2,1,50,0,0
77971,-166.666666666667,4,2,1,70,0,0
79383,-100,4,2,1,70,0,0
96236,-100,4,2,1,5,0,0
96324,-100,4,2,1,70,0,0
100559,331.491712707182,4,2,1,70,1,0
101265,352.941176470588,4,2,1,70,1,0
101971,705.882352941176,4,2,1,60,1,0
101971,-50,4,2,1,60,0,0
111853,705.882352941176,4,2,1,60,1,0
111853,-50,4,2,1,60,0,0
123850,659.340659340659,4,2,1,60,1,0
123853,-50,4,2,1,60,0,0
124509,652.173913043478,4,2,1,60,1,0
124509,-50,4,2,1,60,0,0
125161,634.920634920635,4,2,1,60,1,0
125161,-50,4,2,1,60,0,0
125795,603.015075376884,4,2,1,60,1,0
125795,-50,4,2,1,60,0,0
126398,588.235294117647,4,2,1,60,1,0
126398,-50,4,2,1,60,0,0
126986,574.162679425837,4,2,1,60,1,0
126986,-50,4,2,1,60,0,0
127560,555.555555555556,4,2,1,70,1,0
127560,-50,4,2,1,70,0,0
128115,545.454545454546,3,2,1,70,1,0
128115,-50,3,2,1,70,0,0
131387,545.454545454546,4,2,1,70,1,0
131387,-50,4,2,1,70,0,0
135750,-100,4,2,1,60,0,0
140114,-166.666666666667,4,2,1,50,0,0
157198,428.571428571429,4,2,1,40,1,0
157198,-166.666666666667,4,2,1,40,0,0
162340,444.444444444445,4,2,1,40,1,0
162340,-166.666666666667,4,2,1,40,0,0
165006,428.571428571429,4,2,1,70,1,0
165006,-83.3333333333333,4,2,1,70,0,0
207541,-166.666666666667,4,2,1,70,0,0
207809,-166.666666666667,4,2,1,5,0,0
207863,428.571428571429,4,2,1,70,1,0
207863,-166.666666666667,4,2,1,70,0,0
211291,-100,4,2,1,70,0,0
218148,447.761194029851,4,2,1,70,1,0
221730,428.571428571429,4,2,1,70,1,0
223015,394.736842105263,4,2,1,70,1,0
223444,697.674418604651,4,2,1,70,1,0
224141,857.142857142858,4,2,1,70,1,0
224998,753.768844221106,4,2,1,70,1,0

[Colours]
Combo1 : 202,199,85
Combo2 : 85,85,85
Combo3 : 173,173,173
Combo4 : 113,126,174

[HitObjects]
96,248,68,6,0,P|93:229|90:210,2,35,8|0|0,0:0|0:0|0:0,0:0:0:0:
153,302,492,2,0,P|191:308|225:321,1,70,8|0,0:0|0:0,0:0:0:0:
289,278,810,1,0,0:0:0:0:
289,278,916,2,0,P|305:234|323:208,1,70,0|0,3:2|0:0,0:0:0:0:
283,111,1340,1,8,0:0:0:0:
402,77,1552,1,0,0:0:0:0:
402,77,1658,1,0,3:2:0:0:
402,77,1764,6,0,P|395:119|408:146,1,70,0|0,3:2|0:0,0:0:0:0:
473,174,2082,1,0,0:0:0:0:
473,174,2188,1,8,0:0:0:0:
414,288,2400,1,0,0:0:0:0:
414,288,2506,1,0,3:2:0:0:
414,288,2612,1,8,0:0:0:0:
341,233,2824,1,0,0:0:0:0:
284,324,3036,1,8,0:0:0:0:
181,278,3248,1,8,0:0:0:0:
146,283,3354,1,8,0:0:0:0:
111,288,3460,5,6,3:2:0:0:
46,170,3674,1,10,0:0:0:0:
188,189,3888,1,2,3:2:0:0:
193,171,3995,1,2,3:2:0:0:
140,74,4210,1,2,0:0:0:0:
132,58,4317,2,0,L|93:61,2,35,2|2|10,3:2|0:0|0:0,0:0:0:0:
230,15,4745,1,2,3:2:0:0:
290,103,4960,1,10,0:0:0:0:
470,41,5174,5,2,3:2:0:0:
387,167,5388,2,0,P|405:167|426:170,1,35,10|2,0:0|0:0,0:0:0:0:
496,274,5602,1,2,3:2:0:0:
481,259,5710,1,2,3:2:0:0:
451,249,5817,1,10,0:0:0:0:
404,264,5924,1,2,0:0:0:0:
377,304,6031,2,0,P|380:324|383:344,1,35,2|2,3:2|0:0,0:0:0:0:
302,231,6245,2,0,P|298:251|296:271,1,35,10|2,0:0|0:0,0:0:0:0:
366,144,6460,2,0,P|369:164|372:184,1,35,2|2,3:2|0:0,0:0:0:0:
321,52,6674,2,0,P|317:72|315:92,1,35,10|2,0:0|0:0,0:0:0:0:
250,131,6888,5,2,3:2:0:0:
152,67,7102,1,10,0:0:0:0:
52,176,7317,2,0,P|50:157|46:137,1,35,2|2,3:2|3:2,0:0:0:0:
126,238,7531,2,0,P|127:219|132:199,1,35,10|2,0:0|0:0,0:0:0:0:
70,322,7745,2,0,P|68:303|64:283,1,35,2|2,3:2|0:0,0:0:0:0:
138,384,7960,2,0,P|139:365|144:345,1,35,10|2,0:0|0:0,0:0:0:0:
213,292,8174,1,2,3:2:0:0:
237,316,8281,1,2,3:2:0:0:
269,327,8388,1,10,0:0:0:0:
303,326,8495,1,2,3:2:0:0:
335,312,8602,5,2,3:2:0:0:
384,200,8817,1,10,0:0:0:0:
384,200,8924,1,2,0:0:0:0:
384,200,9031,2,0,L|435:194,1,35,2|2,3:2|3:2,0:0:0:0:
299,132,9245,2,0,L|350:138,1,35,10|2,0:0|0:0,0:0:0:0:
233,187,9460,1,2,3:2:0:0:
233,187,9567,1,2,0:0:0:0:
233,187,9674,1,10,0:0:0:0:
148,124,9888,2,0,P|114:133|73:140,1,70,2|2,3:2|0:0,0:0:0:0:
214,19,10317,5,2,3:2:0:0:
314,69,10531,1,10,0:0:0:0:
403,3,10745,1,2,3:2:0:0:
422,10,10852,1,2,3:2:0:0:
480,100,11067,1,2,0:0:0:0:
462,108,11174,2,0,L|459:147,2,35,2|2|10,3:2|0:0|0:0,0:0:0:0:
352,161,11602,1,2,3:2:0:0:
444,231,11817,1,2,0:0:0:0:
380,336,12031,5,2,3:2:0:0:
276,258,12245,2,0,L|239:262,1,35,10|2,0:0|0:0,0:0:0:0:
171,353,12460,1,2,3:2:0:0:
151,348,12567,1,2,3:2:0:0:
127,335,12674,1,10,0:0:0:0:
104,301,12781,1,2,3:2:0:0:
113,247,12888,2,0,L|152:241,1,35,2|2,3:2|0:0,0:0:0:0:
206,171,13102,2,0,L|167:165,1,35,10|2,0:0|0:0,0:0:0:0:
120,91,13317,2,0,L|159:85,1,35,2|2,3:2|3:2,0:0:0:0:
195,11,13531,2,0,L|156:5,1,35,10|2,0:0|3:2,0:0:0:0:
265,59,13745,5,2,3:2:0:0:
381,21,13960,1,10,0:0:0:0:
447,133,14174,2,0,L|454:96,1,35,2|2,3:2|3:2,0:0:0:0:
379,190,14388,2,0,L|386:227,1,35,10|2,0:0|3:2,0:0:0:0:
305,143,14602,2,0,L|312:106,1,35,2|2,3:2|0:0,0:0:0:0:
222,175,14817,2,0,L|229:212,1,35,10|2,0:0|0:0,0:0:0:0:
184,283,15031,1,2,3:2:0:0:
149,277,15138,1,2,3:2:0:0:
114,272,15245,1,10,0:0:0:0:
79,267,15352,1,2,3:2:0:0:
44,261,15460,5,2,3:2:0:0:
19,139,15674,2,0,L|63:130,1,35,10|2,0:0|0:0,0:0:0:0:
100,63,15888,1,2,3:2:0:0:
134,67,15995,1,2,0:0:0:0:
169,72,16102,1,10,0:0:0:0:
204,77,16210,1,2,3:2:0:0:
238,82,16317,2,0,L|281:89,2,35,2|2|10,3:2|0:0|0:0,0:0:0:0:
350,29,16745,2,0,P|386:19|424:15,1,70,2|10,3:2|0:0,0:0:0:0:
495,162,17174,5,2,3:2:0:0:
383,108,17388,1,10,0:0:0:0:
400,104,17495,1,2,0:0:0:0:
417,100,17602,1,2,0:0:0:0:
298,194,17817,1,10,0:0:0:0:
315,190,17924,1,2,0:0:0:0:
332,186,18031,2,0,L|377:197,1,35,2|2,3:2|0:0,0:0:0:0:
288,282,18245,2,0,L|333:275,1,35,10|2,0:0|0:0,0:0:0:0:
237,365,18460,1,2,0:0:0:0:
209,343,18567,1,2,3:2:0:0:
193,312,18674,1,10,0:0:0:0:
191,278,18781,1,2,0:0:0:0:
203,245,18888,5,2,3:2:0:0:
145,145,19102,1,10,0:0:0:0:
259,102,19317,2,0,L|254:68,1,35,2|2,0:0|3:2,0:0:0:0:
337,169,19531,2,0,L|342:135,1,35,10|2,0:0|0:0,0:0:0:0:
434,167,19745,1,8,0:3:0:0:
438,201,19852,1,8,0:3:0:0:
442,236,19960,1,8,0:3:0:0:
446,271,20067,1,8,0:3:0:0:
450,306,20174,2,0,P|411:319|381:338,1,70,10|10,0:0|0:0,0:0:0:0:
312,308,20495,1,10,0:0:0:0:
312,308,20602,5,2,3:2:0:0:
175,365,20817,1,10,0:0:0:0:
177,347,20924,1,2,0:0:0:0:
180,330,21031,1,2,0:0:0:0:
77,384,21245,1,10,0:0:0:0:
79,366,21352,1,2,0:0:0:0:
82,349,21460,2,0,L|89:298,1,35,2|2,3:2|0:0,0:0:0:0:
14,219,21674,2,0,L|21:270,1,35,10|2,0:0|0:0,0:0:0:0:
164,267,21888,1,2,0:0:0:0:
184,239,21995,1,2,0:0:0:0:
188,204,22102,1,10,0:0:0:0:
174,173,22210,1,2,3:2:0:0:
146,153,22317,5,2,3:2:0:0:
38,78,22531,1,10,0:0:0:0:
55,75,22638,1,2,0:0:0:0:
72,71,22745,2,0,L|109:65,1,35,2|10,0:0|3:2,0:0:0:0:
162,0,22960,2,0,L|199:6,1,35,10|2,0:0|0:0,0:0:0:0:
262,80,23174,1,2,3:2:0:0:
296,76,23281,1,2,0:0:0:0:
331,73,23388,1,10,0:0:0:0:
366,70,23495,1,2,0:0:0:0:
401,66,23602,1,8,0:3:0:0:
452,77,23710,1,8,0:3:0:0:
487,114,23817,1,8,0:3:0:0:
495,165,23924,1,8,0:3:0:0:
472,211,24031,5,2,3:2:0:0:
350,301,24245,1,10,0:0:0:0:
367,298,24352,1,2,0:0:0:0:
384,296,24460,1,2,0:0:0:0:
276,212,24674,1,10,0:0:0:0:
293,214,24781,1,2,0:0:0:0:
311,216,24888,2,0,L|350:211,1,35,10|2,3:2|0:0,0:0:0:0:
398,130,25102,2,0,L|359:125,1,35,10|2,0:0|0:0,0:0:0:0:
302,53,25317,1,2,0:0:0:0:
277,28,25424,1,2,3:2:0:0:
245,15,25531,1,10,0:0:0:0:
210,16,25638,1,2,0:0:0:0:
179,32,25745,5,2,3:2:0:0:
46,32,25960,1,10,0:0:0:0:
121,155,26174,2,0,L|126:115,1,35,2|2,0:0|3:2,0:0:0:0:
30,200,26388,2,0,L|25:160,1,35,10|2,0:0|0:0,0:0:0:0:
16,287,26602,1,2,3:2:0:0:
50,292,26710,1,10,0:0:0:0:
85,297,26817,1,2,0:0:0:0:
119,303,26924,1,2,3:2:0:0:
154,308,27031,1,10,0:0:0:0:
231,239,27245,1,8,0:3:0:0:
248,236,27352,1,10,0:0:0:0:
265,234,27460,5,2,3:2:0:0:
189,142,27674,1,10,0:0:0:0:
206,143,27781,1,2,0:0:0:0:
223,144,27888,1,2,0:0:0:0:
155,54,28102,1,10,0:0:0:0:
172,53,28210,1,2,0:0:0:0:
189,52,28317,2,0,L|224:42,1,35,2|2,3:2|0:0,0:0:0:0:
329,104,28531,2,0,L|293:89,1,35,10|2,0:0|3:2,0:0:0:0:
353,16,28745,1,2,0:0:0:0:
386,5,28852,1,2,3:2:0:0:
420,9,28960,1,10,0:0:0:0:
450,26,29067,1,2,0:0:0:0:
471,55,29174,5,2,3:2:0:0:
422,160,29388,2,0,L|427:198,1,35,10|2,0:0|0:0,0:0:0:0:
486,297,29602,1,2,0:0:0:0:
451,293,29710,1,2,3:2:0:0:
416,289,29817,1,10,0:0:0:0:
381,285,29924,1,2,0:0:0:0:
346,282,30031,6,0,L|316:288,5,23.3333333333333,8|8|8|8|8|8,0:0|0:3|0:3|0:3|0:3|0:3,0:0:0:0:
273,236,30468,6,0,L|242:230,5,23.3333333333333,8|8|8|8|8|8,0:0|0:3|0:3|0:3|0:3|0:3,0:0:0:0:
196,280,30906,5,12,0:0:0:0:
111,252,31343,5,4,3:2:0:0:
75,169,31888,5,4,3:2:0:0:
146,69,32471,5,4,3:2:0:0:
282,24,33083,5,4,3:2:0:0:
282,24,35183,6,0,L|284:50,4,17.5
43,127,36683,6,0,P|47:111|46:126,2,46.6666666666667,8|8|8,0:3|0:3|0:3,0:0:0:0:
89,189,37283,5,8,0:3:0:0:
33,286,37583,1,8,0:3:0:0:
176,147,37883,5,2,3:2:0:0:
176,147,38181,1,2,0:0:0:0:
212,282,38480,2,0,P|254:290|282:306,1,70,10|2,0:0|0:0,0:0:0:0:
302,328,38927,1,2,0:0:0:0:
364,278,39077,5,2,3:2:0:0:
364,278,39226,1,2,0:0:0:0:
437,317,39375,1,2,0:0:0:0:
437,317,39524,1,2,0:0:0:0:
492,262,39674,1,10,0:0:0:0:
422,152,39972,1,2,0:0:0:0:
512,27,40271,5,2,3:2:0:0:
415,61,40569,1,2,0:0:0:0:
318,95,40868,1,10,0:0:0:0:
509,116,41166,1,2,0:0:0:0:
254,16,41465,5,2,3:2:0:0:
318,95,41763,1,2,0:0:0:0:
381,174,42062,1,10,0:0:0:0:
191,122,42360,1,10,3:2:0:0:
216,148,42509,1,10,3:2:0:0:
201,171,42659,5,2,3:2:0:0:
42,79,42959,1,2,0:0:0:0:
42,79,43259,2,0,P|54:118|58:152,1,70,10|2,0:0|0:0,0:0:0:0:
22,213,43709,1,2,0:0:0:0:
22,213,43859,1,2,3:2:0:0:
97,323,44159,1,2,0:0:0:0:
97,323,44309,1,2,0:0:0:0:
180,218,44609,1,2,0:0:0:0:
180,218,44759,2,0,L|216:212,1,35,2|2,0:0|0:0,0:0:0:0:
419,105,45059,5,2,3:2:0:0:
419,105,45209,1,2,0:0:0:0:
363,177,45359,1,2,0:0:0:0:
363,177,45509,1,2,0:0:0:0:
407,236,45659,1,10,0:0:0:0:
407,236,45809,1,2,0:0:0:0:
355,290,45959,1,2,0:0:0:0:
355,290,46109,2,0,L|357:308,1,17.5,2|0,3:2|3:2,0:0:0:0:
369,384,46259,5,8,3:2:0:0:
355,34,46859,5,8,3:2:0:0:
160,136,47165,2,0,P|156:119|151:102,1,35,2|2,0:0|0:0,0:0:0:0:
64,63,47471,6,0,P|95:93|142:92,1,83.9999974365235,6|2,3:2|0:0,0:0:0:0:
186,37,47921,1,2,0:0:0:0:
186,37,48071,1,10,0:0:0:0:
97,217,48371,2,0,P|92:195|86:175,1,41.9999987182618,2|0,0:0|0:0,0:0:0:0:
37,264,48671,1,2,3:2:0:0:
163,308,48971,1,2,0:0:0:0:
163,308,49121,1,0,0:0:0:0:
163,308,49271,1,10,0:0:0:0:
215,173,49571,1,2,0:0:0:0:
215,173,49721,1,2,0:0:0:0:
215,173,49871,6,0,P|252:196|298:183,1,83.9999974365235,2|2,3:2|0:0,0:0:0:0:
361,219,50321,1,2,0:0:0:0:
361,219,50471,1,10,0:0:0:0:
306,361,50771,2,0,L|299:317,1,41.9999987182618,2|0,0:0|0:0,0:0:0:0:
373,296,51071,1,2,3:2:0:0:
326,155,51371,1,8,0:3:0:0:
326,155,51521,1,8,0:3:0:0:
428,52,51821,1,2,0:0:0:0:
428,52,51971,2,0,L|381:41,1,41.9999987182618,2|2,0:0|0:0,0:0:0:0:
276,49,52271,5,2,3:2:0:0:
276,49,52421,1,2,0:0:0:0:
224,109,52571,1,2,0:0:0:0:
224,109,52721,1,2,0:0:0:0:
153,74,52871,2,0,P|109:84|62:105,1,83.9999974365235,10|2,0:0|0:0,0:0:0:0:
27,231,53471,1,2,3:2:0:0:
134,186,53771,2,0,P|111:183|84:174,1,41.9999987182618,2|0,0:0|0:0,0:0:0:0:
195,238,54071,1,10,0:0:0:0:
58,356,54371,1,2,0:0:0:0:
58,356,54521,1,2,0:0:0:0:
58,356,54671,6,0,P|86:315|122:308,1,83.9999974365235,2|2,3:2|0:0,0:0:0:0:
188,340,55121,1,2,0:0:0:0:
188,340,55271,1,10,0:0:0:0:
271,190,55571,1,2,0:0:0:0:
356,347,55883,6,0,B|415:344|402:379|459:388,3,105,10|10|10|10,0:0|0:0|0:0|0:0,0:0:0:0:
407,110,56792,5,6,3:2:0:0:
496,224,56968,1,10,0:0:0:0:
359,236,57145,2,0,B|325:229|325:229|294:254,1,70,2|8,3:2|0:0,0:0:0:0:
279,248,57411,1,2,0:0:0:0:
279,248,57499,1,2,3:2:0:0:
233,323,57676,1,10,0:0:0:0:
142,223,57853,1,2,3:2:0:0:
111,355,58030,1,10,0:0:0:0:
27,135,58207,5,2,3:2:0:0:
66,265,58383,1,10,0:0:0:0:
207,172,58559,2,0,L|198:137,1,35,2|0,3:2|3:2,0:0:0:0:
272,217,58736,1,10,0:0:0:0:
310,46,58912,5,2,3:2:0:0:
128,103,59089,1,8,0:0:0:0:
325,157,59265,2,0,L|334:122,1,35,2|0,3:2|3:0,0:0:0:0:
388,208,59442,1,10,0:0:0:0:
485,27,59618,5,2,3:2:0:0:
496,194,59795,1,10,0:0:0:0:
388,48,59971,2,0,B|353:52|353:52|322:33,1,70,2|8,3:2|0:0,0:0:0:0:
310,46,60236,1,2,0:0:0:0:
310,46,60324,1,2,3:2:0:0:
137,36,60501,2,0,L|179:42,1,35,10|2,0:0|0:0,0:0:0:0:
233,121,60677,1,0,3:2:0:0:
233,121,60765,1,2,0:0:0:0:
233,121,60854,2,0,L|196:125,1,35,10|2,0:0|0:0,0:0:0:0:
112,135,61030,5,2,3:2:0:0:
86,137,61118,1,2,0:0:0:0:
62,149,61207,1,10,0:0:0:0:
46,169,61295,1,2,0:0:0:0:
38,194,61383,1,8,0:3:0:0:
51,243,61471,1,8,0:3:0:0:
95,268,61559,1,8,0:3:0:0:
144,254,61648,1,8,0:3:0:0:
168,209,61736,6,0,L|164:163,1,35,10|0,0:0|0:0,0:0:0:0:
468,120,62089,6,0,L|472:74,1,35,10|0,0:0|0:0,0:0:0:0:
269,366,62442,6,0,L|265:325,1,35,6|2,3:2|0:0,0:0:0:0:
338,289,62618,2,0,L|342:248,1,35,10|2,0:0|0:0,0:0:0:0:
285,200,62795,1,2,3:2:0:0:
413,331,62971,1,10,0:0:0:0:
470,166,63148,1,2,3:2:0:0:
397,201,63324,1,10,0:0:0:0:
349,115,63501,1,2,3:2:0:0:
486,62,63677,1,10,0:0:0:0:
280,36,63854,6,0,L|286:81,1,35,2|2,3:2|0:0,0:0:0:0:
231,124,64030,2,0,L|225:169,1,35,10|2,0:0|0:0,0:0:0:0:
272,220,64207,1,2,3:2:0:0:
87,206,64383,1,10,0:0:0:0:
155,73,64559,1,2,3:2:0:0:
168,248,64736,1,8,0:0:0:0:
148,276,64824,1,8,0:0:0:0:
119,295,64912,1,8,0:0:0:0:
84,300,65001,1,8,0:0:0:0:
51,291,65089,2,0,L|46:251,1,35,8|8,0:3|0:3,0:0:0:0:
218,367,65265,5,8,0:0:0:0:
306,347,65971,5,8,0:0:0:0:
393,325,66677,5,0,3:2:0:0:
306,347,67030,5,0,3:2:0:0:
218,367,67383,5,0,3:2:0:0:
154,322,67648,1,8,0:0:0:0:
154,322,67736,1,0,3:2:0:0:
199,213,67912,1,8,0:0:0:0:
29,102,68089,6,0,P|49:140|55:156,1,56,4|0,3:2|0:0,0:0:0:0:
17,238,68442,1,8,0:0:0:0:
17,238,68618,2,0,P|32:267|41:289,2,56,8|0|0,0:0|3:2|3:2,0:0:0:0:
146,138,69148,1,8,0:0:0:0:
161,125,69501,6,0,P|203:119|232:108,1,56,0|0,3:2|0:0,0:0:0:0:
272,49,69854,1,8,0:0:0:0:
272,49,70030,1,8,0:0:0:0:
506,135,70383,1,0,3:2:0:0:
506,135,70471,1,0,3:2:0:0:
506,135,70559,1,8,0:0:0:0:
331,377,70912,6,0,P|325:346|317:318,1,56,4|0,3:2|3:2,0:0:0:0:
383,267,71265,1,0,0:0:0:0:
383,267,71442,2,0,P|393:224|401:207,2,56,8|0|0,0:0|0:0|3:2,0:0:0:0:
307,175,71971,1,8,0:0:0:0:
231,319,72324,6,0,P|213:347|189:358,1,56,0|0,3:2|3:2,0:0:0:0:
118,327,72677,1,8,0:0:0:0:
52,382,72854,1,8,0:0:0:0:
0,182,73206,1,0,3:2:0:0:
0,182,73295,1,0,3:2:0:0:
0,182,73383,1,8,0:0:0:0:
380,143,73736,5,2,3:2:0:0:
227,107,74089,1,10,0:0:0:0:
63,63,74442,1,2,3:2:0:0:
63,63,74618,1,2,3:2:0:0:
152,304,74971,1,10,0:0:0:0:
116,219,75148,5,2,0:0:0:0:
227,256,75324,1,2,3:2:0:0:
338,293,75501,1,10,0:0:0:0:
447,140,75854,2,0,P|416:150|387:154,1,56,2|0,3:2|3:2,0:0:0:0:
328,120,76118,1,0,3:2:0:0:
328,120,76206,1,10,0:0:0:0:
254,23,76559,6,0,P|222:47|171:74,3,83.9999974365235,2|0|0|0,3:2|0:0|0:0|0:0,0:0:0:0:
27,116,77971,5,8,0:0:0:0:
28,129,78059,1,8,0:3:0:0:
30,143,78148,1,8,0:3:0:0:
31,157,78236,1,8,0:3:0:0:
60,178,78324,5,0,3:2:0:0:
58,188,78412,1,0,3:2:0:0:
57,199,78501,1,8,0:0:0:0:
56,210,78589,1,8,0:3:0:0:
35,230,78677,5,8,0:3:0:0:
35,238,78765,1,8,0:3:0:0:
37,246,78854,1,0,3:2:0:0:
38,255,78942,1,0,3:2:0:0:
64,272,79030,5,8,0:0:0:0:
64,278,79118,1,8,0:0:0:0:
62,284,79206,1,8,0:0:0:0:
61,292,79295,1,8,0:0:0:0:
48,317,79383,6,0,P|101:328|127:338,1,70,6|0,3:2|3:2,0:0:0:0:
210,189,79736,1,10,0:0:0:0:
210,189,79912,1,8,0:0:0:0:
264,272,80089,2,0,P|215:277|190:289,1,70,2|0,0:0|3:2,0:0:0:0:
248,353,80442,1,10,0:0:0:0:
338,196,80618,6,0,P|349:229|371:269,2,70,2|0|0,0:0|3:2|3:2,0:0:0:0:
436,69,81148,1,10,0:0:0:0:
297,17,81324,2,0,P|292:95|231:137,1,140,10|0,0:0|3:2,0:0:0:0:
178,105,81765,1,0,3:2:0:0:
178,105,81854,1,10,0:0:0:0:
10,271,82206,6,0,P|49:267|84:250,1,70,2|0,3:2|3:2,0:0:0:0:
164,292,82559,1,10,0:0:0:0:
164,292,82736,1,8,0:0:0:0:
103,177,82912,2,0,P|99:138|82:103,1,70,2|0,0:0|3:2,0:0:0:0:
73,101,83177,1,0,3:0:0:0:
73,101,83265,1,10,0:0:0:0:
156,25,83442,1,2,0:0:0:0:
156,25,83530,1,0,3:0:0:0:
156,25,83618,6,0,P|192:47|221:53,1,70,0|0,3:2|3:2,0:0:0:0:
377,7,83971,2,0,P|343:15|314:34,1,70,10|8,0:0|0:0,0:0:0:0:
198,184,84324,2,0,P|239:197|266:212,1,70,2|0,3:2|0:0,0:0:0:0:
325,162,84589,1,0,3:0:0:0:
325,162,84677,2,0,P|366:149|393:134,1,70,10|0,0:0|0:0,0:0:0:0:
458,166,84942,1,8,0:0:0:0:
458,166,85030,5,2,3:2:0:0:
267,349,85383,1,10,0:0:0:0:
316,273,85559,2,0,P|358:270|383:286,1,70,10|0,0:0|0:0,0:0:0:0:
472,363,85912,1,0,3:2:0:0:
472,363,86001,1,0,3:2:0:0:
472,363,86089,1,10,0:0:0:0:
208,361,86442,6,0,P|196:320|176:283,1,70,2|0,3:2|3:2,0:0:0:0:
109,241,86795,1,10,0:0:0:0:
262,152,86971,2,0,P|246:194|237:224,2,70,10|0|0,0:0|0:0|3:2,0:0:0:0:
253,139,87412,1,0,3:2:0:0:
253,139,87501,1,10,0:0:0:0:
331,85,87677,1,8,0:3:0:0:
222,32,87854,6,0,P|189:44|149:53,1,70,2|0,3:2|3:2,0:0:0:0:
0,107,88206,1,10,0:0:0:0:
51,173,88383,2,0,P|85:181|117:192,1,70,10|0,0:0|3:2,0:0:0:0:
189,290,88736,1,2,3:2:0:0:
220,168,88912,1,10,0:0:0:0:
174,278,89089,1,10,0:0:0:0:
303,214,89265,5,2,3:2:0:0:
303,214,89442,1,2,0:0:0:0:
352,323,89618,1,10,0:0:0:0:
352,323,89795,1,10,0:0:0:0:
461,322,89971,1,2,0:0:0:0:
461,322,90148,1,10,3:2:0:0:
503,253,90324,1,10,0:0:0:0:
503,253,90501,1,10,3:2:0:0:
350,81,90677,6,0,P|403:97|444:102,1,70,6|0,3:2|0:0,0:0:0:0:
491,57,91030,1,10,0:0:0:0:
491,57,91206,1,8,0:0:0:0:
481,175,91383,2,0,P|446:182|413:193,1,70,2|0,0:0|3:2,0:0:0:0:
359,275,91736,1,10,0:0:0:0:
271,154,91912,6,0,P|299:183|336:184,2,70,2|0|0,0:0|3:2|3:2,0:0:0:0:
263,58,92442,1,10,0:0:0:0:
180,207,92618,1,10,0:0:0:0:
180,207,92706,1,8,0:3:0:0:
180,207,92795,2,0,P|141:194|110:189,1,70,8|8,0:3|0:0,0:0:0:0:
57,114,93148,2,0,P|96:101|127:96,1,70,10|0,3:2|0:0,0:0:0:0:
123,279,93501,6,0,P|157:303|191:301,1,70,2|0,3:2|3:2,0:0:0:0:
267,253,93854,1,10,0:0:0:0:
267,253,94030,1,8,0:0:0:0:
317,348,94206,2,0,P|362:359|392:372,1,70,2|0,0:0|3:2,0:0:0:0:
512,215,94559,1,10,0:0:0:0:
498,352,94736,1,2,0:0:0:0:
498,352,94912,6,0,P|476:314|456:292,1,70,0|0,3:2|3:2,0:0:0:0:
441,155,95265,1,10,0:0:0:0:
441,155,95442,1,8,0:0:0:0:
326,215,95618,2,0,P|347:248|380:257,1,70,2|0,3:2|0:0,0:0:0:0:
350,99,95971,2,0,P|312:117|246:141,1,105,10|0,0:0|0:3,0:0:0:0:
242,129,96324,6,0,P|249:94|251:56,1,70,6|0,3:2|0:0,0:0:0:0:
70,61,96677,1,10,0:0:0:0:
138,169,96854,2,0,P|140:203|147:238,1,70,10|0,0:0|0:0,0:0:0:0:
47,352,97206,1,0,3:2:0:0:
64,223,97383,1,10,0:0:0:0:
237,357,97736,6,0,P|259:327|297:322,1,70,2|0,3:2|3:2,0:0:0:0:
304,313,98001,1,0,3:2:0:0:
304,313,98089,1,10,0:0:0:0:
403,203,98265,2,0,P|357:193|326:182,1,70,10|0,0:0|0:0,0:0:0:0:
231,102,98618,1,2,3:2:0:0:
231,102,98706,1,0,3:2:0:0:
231,102,98795,1,8,0:0:0:0:
358,63,98971,1,8,0:3:0:0:
358,63,99059,1,8,0:3:0:0:
358,63,99148,6,0,P|392:69|425:80,1,70,2|0,3:2|3:2,0:0:0:0:
479,195,99501,1,10,0:0:0:0:
327,170,99677,2,0,P|292:177|259:188,1,70,10|0,0:0|3:2,0:0:0:0:
164,228,100030,1,2,3:2:0:0:
200,108,100206,1,10,0:0:0:0:
179,240,100383,1,2,0:0:0:0:
50,185,100559,6,0,P|75:156|105:151,1,70,10|0,0:0|3:2,0:0:0:0:
268,58,100890,1,10,0:0:0:0:
200,134,101056,1,2,3:2:0:0:
39,83,101265,5,10,0:0:0:0:
113,240,101442,1,2,3:2:0:0:
148,64,101618,1,2,3:2:0:0:
116,226,101795,1,10,0:0:0:0:
275,131,101971,6,0,P|288:165|302:239,1,93.3333333333333,6|2,3:2|0:0,0:0:0:0:
291,244,102323,1,0,0:0:0:0:
387,153,102500,1,2,3:2:0:0:
474,254,102676,2,0,P|422:269|384:294,2,93.3333333333333,2|2|2,3:2|0:0|0:0,0:0:0:0:
311,363,103382,6,0,P|284:340|218:322,1,93.3333333333333,2|2,3:2|0:0,0:0:0:0:
208,333,103735,1,0,3:2:0:0:
68,357,103912,1,10,0:0:0:0:
87,214,104088,2,0,P|109:252|126:300,2,93.3333333333333,2|2|2,0:0|0:0|0:0,0:0:0:0:
0,78,104794,6,0,B|66:66|54:127|129:132,1,140,2|8,3:2|0:0,0:0:0:0:
184,85,105323,1,0,3:2:0:0:
253,136,105500,1,0,3:2:0:0:
336,56,105676,2,0,L|328:97,2,35,8|0|0,0:0|0:0|0:0,0:0:0:0:
427,121,106029,1,0,3:2:0:0:
427,121,106206,6,0,P|413:158|390:259,1,140,8|0,0:0|3:2,0:0:0:0:
451,303,106735,1,8,0:0:0:0:
389,354,106912,1,2,0:0:0:0:
306,277,107088,1,2,3:2:0:0:
214,366,107265,1,10,0:0:0:0:
241,204,107441,1,2,3:2:0:0:
196,348,107618,6,0,P|121:366|45:368,1,140,2|2,3:2|0:0,0:0:0:0:
23,291,108147,1,2,3:2:0:0:
221,216,108323,2,0,P|185:206|136:208,1,70,2|8,3:2|0:0,0:0:0:0:
105,272,108676,1,2,0:0:0:0:
17,152,108853,1,2,3:2:0:0:
167,101,109029,6,0,B|92:117|106:61|21:61,1,140,10|0,0:0|3:2,0:0:0:0:
0,0,109559,1,8,0:0:0:0:
143,23,109735,1,2,0:0:0:0:
167,110,109912,1,2,3:2:0:0:
266,51,110088,1,10,0:0:0:0:
242,153,110265,1,2,3:2:0:0:
357,70,110441,6,0,P|412:73|464:6,1,140,2|8,3:2|0:0,0:0:0:0:
512,85,110971,1,0,3:2:0:0:
390,215,111147,1,2,3:2:0:0:
316,147,111323,1,10,0:0:0:0:
252,258,111500,1,10,0:0:0:0:
215,137,111676,1,10,0:0:0:0:
156,332,111853,6,0,P|220:342|308:376,1,140,10|0,3:2|0:0,0:0:0:0:
367,331,112382,1,8,3:2:0:0:
252,258,112559,1,0,3:2:0:0:
451,290,112912,2,0,P|456:250|462:217,1,70,8|0,0:0|3:2,0:0:0:0:
428,139,113265,6,0,B|348:137|376:204|295:202,1,140,0|0,3:2|0:0,0:0:0:0:
246,150,113794,1,8,3:2:0:0:
159,37,113971,2,0,P|172:78|176:108,1,70,2|0,3:2|0:0,0:0:0:0:
27,206,114323,1,8,0:0:0:0:
27,206,114500,1,10,3:2:0:0:
31,112,114676,6,0,B|81:98|116:146|95:158|139:195,1,140,2|0,3:2|0:0,0:0:0:0:
218,190,115206,1,8,3:2:0:0:
96,282,115382,1,0,3:2:0:0:
332,370,115735,2,0,P|297:357|260:352,1,70,8|0,0:0|3:2,0:0:0:0:
156,344,116088,6,0,P|215:287|276:258,1,140,0|0,3:2|0:0,0:0:0:0:
350,288,116618,1,8,3:2:0:0:
431,142,116794,2,0,P|368:142|337:231,1,140,2|8,3:2|0:3,0:0:0:0:
416,236,117323,1,10,3:2:0:0:
253,127,117500,6,0,B|169:116|162:210|106:222|72:191,1,210,2|8,3:2|3:2,0:0:0:0:
3,56,118206,2,0,P|53:70|147:73,1,140,0|8,3:2|0:0,0:0:0:0:
198,21,118735,1,0,3:2:0:0:
390,102,118912,6,0,P|343:81|264:111,1,140,2|0,3:2|0:0,0:0:0:0:
282,191,119441,1,8,3:2:0:0:
207,289,119618,2,0,P|200:227|168:153,1,140,0|8,3:2|0:0,0:0:0:0:
366,371,120323,6,0,P|379:319|420:234,1,140,2|0,3:2|0:0,0:0:0:0:
375,169,120853,1,8,3:2:0:0:
284,314,121029,2,0,B|249:299|204:337|225:356|161:378,1,140,2|8,3:2|0:0,0:0:0:0:
100,321,121559,1,0,3:2:0:0:
16,376,121735,5,0,3:2:0:0:
25,178,122088,1,8,0:3:0:0:
25,178,122265,1,8,3:2:0:0:
101,226,122441,1,2,3:2:0:0:
180,146,122618,1,2,0:0:0:0:
88,84,122794,1,10,0:0:0:0:
6,194,122970,1,2,3:2:0:0:
200,232,123147,6,0,P|248:211|336:192,1,140,2|0,3:2|0:0,0:0:0:0:
378,127,123676,1,8,3:2:0:0:
378,127,123850,1,2,3:2:0:0:
307,88,124014,1,2,0:0:0:0:
254,167,124179,1,2,0:0:0:0:
351,247,124344,1,2,3:2:0:0:
453,68,124509,6,0,P|402:81|306:72,1,140,2|8,3:2|0:0,0:0:0:0:
246,27,124998,1,8,0:0:0:0:
142,72,125161,2,0,P|162:115|172:152,1,70,2|2,3:2|0:0,0:0:0:0:
49,187,125478,2,0,P|29:144|19:107,1,70,10|2,0:0|3:2,0:0:0:0:
200,217,125795,2,0,B|106:213|136:283|57:288,1,140,2|0,3:2|0:0,0:0:0:0:
128,346,126247,1,8,0:0:0:0:
277,375,126398,6,0,P|268:328|252:282,1,70,2|2,3:2|0:0,0:0:0:0:
351,279,126692,2,0,P|360:232|376:186,1,70,2|2,0:0|3:2,0:0:0:0:
300,89,126986,2,0,P|290:170|266:226,1,140,2|0,3:2|0:0,0:0:0:0:
181,239,127416,1,8,0:0:0:0:
81,294,127560,5,2,3:2:0:0:
81,294,127698,1,2,0:0:0:0:
134,360,127837,1,10,0:0:0:0:
134,360,127976,1,10,0:0:0:0:
204,342,128115,5,2,3:2:0:0:
84,141,128387,1,8,0:3:0:0:
84,141,128524,1,8,0:3:0:0:
126,79,128660,1,0,0:0:0:0:
126,79,128796,1,8,0:3:0:0:
199,97,128933,1,0,3:2:0:0:
483,36,129205,6,0,P|452:60|416:73,1,70,8|0,0:0|0:0,0:0:0:0:
357,44,129478,1,8,0:3:0:0:
299,88,129615,1,0,3:2:0:0:
442,187,129751,1,8,0:0:0:0:
313,294,130024,5,8,0:3:0:0:
313,294,130160,1,8,0:3:0:0:
242,265,130296,2,0,L|206:272,2,35,8|0|0,0:3|0:0|0:0,0:0:0:0:
157,352,130569,1,0,3:2:0:0:
38,214,130842,6,0,L|76:217,2,35,8|8|8,0:3|0:3|0:3,0:0:0:0:
173,145,131115,2,0,L|135:148,2,35,8|8|8,0:3|0:3|0:3,0:0:0:0:
119,281,131387,1,0,3:2:0:0:
332,30,131796,5,8,0:0:0:0:
378,88,131932,2,0,P|420:98|456:114,1,70,0|0,3:2|0:0,0:0:0:0:
492,206,132205,1,8,0:0:0:0:
451,242,132341,1,0,0:0:0:0:
401,237,132477,6,0,P|350:188|279:157,1,140,0|0,3:2|0:0,0:0:0:0:
216,191,132887,1,8,0:0:0:0:
216,191,133023,1,0,3:2:0:0:
289,354,133296,1,8,0:0:0:0:
102,360,133568,6,0,B|51:333|79:316|62:263|9:264,1,140,0|0,3:2|0:0,0:0:0:0:
11,188,133977,1,8,0:0:0:0:
11,188,134114,2,0,P|62:166|84:149,1,70,0|0,3:2|0:0,0:0:0:0:
110,89,134387,1,8,0:0:0:0:
186,92,134523,1,0,0:0:0:0:
186,92,134659,6,0,P|227:103|265:119,1,70,0|8,3:2|0:0,0:0:0:0:
343,108,134932,1,0,0:0:0:0:
319,180,135068,1,8,0:0:0:0:
388,215,135205,1,0,3:2:0:0:
510,255,135477,1,8,0:0:0:0:
446,352,135750,6,0,P|384:358|354:369,1,70,0|0,3:2|0:0,0:0:0:0:
304,331,136159,1,8,0:0:0:0:
304,331,136296,1,0,3:2:0:0:
121,373,136568,1,8,0:0:0:0:
155,227,136841,6,0,P|165:266|183:298,1,70,0|0,3:2|0:0,0:0:0:0:
220,358,137250,1,8,0:0:0:0:
220,358,137387,1,0,3:2:0:0:
301,242,137659,1,8,0:0:0:0:
84,174,137932,5,0,3:2:0:0:
100,162,138068,1,8,0:0:0:0:
209,180,138341,1,0,3:2:0:0:
224,168,138477,2,0,L|262:177,1,35,8|0,0:0|3:2,0:0:0:0:
411,108,138750,1,8,0:0:0:0:
377,115,138887,1,0,3:2:0:0:
363,138,139023,6,0,B|359:186|385:241|451:254|494:216|475:181,1,175,8|0,0:0|0:0,0:0:0:0:
406,332,140114,6,0,L|365:318,1,41.9999987182618,0|0,3:2|0:0,0:0:0:0:
294,351,140523,1,8,0:0:0:0:
294,351,140659,1,0,3:2:0:0:
235,225,140932,1,8,0:0:0:0:
143,371,141205,5,0,3:2:0:0:
18,204,141614,1,8,0:0:0:0:
34,194,141750,1,0,3:2:0:0:
105,262,142023,1,8,0:0:0:0:
165,179,142296,5,0,3:2:0:0:
477,241,142705,1,8,0:0:0:0:
458,248,142841,1,0,3:2:0:0:
376,197,143114,1,8,0:0:0:0:
311,280,143387,5,0,3:2:0:0:
130,84,143796,1,8,0:0:0:0:
146,74,143932,1,0,3:2:0:0:
196,150,144205,1,8,0:0:0:0:
282,69,144477,5,0,3:2:0:0:
306,323,144887,1,8,0:0:0:0:
287,330,145023,1,0,3:2:0:0:
228,268,145296,1,8,0:0:0:0:
163,379,145568,5,0,3:2:0:0:
146,370,145705,1,8,0:0:0:0:
46,315,145977,1,8,0:0:0:0:
63,306,146114,1,0,3:2:0:0:
116,224,146387,1,8,0:0:0:0:
34,124,146659,5,0,3:2:0:0:
127,76,146932,2,0,L|121:44,1,20.9999993591309,8|0,0:0|3:2,0:0:0:0:
208,44,147205,2,0,L|214:12,1,20.9999993591309,8|0,3:2|0:0,0:0:0:0:
269,98,147477,1,8,0:0:0:0:
256,116,147614,1,0,3:2:0:0:
277,150,147750,5,8,0:0:0:0:
483,24,148023,1,0,0:0:0:0:
483,24,148159,1,0,3:2:0:0:
461,241,148568,2,0,L|456:209,1,20.9999993591309
391,173,148841,5,0,3:2:0:0:
290,313,149114,2,0,L|295:281,1,20.9999993591309,0|8,0:0|0:0,0:0:0:0:
321,220,149387,1,0,3:2:0:0:
180,193,149659,2,0,L|175:161,1,20.9999993591309,8|0,0:0|0:0,0:0:0:0:
107,118,149932,2,0,P|103:139|90:157,1,41.9999987182618,0|0,3:2|0:0,0:0:0:0:
16,157,150341,1,8,0:0:0:0:
16,157,150477,1,0,3:2:0:0:
71,248,150750,2,0,L|68:269,1,20.9999993591309,8|0,0:0|0:0,0:0:0:0:
15,325,151023,5,0,3:2:0:0:
169,263,151296,2,0,L|172:284,1,20.9999993591309,0|8,0:0|0:0,0:0:0:0:
227,340,151568,1,0,3:2:0:0:
338,221,151841,2,0,L|335:242,1,20.9999993591309,8|0,0:0|0:0,0:0:0:0:
314,318,152114,2,0,P|340:341|362:345,1,41.9999987182618,0|0,3:2|0:0,0:0:0:0:
420,310,152523,1,8,0:0:0:0:
420,310,152659,1,0,3:2:0:0:
474,122,152932,2,0,P|450:134|442:140,1,20.9999993591309,8|0,0:0|0:0,0:0:0:0:
379,102,153205,5,0,3:2:0:0:
34,48,157198,6,0,P|42:68|48:89,2,41.9999987182618,2|2|2,0:0|0:0|0:0,0:0:0:0:
107,20,157840,1,2,0:0:0:0:
38,167,158055,2,0,P|60:172|81:180,1,41.9999987182618
153,147,158483,2,0,P|169:162|183:179,1,41.9999987182618
271,227,158912,6,0,P|268:207|262:187,2,41.9999987182618,2|2|2,0:0|0:0|0:0,0:0:0:0:
344,270,159555,1,2,0:0:0:0:
431,153,159769,2,0,P|451:151|471:157,1,41.9999987182618
463,240,160198,2,0,P|442:241|422:235,1,41.9999987182618
348,138,160626,6,0,P|342:111|335:90,2,41.9999987182618,2|2|2,0:0|0:0|0:0,0:0:0:0:
289,195,161269,1,2,0:0:0:0:
266,57,161483,2,0,P|230:54|215:49,1,41.9999987182618
162,106,161912,2,0,P|126:109|111:114,1,41.9999987182618
95,187,162340,6,0,P|134:204|149:211,2,41.9999987182618,2|2|2,0:0|0:0|0:0,0:0:0:0:
37,241,163006,1,2,0:0:0:0:
204,163,163451,1,2,0:0:0:0:
146,350,165006,6,0,P|135:305|119:259,1,83.9999974365235,6|0,3:2|0:0,0:0:0:0:
346,221,165434,2,0,P|357:176|373:130,1,83.9999974365235,10|0,0:0|0:0,0:0:0:0:
132,130,165863,1,2,3:2:0:0:
237,252,166077,1,2,0:0:0:0:
293,69,166291,1,10,0:0:0:0:
200,179,166506,1,2,0:0:0:0:
143,35,166720,6,0,P|96:65|60:55,1,83.9999974365235,2|0,3:2|0:0,0:0:0:0:
41,250,167148,1,8,0:0:0:0:
41,250,167363,1,2,0:0:0:0:
234,146,167577,1,2,3:2:0:0:
168,313,167791,1,2,0:0:0:0:
112,190,168006,1,10,0:0:0:0:
27,353,168220,1,2,0:0:0:0:
27,353,168434,6,0,P|69:362|112:376,1,83.9999974365235,0|0,3:2|0:0,0:0:0:0:
263,279,168863,1,8,0:0:0:0:
263,279,169077,1,2,0:0:0:0:
106,208,169291,1,2,3:2:0:0:
226,366,169506,1,2,0:0:0:0:
320,198,169720,1,10,0:0:0:0:
150,279,169934,1,2,0:0:0:0:
150,279,170041,1,8,0:0:0:0:
150,279,170148,5,0,3:2:0:0:
240,131,170363,1,2,0:0:0:0:
307,347,170577,2,0,P|353:359|391:376,1,83.9999974365235,10|0,0:0|0:0,0:0:0:0:
493,200,171006,2,0,P|440:193|413:216,1,83.9999974365235,2|0,3:2|0:0,0:0:0:0:
400,213,171327,1,8,0:0:0:0:
400,213,171434,1,10,0:0:0:0:
235,76,171648,1,10,0:0:0:0:
235,76,171863,6,0,P|281:89|329:94,1,83.9999974365235,4|0,3:2|0:0,0:0:0:0:
475,0,172291,2,0,P|426:9|409:41,1,83.9999974365235,10|0,0:0|0:0,0:0:0:0:
255,165,172720,1,2,3:2:0:0:
297,12,172934,1,2,0:0:0:0:
113,122,173148,2,0,P|137:126|155:132,2,41.9999987182618,10|2|2,0:0|0:0|0:0,0:0:0:0:
101,247,173577,6,0,P|148:234|191:228,1,83.9999974365235,2|0,3:2|0:0,0:0:0:0:
206,318,174006,2,0,P|159:331|116:337,1,83.9999974365235,8|0,0:0|0:0,0:0:0:0:
27,175,174434,2,0,P|70:162|92:122,1,83.9999974365235,2|0,3:2|0:0,0:0:0:0:
344,25,174863,1,10,0:0:0:0:
160,30,175077,1,2,0:0:0:0:
160,30,175291,6,0,P|170:78|186:121,1,83.9999974365235,0|0,3:2|0:0,0:0:0:0:
281,227,175720,1,10,0:0:0:0:
143,304,175934,1,2,0:0:0:0:
143,304,176148,2,0,P|206:316|244:330,1,83.9999974365235,0|0,3:2|0:0,0:0:0:0:
424,219,176577,1,10,0:0:0:0:
351,344,176791,1,2,0:0:0:0:
351,344,176898,1,8,0:0:0:0:
351,344,177006,5,0,3:2:0:0:
254,183,177220,1,2,3:2:0:0:
435,304,177434,1,8,0:0:0:0:
455,301,177541,1,8,0:0:0:0:
476,298,177648,1,0,3:2:0:0:
448,75,177863,2,0,P|431:121|425:159,1,83.9999974365235,10|0,0:0|0:0,0:0:0:0:
362,201,178184,1,0,3:2:0:0:
362,201,178291,2,0,P|337:237|295:243,1,83.9999974365235,2|0,3:2|3:2,0:0:0:0:
208,211,178613,1,0,3:2:0:0:
208,211,178720,6,0,B|181:242|181:242|130:236,1,83.9999974365235,6|0,3:2|0:0,0:0:0:0:
16,112,179148,1,10,0:0:0:0:
150,160,179363,2,0,L|135:117,1,41.9999987182618,0|0,0:0|0:0,0:0:0:0:
181,46,179577,1,2,3:2:0:0:
300,131,179791,2,0,L|315:89,1,41.9999987182618,0|0,0:0|0:0,0:0:0:0:
378,37,180006,2,0,P|345:12|298:12,1,83.9999974365235,10|0,0:0|0:0,0:0:0:0:
347,201,180434,5,2,3:2:0:0:
331,222,180541,1,2,0:0:0:0:
350,258,180648,1,2,0:0:0:0:
296,351,180863,1,10,0:0:0:0:
218,213,181077,1,2,0:0:0:0:
128,321,181291,1,2,3:2:0:0:
128,321,181398,1,8,0:3:0:0:
128,321,181506,1,0,0:0:0:0:
252,290,181720,1,10,0:0:0:0:
137,139,181934,2,0,L|129:183,1,41.9999987182618,0|8,0:0|0:3,0:0:0:0:
59,220,182148,5,2,3:2:0:0:
26,36,182363,1,2,0:0:0:0:
26,36,182470,1,2,0:0:0:0:
26,36,182577,1,10,0:0:0:0:
222,92,182791,2,0,L|228:43,1,41.9999987182618,2|8,0:0|0:3,0:0:0:0:
385,24,183006,1,2,3:2:0:0:
315,94,183220,1,2,0:0:0:0:
463,80,183434,1,10,0:0:0:0:
467,121,183541,1,2,0:0:0:0:
471,163,183648,1,2,0:0:0:0:
476,205,183756,1,2,0:0:0:0:
480,247,183863,6,0,L|486:292,2,41.9999987182618,2|0|0,3:2|0:0|0:0,0:0:0:0:
341,367,184291,2,0,P|318:331|308:327,1,41.9999987182618,10|0,0:0|0:0,0:0:0:0:
229,336,184506,1,0,0:0:0:0:
142,182,184720,2,0,P|165:223|198:236,1,83.9999974365235,2|0,3:2|0:0,0:0:0:0:
381,92,185148,1,10,0:0:0:0:
342,110,185256,1,8,0:3:0:0:
327,149,185363,1,0,0:0:0:0:
240,54,185577,6,0,P|219:93|171:102,1,83.9999974365235,2|0,3:2|0:0,0:0:0:0:
0,183,186006,2,0,P|42:190|65:224,1,83.9999974365235,10|0,0:0|0:0,0:0:0:0:
81,55,186434,2,0,L|90:103,2,41.9999987182618,2|0|0,3:2|0:0|0:0,0:0:0:0:
176,207,186863,2,0,P|163:257|155:294,1,83.9999974365235,10|0,0:0|0:0,0:0:0:0:
352,358,187291,5,2,3:2:0:0:
246,265,187506,1,2,0:0:0:0:
416,238,187720,1,10,0:0:0:0:
257,349,187934,1,2,0:0:0:0:
356,176,188148,2,0,P|390:151|431:153,1,83.9999974365235,2|0,3:2|0:0,0:0:0:0:
450,146,188470,1,0,0:0:0:0:
450,146,188577,1,10,0:0:0:0:
326,53,188791,1,2,0:0:0:0:
326,53,188898,1,8,0:3:0:0:
326,53,189006,5,2,3:2:0:0:
272,212,189220,2,0,P|257:192|243:178,1,41.9999987182618,10|2,3:2|0:0,0:0:0:0:
25,170,189434,1,10,0:0:0:0:
174,133,189648,1,2,0:0:0:0:
135,289,189863,2,0,P|117:227|106:195,1,83.9999974365235,2|0,3:2|0:0,0:0:0:0:
123,14,190291,2,0,P|110:64|84:83,1,83.9999974365235,10|0,0:0|0:0,0:0:0:0:
41,343,190720,5,2,3:2:0:0:
211,205,190934,1,10,0:0:0:0:
175,358,191148,1,2,3:2:0:0:
175,358,191256,1,8,0:0:0:0:
175,358,191363,1,2,0:0:0:0:
41,168,191577,2,0,P|70:132|121:134,1,83.9999974365235,8|0,0:3|0:0,0:0:0:0:
159,70,191898,1,8,0:3:0:0:
159,70,192006,2,0,L|201:77,2,41.9999987182618,8|8|8,0:3|0:3|0:3,0:0:0:0:
238,149,192327,1,8,0:3:0:0:
238,149,192434,6,0,P|295:142|322:132,1,83.9999974365235,6|0,3:2|0:0,0:0:0:0:
366,68,192756,1,2,0:0:0:0:
366,68,192863,1,8,0:0:0:0:
493,210,193077,1,2,0:0:0:0:
493,210,193291,2,0,P|449:177|387:183,1,83.9999974365235,0|0,3:2|0:0,0:0:0:0:
341,299,193720,1,10,0:0:0:0:
319,334,193827,1,2,0:0:0:0:
282,352,193934,1,2,0:0:0:0:
240,347,194041,1,2,0:0:0:0:
209,320,194148,6,0,P|191:270|172:237,1,83.9999974365235,2|0,3:2|0:0,0:0:0:0:
105,218,194470,1,2,0:0:0:0:
105,218,194577,1,8,0:0:0:0:
76,37,194791,2,0,P|42:64|37:106,1,83.9999974365235,2|0,0:0|3:2,0:0:0:0:
101,141,195113,1,2,0:0:0:0:
101,141,195220,1,2,0:0:0:0:
219,44,195434,1,10,0:0:0:0:
260,49,195541,1,2,0:0:0:0:
302,55,195648,1,2,0:0:0:0:
343,61,195756,1,2,0:0:0:0:
385,67,195863,6,0,P|430:82|453:122,1,83.9999974365235,2|0,3:2|0:0,0:0:0:0:
417,178,196184,1,2,0:0:0:0:
417,178,196291,1,8,0:0:0:0:
409,324,196506,2,0,P|397:282|380:246,1,83.9999974365235,2|0,0:0|3:2,0:0:0:0:
306,222,196827,1,2,0:0:0:0:
306,222,196934,1,2,0:0:0:0:
187,342,197148,1,8,0:0:0:0:
187,342,197363,1,2,0:0:0:0:
29,315,197577,6,0,P|83:311|117:296,1,83.9999974365235,2|0,3:2|0:0,0:0:0:0:
48,170,198006,2,0,P|102:174|136:189,1,83.9999974365235,10|0,0:0|0:0,0:0:0:0:
220,268,198434,1,0,3:2:0:0:
129,93,198648,1,8,0:0:0:0:
310,57,198863,1,10,0:0:0:0:
269,67,198970,1,2,0:0:0:0:
240,97,199077,1,2,0:0:0:0:
231,137,199184,1,2,0:0:0:0:
243,177,199291,6,0,P|298:188|335:201,1,83.9999974365235,6|0,3:2|0:0,0:0:0:0:
359,265,199613,1,2,0:0:0:0:
359,265,199720,1,8,0:0:0:0:
475,107,199934,1,2,0:0:0:0:
475,107,200148,2,0,P|450:167|438:201,1,83.9999974365235,0|0,3:2|0:0,0:0:0:0:
481,352,200577,2,0,P|466:312|449:274,1,83.9999974365235,8|0,0:0|0:0,0:0:0:0:
240,270,201006,5,2,3:2:0:0:
361,350,201220,1,2,0:0:0:0:
190,357,201434,1,10,0:0:0:0:
190,181,201648,1,2,0:0:0:0:
206,175,201756,1,2,0:0:0:0:
302,218,201970,1,2,0:0:0:0:
349,125,202184,1,2,3:2:0:0:
256,78,202398,1,2,0:0:0:0:
240,84,202506,1,2,0:0:0:0:
4,4,202720,6,0,P|31:52|52:96,1,83.9999974365235,2|0,3:2|0:0,0:0:0:0:
31,228,203148,1,8,0:0:0:0:
150,103,203363,1,2,0:0:0:0:
150,103,203577,2,0,P|167:147|200:163,1,83.9999974365235,0|0,3:2|0:0,0:0:0:0:
351,40,204006,1,8,0:0:0:0:
300,156,204220,1,0,0:0:0:0:
503,145,204434,5,10,0:0:0:0:
316,257,204648,1,0,3:2:0:0:
494,336,204863,1,0,3:2:0:0:
411,141,205077,1,0,3:2:0:0:
254,334,205291,5,10,0:0:0:0:
432,240,205506,1,0,3:2:0:0:
219,159,205720,2,0,L|223:182,1,20.9999993591309,8|0,0:0|0:0,0:0:0:0:
394,48,205934,1,0,3:2:0:0:
15,80,207541,5,0,0:0:0:0:
28,92,207648,2,0,L|60:87,1,31.4999990386963
156,46,207863,5,4,3:2:0:0:
39,343,208720,5,4,3:2:0:0:
9,53,209577,5,4,3:2:0:0:
173,328,210434,5,4,3:2:0:0:
384,128,210863,5,8,0:3:0:0:
341,159,211006,5,8,0:3:0:0:
374,202,211148,5,8,0:3:0:0:
361,247,211291,6,0,P|331:253|285:273,1,70,4|0,3:2|0:0,0:0:0:0:
247,323,211613,1,8,0:3:0:0:
247,323,211720,1,8,0:3:0:0:
150,286,211934,1,8,0:3:0:0:
150,286,212041,1,8,0:3:0:0:
150,286,212148,2,0,P|106:293|79:301,1,70,8|0,0:3|0:0,0:0:0:0:
13,269,212470,1,8,0:0:0:0:
13,269,212577,1,8,0:0:0:0:
45,122,212791,1,8,0:0:0:0:
45,122,212898,1,8,0:0:0:0:
45,122,213006,6,0,P|84:118|118:137,1,70,4|0,3:2|0:0,0:0:0:0:
149,199,213327,1,8,0:0:0:0:
149,199,213434,2,0,P|188:203|222:184,1,70,8|0,0:0|0:0,0:0:0:0:
258,125,213756,1,8,0:0:0:0:
258,125,213863,1,0,0:3:0:0:
378,137,214077,5,0,0:0:0:0:
386,124,214184,1,0,0:0:0:0:
407,115,214291,1,0,0:0:0:0:
446,117,214398,1,0,0:0:0:0:
480,148,214506,1,0,0:0:0:0:
478,205,214613,1,0,0:0:0:0:
427,252,214720,5,2,3:2:0:0:
303,226,214934,1,10,0:0:0:0:
238,332,215148,1,2,3:2:0:0:
255,340,215256,1,2,3:2:0:0:
136,338,215470,1,2,0:0:0:0:
119,346,215577,2,0,L|67:338,1,35,2|2,3:2|0:0,0:0:0:0:
28,273,215791,1,10,0:0:0:0:
184,263,216006,1,2,0:0:0:0:
90,157,216220,1,10,0:0:0:0:
268,219,216434,5,2,3:2:0:0:
183,83,216648,1,10,0:0:0:0:
183,83,216756,1,2,0:0:0:0:
183,83,216863,2,0,L|189:122,1,35,2|2,0:0|3:2,0:0:0:0:
332,99,217077,2,0,L|326:60,1,35,10|2,0:0|3:2,0:0:0:0:
427,8,217291,1,2,0:0:0:0:
453,9,217398,1,2,3:2:0:0:
476,20,217506,1,10,0:0:0:0:
492,40,217613,1,10,0:0:0:0:
500,65,217720,1,10,0:0:0:0:
494,118,217827,1,10,0:0:0:0:
488,170,217934,1,10,0:0:0:0:
482,222,218041,1,2,3:2:0:0:
476,274,218148,5,6,3:2:0:0:
399,323,219043,5,4,3:2:0:0:
96,371,221730,5,10,0:0:0:0:
35,293,221944,1,10,0:0:0:0:
39,258,222051,1,2,0:0:0:0:
44,223,222158,1,10,3:2:0:0:
86,193,222265,1,10,0:0:0:0:
137,193,222372,1,10,3:2:0:0:
179,224,222480,1,2,3:2:0:0:
193,274,222587,1,10,0:0:0:0:
270,157,222801,1,10,0:0:0:0:
365,280,223015,1,10,0:0:0:0:
346,103,223212,1,2,3:2:0:0:
496,98,223444,5,6,3:2:0:0:
81,36,224141,5,6,3:2:0:0:
86,179,224998,5,6,3:2:0:0:
256,192,225186,12,4,228013,3:2:0:0:
