osu file format v14

[General]
AudioFilename: audio.mp3
AudioLeadIn: 0
PreviewTime: 65601
Countdown: 0
SampleSet: None
StackLeniency: 0.7
Mode: 3
LetterboxInBreaks: 0
SpecialStyle: 0
WidescreenStoryboard: 1

[Editor]
Bookmarks: 11118,20773,21290,21635,22152,33187,44221,55256,60773,63532,64911,65601,66290,76463,76808,77325,87497,88015,88359,99394,107670,109049,110084,110256
DistanceSpacing: 0.8
BeatDivisor: 3
GridSize: 4
TimelineZoom: 1.7

[Metadata]
Title:City Streets
TitleUnicode:City Streets
Artist:The Frim
ArtistUnicode:The Frim
Creator:Leniane
Version:Normal
Source:
Tags:fools preschool ep Firepower Records drum and bass dnb
BeatmapID:2006254
BeatmapSetID:958159

[Difficulty]
HPDrainRate:7.6
CircleSize:4
OverallDifficulty:7.5
ApproachRate:5
SliderMultiplier:1.4
SliderTickRate:1

[Events]
//Background and Video events
0,0,"BG.jpg",0,0
//Break Periods
//Storyboard Layer 0 (Background)
//Storyboard Layer 1 (Fail)
//Storyboard Layer 2 (Pass)
//Storyboard Layer 3 (Foreground)
//Storyboard Layer 4 (Overlay)
//Storyboard Sound Samples
Sample,56204,0,"Clap.wav",60
Sample,57584,0,"Clap.wav",60
Sample,57928,0,"Clap.wav",60
Sample,58963,0,"Clap.wav",60
Sample,60342,0,"Clap.wav",60
Sample,60428,0,"Clap.wav",60
Sample,60515,0,"Clap.wav",60
Sample,60687,0,"Clap.wav",60
Sample,61980,0,"Clap.wav",60
Sample,62066,0,"Clap.wav",60
Sample,63015,0,"Clap.wav",60
Sample,63101,0,"Clap.wav",60
Sample,63273,0,"Clap.wav",60
Sample,63359,0,"Clap.wav",60
Sample,63446,0,"Clap.wav",60
Sample,63532,0,"Clap.wav",60
Sample,63618,0,"Clap.wav",60
Sample,63790,0,"Clap.wav",60
Sample,63963,0,"Clap.wav",60
Sample,64135,0,"Clap.wav",60
Sample,64308,0,"Clap.wav",60
Sample,64480,0,"Clap.wav",60
Sample,64652,0,"Clap.wav",60
Sample,64825,0,"Clap.wav",60
Sample,64969,0,"Clap.wav",50
Sample,65084,0,"Clap.wav",50
Sample,65198,0,"Clap.wav",45
Sample,65313,0,"Clap.wav",45
Sample,65428,0,"Clap.wav",40
Sample,65543,0,"Clap.wav",40

[TimingPoints]
84,344.827586206897,4,3,1,50,1,0
22152,-100,4,3,1,60,0,0
66290,-100,4,3,1,80,0,1
76463,-100,4,3,1,60,0,0
77325,-100,4,3,1,80,0,1
87497,-100,4,3,1,60,0,0
88359,-100,4,3,1,80,0,1
99394,-100,4,3,1,50,0,0
107670,-100,4,3,1,40,0,0
109049,-100,4,3,1,20,0,0
110084,-100,4,3,1,10,0,0

[HitObjects]
448,192,84,128,0,256:0:0:0:0:
64,192,428,128,0,601:0:0:0:0:
448,192,773,128,0,946:0:0:0:0:
320,192,1118,1,0,0:0:0:0:
192,192,1290,1,0,0:0:0:0:
64,192,1463,128,0,1635:0:0:0:0:
448,192,1808,128,0,1980:0:0:0:0:
320,192,2152,1,0,0:0:0:0:
192,192,2325,1,0,0:0:0:0:
448,192,2497,1,0,0:0:0:0:
64,192,2670,1,0,0:0:0:0:
320,192,2842,128,0,3015:0:0:0:0:
192,192,3187,1,0,0:0:0:0:
320,192,3359,128,0,3532:0:0:0:0:
192,192,3704,1,0,0:0:0:0:
320,192,3877,128,0,4049:0:0:0:0:
192,192,4221,1,0,0:0:0:0:
64,192,4394,128,0,4566:0:0:0:0:
320,192,4739,1,0,0:0:0:0:
192,192,4911,1,0,0:0:0:0:
448,192,5084,1,0,0:0:0:0:
64,192,5256,1,0,0:0:0:0:
192,192,5428,1,0,0:0:0:0:
448,192,5601,128,0,5773:0:0:0:0:
64,192,5946,128,0,6118:0:0:0:0:
448,192,6290,128,0,6463:0:0:0:0:
320,192,6635,1,0,0:0:0:0:
192,192,6808,1,0,0:0:0:0:
64,192,6980,128,0,7152:0:0:0:0:
448,192,7325,128,0,7497:0:0:0:0:
320,192,7670,1,0,0:0:0:0:
192,192,7842,1,0,0:0:0:0:
448,192,8015,1,0,0:0:0:0:
64,192,8187,1,0,0:0:0:0:
320,192,8359,128,0,8532:0:0:0:0:
192,192,8704,1,0,0:0:0:0:
320,192,8877,128,0,9049:0:0:0:0:
192,192,9221,1,0,0:0:0:0:
320,192,9394,128,0,9566:0:0:0:0:
192,192,9739,1,0,0:0:0:0:
64,192,9911,128,0,10084:0:0:0:0:
320,192,10256,1,0,0:0:0:0:
192,192,10428,1,0,0:0:0:0:
448,192,10601,1,0,0:0:0:0:
64,192,10773,1,0,0:0:0:0:
192,192,10946,1,0,0:0:0:0:
448,192,11118,128,0,11290:0:0:0:0:
64,192,11463,128,0,11635:0:0:0:0:
448,192,11808,128,0,11980:0:0:0:0:
320,192,12152,1,0,0:0:0:0:
192,192,12325,1,0,0:0:0:0:
64,192,12497,128,0,12670:0:0:0:0:
448,192,12842,128,0,13015:0:0:0:0:
320,192,13187,1,0,0:0:0:0:
192,192,13359,1,0,0:0:0:0:
448,192,13532,1,0,0:0:0:0:
64,192,13704,1,0,0:0:0:0:
320,192,13877,128,0,14049:0:0:0:0:
192,192,14221,1,0,0:0:0:0:
320,192,14394,128,0,14566:0:0:0:0:
192,192,14739,1,0,0:0:0:0:
320,192,14911,128,0,15084:0:0:0:0:
192,192,15256,1,0,0:0:0:0:
64,192,15428,128,0,15601:0:0:0:0:
320,192,15773,1,0,0:0:0:0:
192,192,15946,1,0,0:0:0:0:
448,192,16118,1,0,0:0:0:0:
64,192,16290,1,0,0:0:0:0:
192,192,16463,1,0,0:0:0:0:
448,192,16635,128,0,16808:0:0:0:0:
64,192,16980,128,0,17152:0:0:0:0:
448,192,17325,128,0,17497:0:0:0:0:
320,192,17670,1,0,0:0:0:0:
192,192,17842,1,0,0:0:0:0:
64,192,18015,128,0,18187:0:0:0:0:
448,192,18359,128,0,18532:0:0:0:0:
320,192,18704,1,0,0:0:0:0:
192,192,18877,1,0,0:0:0:0:
448,192,19049,1,0,0:0:0:0:
64,192,19221,1,0,0:0:0:0:
320,192,19394,128,0,19566:0:0:0:0:
192,192,19739,1,0,0:0:0:0:
320,192,19911,128,0,20084:0:0:0:0:
192,192,20256,1,0,0:0:0:0:
320,192,20428,128,0,20601:0:0:0:0:
64,192,20601,1,0,0:0:0:0:
192,192,20773,1,0,0:0:0:0:
64,192,21118,1,0,0:0:0:0:
320,192,21290,1,0,0:0:0:0:
192,192,21463,1,0,0:0:0:0:
64,192,21635,128,0,21808:0:0:0:0:
192,192,21808,128,0,21980:0:0:0:0:
320,192,21980,128,0,22152:0:0:0:0:
64,192,22152,1,2,0:0:0:0:
448,192,22152,1,0,0:0:0:0:
192,192,22670,1,2,0:0:0:0:
64,192,22842,1,8,0:0:0:0:
320,192,22842,1,0,0:0:0:0:
448,192,23187,1,0,0:0:0:60:S.wav
64,192,23532,1,2,0:0:0:0:
192,192,23532,1,0,0:0:0:0:
320,192,24049,1,2,0:0:0:0:
192,192,24221,1,8,0:0:0:0:
448,192,24221,1,0,0:0:0:0:
64,192,24566,1,0,0:0:0:60:S.wav
448,192,24739,1,0,0:0:0:0:
192,192,24911,1,2,0:0:0:0:
320,192,24911,1,0,0:0:0:0:
448,192,25428,1,2,0:0:0:0:
64,192,25601,1,8,0:0:0:0:
320,192,25601,1,0,0:0:0:0:
448,192,25946,1,0,0:0:0:60:S.wav
320,192,26290,1,2,0:0:0:0:
448,192,26290,1,0,0:0:0:0:
64,192,26808,1,2,0:0:0:0:
192,192,26980,1,8,0:0:0:0:
448,192,26980,1,0,0:0:0:0:
64,192,27325,1,0,0:0:0:60:S.wav
64,192,27670,1,2,0:0:0:0:
448,192,27670,1,0,0:0:0:0:
192,192,28187,1,2,0:0:0:0:
64,192,28359,1,8,0:0:0:0:
320,192,28359,1,0,0:0:0:0:
448,192,28704,1,0,0:0:0:60:S.wav
64,192,29049,1,2,0:0:0:0:
192,192,29049,1,0,0:0:0:0:
320,192,29566,1,2,0:0:0:0:
192,192,29739,1,8,0:0:0:0:
448,192,29739,1,0,0:0:0:0:
64,192,30084,1,0,0:0:0:60:S.wav
448,192,30256,1,0,0:0:0:0:
192,192,30428,1,2,0:0:0:0:
320,192,30428,1,0,0:0:0:0:
448,192,30946,1,2,0:0:0:0:
64,192,31118,1,8,0:0:0:0:
320,192,31118,1,0,0:0:0:0:
192,192,31290,1,0,0:0:0:0:
448,192,31463,1,0,0:0:0:60:S.wav
64,192,31635,1,0,0:0:0:0:
320,192,31808,1,2,0:0:0:0:
448,192,31808,1,0,0:0:0:0:
64,192,32325,1,2,0:0:0:0:
192,192,32497,1,8,0:0:0:0:
448,192,32497,1,0,0:0:0:0:
64,192,32670,128,0,32842:0:0:0:0:
192,192,32842,128,0,33015:0:0:0:60:S.wav
320,192,33015,128,0,33187:0:0:0:0:
64,192,33187,1,2,0:0:0:0:
448,192,33187,1,0,0:0:0:0:
192,192,33704,1,2,0:0:0:0:
64,192,33877,1,8,0:0:0:0:
320,192,33877,1,0,0:0:0:0:
448,192,34221,1,0,0:0:0:60:S.wav
64,192,34566,1,2,0:0:0:0:
192,192,34566,1,0,0:0:0:0:
320,192,35084,1,2,0:0:0:0:
192,192,35256,1,8,0:0:0:0:
448,192,35256,1,0,0:0:0:0:
64,192,35601,1,0,0:0:0:60:S.wav
448,192,35773,1,0,0:0:0:0:
192,192,35946,1,2,0:0:0:0:
320,192,35946,1,0,0:0:0:0:
448,192,36463,1,2,0:0:0:0:
64,192,36635,1,8,0:0:0:0:
320,192,36635,1,0,0:0:0:0:
448,192,36980,1,0,0:0:0:60:S.wav
320,192,37325,1,2,0:0:0:0:
448,192,37325,1,0,0:0:0:0:
64,192,37842,1,2,0:0:0:0:
192,192,38015,1,8,0:0:0:0:
448,192,38015,1,0,0:0:0:0:
64,192,38359,1,0,0:0:0:60:S.wav
64,192,38704,1,2,0:0:0:0:
448,192,38704,1,0,0:0:0:0:
192,192,39221,1,2,0:0:0:0:
64,192,39394,1,8,0:0:0:0:
320,192,39394,1,0,0:0:0:0:
448,192,39739,1,0,0:0:0:60:S.wav
64,192,40084,1,2,0:0:0:0:
192,192,40084,1,0,0:0:0:0:
320,192,40601,1,2,0:0:0:0:
192,192,40773,1,8,0:0:0:0:
448,192,40773,1,0,0:0:0:0:
64,192,41118,1,0,0:0:0:60:S.wav
448,192,41290,1,0,0:0:0:0:
192,192,41463,1,2,0:0:0:0:
320,192,41463,1,0,0:0:0:0:
448,192,41980,1,2,0:0:0:0:
64,192,42152,1,8,0:0:0:0:
320,192,42152,1,0,0:0:0:0:
192,192,42325,1,0,0:0:0:0:
448,192,42497,1,0,0:0:0:60:S.wav
320,192,42842,1,2,0:0:0:0:
448,192,42842,1,0,0:0:0:0:
320,192,43359,1,2,0:0:0:0:
192,192,43532,1,8,0:0:0:0:
448,192,43532,1,0,0:0:0:0:
64,192,43704,128,0,43877:0:0:0:0:
192,192,43877,128,0,44049:0:0:0:60:S.wav
320,192,44049,128,0,44221:0:0:0:0:
64,192,44221,1,2,0:0:0:0:
192,192,44221,1,0,0:0:0:0:
64,192,44911,1,8,0:0:0:0:
448,192,44911,1,0,0:0:0:0:
320,192,45601,1,2,0:0:0:0:
448,192,45601,1,0,0:0:0:0:
64,192,46290,1,8,0:0:0:0:
448,192,46290,1,0,0:0:0:0:
64,192,46980,1,2,0:0:0:0:
320,192,46980,1,0,0:0:0:0:
64,192,47670,1,8,0:0:0:0:
448,192,47670,1,0,0:0:0:0:
192,192,48359,1,2,0:0:0:0:
448,192,48359,1,0,0:0:0:0:
64,192,49049,1,8,0:0:0:0:
448,192,49049,1,0,0:0:0:0:
64,192,49739,1,2,0:0:0:0:
192,192,49739,1,0,0:0:0:0:
192,192,50428,1,8,0:0:0:0:
320,192,50428,1,0,0:0:0:0:
320,192,51118,1,2,0:0:0:0:
448,192,51118,1,0,0:0:0:0:
192,192,51808,1,8,0:0:0:0:
320,192,51808,1,0,0:0:0:0:
64,192,52497,1,2,0:0:0:0:
320,192,52497,1,0,0:0:0:0:
192,192,53187,1,8,0:0:0:0:
320,192,53187,1,0,0:0:0:0:
192,192,53877,1,2,0:0:0:0:
448,192,53877,1,0,0:0:0:0:
192,192,54566,1,8,0:0:0:0:
320,192,54566,1,0,0:0:0:0:
192,192,54911,1,8,0:0:0:0:
320,192,55256,1,2,0:0:0:0:
448,192,55256,1,0,0:0:0:0:
64,192,55601,1,2,0:0:0:0:
192,192,55601,1,0,0:0:0:0:
320,192,55946,1,2,0:0:0:0:
448,192,55946,1,0,0:0:0:0:
64,192,56290,1,2,0:0:0:0:
192,192,56290,1,0,0:0:0:0:
320,192,56463,1,0,0:0:0:60:Clap.wav
64,192,56635,1,2,0:0:0:0:
192,192,56635,1,0,0:0:0:0:
320,192,56980,1,2,0:0:0:0:
448,192,56980,1,0,0:0:0:0:
64,192,57325,1,2,0:0:0:0:
192,192,57325,1,0,0:0:0:0:
320,192,57670,1,2,0:0:0:0:
448,192,57670,1,0,0:0:0:0:
192,192,57842,128,0,58015:0:0:0:60:Clap.wav
320,192,58015,1,2,0:0:0:0:
448,192,58015,1,0,0:0:0:0:
64,192,58359,1,2,0:0:0:0:
192,192,58359,1,0,0:0:0:0:
320,192,58704,1,2,0:0:0:0:
448,192,58704,1,0,0:0:0:0:
64,192,59049,1,2,0:0:0:0:
192,192,59049,1,0,0:0:0:0:
320,192,59221,1,0,0:0:0:60:Clap.wav
64,192,59394,1,2,0:0:0:0:
192,192,59394,1,0,0:0:0:0:
320,192,59739,1,2,0:0:0:0:
448,192,59739,1,0,0:0:0:0:
64,192,60084,1,2,0:0:0:0:
192,192,60084,1,0,0:0:0:0:
320,192,60256,128,0,60428:0:0:0:60:Clap.wav
64,192,60428,128,2,60601:0:0:0:0:
448,192,60601,128,0,60773:0:0:0:60:Clap.wav
64,192,60773,1,2,0:0:0:0:
192,192,60773,1,0,0:0:0:0:
320,192,60946,1,2,0:0:0:0:
192,192,61118,1,2,0:0:0:0:
448,192,61118,1,0,0:0:0:0:
64,192,61290,1,2,0:0:0:0:
320,192,61463,1,2,0:0:0:0:
448,192,61463,1,0,0:0:0:0:
192,192,61635,1,2,0:0:0:0:
64,192,61808,1,2,0:0:0:0:
320,192,61808,1,0,0:0:0:0:
448,192,61980,1,2,0:0:0:0:
64,192,62152,1,2,0:0:0:0:
192,192,62152,1,0,0:0:0:0:
448,192,62325,1,2,0:0:0:0:
64,192,62497,1,2,0:0:0:0:
320,192,62497,1,0,0:0:0:0:
192,192,62670,1,2,0:0:0:0:
320,192,62842,1,2,0:0:0:0:
448,192,62842,1,0,0:0:0:0:
64,192,63015,1,2,0:0:0:0:
192,192,63187,1,2,0:0:0:0:
448,192,63187,1,0,0:0:0:0:
320,192,63359,1,2,0:0:0:0:
448,192,63532,128,2,63704:0:0:0:0:
64,192,63704,128,0,63877:0:0:0:60:Clap.wav
192,192,63877,128,0,64049:0:0:0:60:Clap.wav
320,192,64049,128,0,64221:0:0:0:60:Clap.wav
64,192,64221,128,0,64394:0:0:0:60:Clap.wav
448,192,64394,128,0,64566:0:0:0:60:Clap.wav
320,192,64566,128,0,64739:0:0:0:60:Clap.wav
192,192,64739,128,0,64911:0:0:0:60:Clap.wav
448,192,64911,1,0,0:0:0:50:Clap.wav
64,192,65026,1,0,0:0:0:50:Clap.wav
192,192,65141,1,0,0:0:0:45:Clap.wav
320,192,65256,1,0,0:0:0:45:Clap.wav
448,192,65371,1,0,0:0:0:40:Clap.wav
64,192,65486,1,0,0:0:0:40:Clap.wav
448,192,65601,1,0,0:0:0:0:
320,192,65773,1,0,0:0:0:0:
192,192,65946,1,0,0:0:0:0:
64,192,66118,1,0,0:0:0:0:
320,192,66290,1,4,0:0:0:0:
448,192,66290,1,2,0:0:0:0:
64,192,66635,1,8,0:0:0:0:
320,192,66635,1,0,0:0:0:0:
320,192,67152,1,2,0:0:0:0:
192,192,67325,1,8,0:0:0:0:
448,192,67325,1,0,0:0:0:0:
64,192,67670,1,2,0:0:0:0:
192,192,67670,1,0,0:0:0:0:
192,192,68015,1,8,0:0:0:0:
448,192,68015,1,0,0:0:0:0:
448,192,68532,1,2,0:0:0:0:
64,192,68704,1,8,0:0:0:0:
320,192,68704,1,0,0:0:0:0:
192,192,69049,1,2,0:0:0:0:
320,192,69049,1,0,0:0:0:0:
64,192,69394,1,8,0:0:0:0:
320,192,69394,1,0,0:0:0:0:
64,192,69911,1,2,0:0:0:0:
192,192,70084,1,8,0:0:0:0:
448,192,70084,1,0,0:0:0:0:
320,192,70428,1,2,0:0:0:0:
448,192,70428,1,0,0:0:0:0:
192,192,70773,1,8,0:0:0:0:
448,192,70773,1,0,0:0:0:0:
64,192,71032,1,2,0:0:0:0:
448,192,71290,1,2,0:0:0:0:
64,192,71463,1,8,0:0:0:0:
320,192,71463,1,0,0:0:0:0:
192,192,71635,1,2,0:0:0:0:
320,192,71808,1,2,0:0:0:0:
448,192,71808,1,0,0:0:0:0:
64,192,72152,1,8,0:0:0:0:
320,192,72152,1,0,0:0:0:0:
320,192,72670,1,2,0:0:0:0:
192,192,72842,1,8,0:0:0:0:
448,192,72842,1,0,0:0:0:0:
64,192,73187,1,2,0:0:0:0:
192,192,73187,1,0,0:0:0:0:
192,192,73532,1,8,0:0:0:0:
448,192,73532,1,0,0:0:0:0:
448,192,74049,1,2,0:0:0:0:
64,192,74221,1,8,0:0:0:0:
320,192,74221,1,0,0:0:0:0:
192,192,74566,1,2,0:0:0:0:
320,192,74566,1,0,0:0:0:0:
64,192,74911,1,8,0:0:0:0:
320,192,74911,1,0,0:0:0:0:
64,192,75428,1,2,0:0:0:0:
192,192,75601,1,8,0:0:0:0:
448,192,75601,1,0,0:0:0:0:
320,192,75946,1,2,0:0:0:0:
448,192,75946,1,0,0:0:0:0:
192,192,76290,1,8,0:0:0:0:
448,192,76290,1,0,0:0:0:0:
64,192,76549,1,2,0:0:0:0:
448,192,76808,1,2,0:0:0:0:
64,192,76980,1,8,0:0:0:0:
320,192,76980,1,0,0:0:0:0:
192,192,77152,1,2,0:0:0:0:
320,192,77325,1,2,0:0:0:0:
448,192,77325,1,4,0:0:0:0:
64,192,77670,1,8,0:0:0:0:
448,192,77670,1,0,0:0:0:0:
64,192,78187,1,2,0:0:0:0:
192,192,78359,1,8,0:0:0:0:
320,192,78359,1,0,0:0:0:0:
320,192,78704,1,2,0:0:0:0:
448,192,78704,1,0,0:0:0:0:
192,192,79049,1,8,0:0:0:0:
320,192,79049,1,0,0:0:0:0:
192,192,79566,1,2,0:0:0:0:
64,192,79739,1,8,0:0:0:0:
448,192,79739,1,0,0:0:0:0:
192,192,80084,1,2,0:0:0:0:
448,192,80084,1,0,0:0:0:0:
64,192,80428,1,8,0:0:0:0:
448,192,80428,1,0,0:0:0:0:
64,192,80946,1,2,0:0:0:0:
192,192,81118,1,8,0:0:0:0:
320,192,81118,1,0,0:0:0:0:
320,192,81463,1,2,0:0:0:0:
448,192,81463,1,0,0:0:0:0:
192,192,81808,1,8,0:0:0:0:
320,192,81808,1,0,0:0:0:0:
64,192,82066,1,2,0:0:0:0:
320,192,82325,1,2,0:0:0:0:
64,192,82497,1,8,0:0:0:0:
448,192,82497,1,0,0:0:0:0:
192,192,82670,1,2,0:0:0:0:
320,192,82842,1,2,0:0:0:0:
448,192,82842,1,0,0:0:0:0:
64,192,83187,1,8,0:0:0:0:
448,192,83187,1,0,0:0:0:0:
64,192,83704,1,2,0:0:0:0:
192,192,83877,1,8,0:0:0:0:
320,192,83877,1,0,0:0:0:0:
320,192,84221,1,2,0:0:0:0:
448,192,84221,1,0,0:0:0:0:
192,192,84566,1,8,0:0:0:0:
320,192,84566,1,0,0:0:0:0:
192,192,85084,1,2,0:0:0:0:
64,192,85256,1,8,0:0:0:0:
448,192,85256,1,0,0:0:0:0:
192,192,85601,1,2,0:0:0:0:
448,192,85601,1,0,0:0:0:0:
64,192,85946,1,8,0:0:0:0:
448,192,85946,1,0,0:0:0:0:
64,192,86463,1,2,0:0:0:0:
192,192,86635,1,8,0:0:0:0:
320,192,86635,1,0,0:0:0:0:
320,192,86980,1,2,0:0:0:0:
448,192,86980,1,0,0:0:0:0:
192,192,87325,1,8,0:0:0:0:
320,192,87325,1,0,0:0:0:0:
64,192,87584,1,2,0:0:0:0:
320,192,87842,1,2,0:0:0:0:
64,192,88015,1,8,0:0:0:0:
448,192,88015,1,0,0:0:0:0:
320,192,88359,1,2,0:0:0:0:
448,192,88359,1,0,0:0:0:0:
64,192,88704,1,8,0:0:0:0:
320,192,88704,1,0,0:0:0:0:
320,192,89221,1,2,0:0:0:0:
192,192,89394,1,8,0:0:0:0:
448,192,89394,1,0,0:0:0:0:
64,192,89739,1,2,0:0:0:0:
192,192,89739,1,0,0:0:0:0:
192,192,90084,1,8,0:0:0:0:
448,192,90084,1,0,0:0:0:0:
448,192,90601,1,2,0:0:0:0:
64,192,90773,1,8,0:0:0:0:
320,192,90773,1,0,0:0:0:0:
192,192,91118,1,2,0:0:0:0:
320,192,91118,1,0,0:0:0:0:
64,192,91463,1,8,0:0:0:0:
320,192,91463,1,0,0:0:0:0:
64,192,91980,1,2,0:0:0:0:
192,192,92152,1,8,0:0:0:0:
448,192,92152,1,0,0:0:0:0:
320,192,92497,1,2,0:0:0:0:
448,192,92497,1,0,0:0:0:0:
192,192,92842,1,8,0:0:0:0:
448,192,92842,1,0,0:0:0:0:
64,192,93101,1,2,0:0:0:0:
448,192,93359,1,2,0:0:0:0:
64,192,93532,1,8,0:0:0:0:
320,192,93532,1,0,0:0:0:0:
192,192,93704,1,2,0:0:0:0:
320,192,93877,1,2,0:0:0:0:
448,192,93877,1,0,0:0:0:0:
64,192,94221,1,8,0:0:0:0:
320,192,94221,1,0,0:0:0:0:
320,192,94739,1,2,0:0:0:0:
192,192,94911,1,8,0:0:0:0:
448,192,94911,1,0,0:0:0:0:
64,192,95256,1,2,0:0:0:0:
192,192,95256,1,0,0:0:0:0:
192,192,95601,1,8,0:0:0:0:
448,192,95601,1,0,0:0:0:0:
448,192,96118,1,2,0:0:0:0:
64,192,96290,1,8,0:0:0:0:
320,192,96290,1,0,0:0:0:0:
192,192,96635,1,2,0:0:0:0:
320,192,96635,1,0,0:0:0:0:
64,192,96980,1,8,0:0:0:0:
320,192,96980,1,0,0:0:0:0:
64,192,97497,1,2,0:0:0:0:
192,192,97670,1,8,0:0:0:0:
448,192,97670,1,0,0:0:0:0:
320,192,98015,1,2,0:0:0:0:
448,192,98015,1,0,0:0:0:0:
192,192,98359,1,8,0:0:0:0:
448,192,98359,1,0,0:0:0:0:
64,192,98618,1,2,0:0:0:0:
448,192,98877,1,2,0:0:0:0:
64,192,99049,1,8,0:0:0:0:
320,192,99049,1,0,0:0:0:0:
192,192,99221,1,2,0:0:0:0:
320,192,99394,1,2,0:0:0:0:
448,192,99394,1,0,0:0:0:0:
64,192,99739,1,8,0:0:0:0:
320,192,99739,1,0,0:0:0:0:
320,192,100256,1,2,0:0:0:0:
192,192,100428,1,8,0:0:0:0:
448,192,100428,1,0,0:0:0:0:
64,192,100773,1,2,0:0:0:0:
192,192,101118,1,8,0:0:0:0:
448,192,101118,1,0,0:0:0:0:
448,192,101635,1,2,0:0:0:0:
64,192,101808,1,8,0:0:0:0:
320,192,101808,1,0,0:0:0:0:
192,192,102152,1,2,0:0:0:0:
64,192,102497,1,8,0:0:0:0:
320,192,102497,1,0,0:0:0:0:
64,192,103015,1,2,0:0:0:0:
192,192,103187,1,8,0:0:0:0:
448,192,103187,1,0,0:0:0:0:
320,192,103532,1,2,0:0:0:0:
192,192,103877,1,8,0:0:0:0:
448,192,103877,1,0,0:0:0:0:
64,192,104135,1,2,0:0:0:0:
448,192,104394,1,2,0:0:0:0:
64,192,104566,1,8,0:0:0:0:
320,192,104566,1,0,0:0:0:0:
192,192,104739,1,2,0:0:0:0:
448,192,104911,1,2,0:0:0:0:
64,192,105256,1,8,0:0:0:0:
320,192,105256,1,0,0:0:0:0:
320,192,105773,1,2,0:0:0:0:
192,192,105946,1,8,0:0:0:0:
448,192,105946,1,0,0:0:0:0:
64,192,106290,1,2,0:0:0:0:
192,192,106635,1,8,0:0:0:0:
448,192,106635,1,0,0:0:0:0:
448,192,107152,1,2,0:0:0:0:
64,192,107325,1,8,0:0:0:0:
320,192,107325,1,0,0:0:0:0:
192,192,107670,1,2,0:0:0:0:
64,192,108015,1,8,0:0:0:0:
320,192,108015,1,0,0:0:0:0:
64,192,108532,1,2,0:0:0:0:
192,192,108704,1,8,0:0:0:0:
448,192,108704,1,0,0:0:0:0:
320,192,109049,1,2,0:0:0:0:
192,192,109394,1,8,0:0:0:0:
448,192,109394,1,0,0:0:0:0:
64,192,109652,1,2,0:0:0:0:
448,192,109911,1,2,0:0:0:0:
64,192,110084,1,8,0:0:0:0:
320,192,110084,1,0,0:0:0:0:
192,192,110256,1,2,0:0:0:0:
