osu file format v14

[General]
AudioFilename: audio.mp3
AudioLeadIn: 0
PreviewTime: 94684
Countdown: 0
SampleSet: Soft
StackLeniency: 0.5
Mode: 0
LetterboxInBreaks: 0
WidescreenStoryboard: 0

[Editor]
DistanceSpacing: 0.5
BeatDivisor: 4
GridSize: 4
TimelineZoom: 1.7

[Metadata]
Title:How to Save a Life
TitleUnicode:How to Save a Life
Artist:The Fray
ArtistUnicode:The Fray
Creator:- Heatwave -
Version:Powerless
Source:
Tags:english alternative alt rock indie pop isaac slade joe king
BeatmapID:3742749
BeatmapSetID:1767475

[Difficulty]
HPDrainRate:5.4
CircleSize:4
OverallDifficulty:7.4
ApproachRate:8.4
SliderMultiplier:1.7
SliderTickRate:1

[Events]
//Background and Video events
0,0,"gleb-alexandrov-08-warm-and-cold.jpg",0,0
//Break Periods
//Storyboard Layer 0 (Background)
//Storyboard Layer 1 (Fail)
//Storyboard Layer 2 (Pass)
//Storyboard Layer 3 (Foreground)
//Storyboard Layer 4 (Overlay)
//Storyboard Sound Samples

[TimingPoints]
320,495.867768595041,4,2,1,20,1,0
320,-285.714285714286,4,2,1,20,0,0
2303,488.798370672098,4,2,1,20,1,0
2303,-285.714285714286,4,2,1,20,0,0
6213,495.867768595041,4,2,1,20,1,0
6213,-153.846153846154,4,2,1,25,0,0
7204,480,4,2,1,20,1,8
7204,-222.222222222222,4,2,1,25,0,0
8164,489.396411092985,4,2,1,20,1,0
8164,-181.818181818182,4,2,1,30,0,0
11590,517.241379310345,4,2,1,25,1,8
11590,-181.818181818182,4,2,1,25,0,0
12107,492.408699220353,4,2,1,25,1,0
12107,-181.818181818182,4,2,1,25,0,0
23926,491.803278688525,4,2,1,55,1,8
23926,-83.3333333333333,4,2,1,55,0,0
37696,-71.4285714285714,4,2,1,65,0,0
39663,-57.1428571428571,4,2,1,85,0,1
53434,-83.3333333333333,4,2,1,65,0,1
54417,-117.647058823529,4,2,1,45,0,1
55155,-181.818181818182,4,2,1,35,0,1
55401,-181.818181818182,4,2,1,25,0,0
57368,-285.714285714286,4,2,1,25,0,0
62778,-285.714285714286,4,2,1,55,0,0
63270,-83.3333333333333,4,2,1,45,0,0
79499,-83.3333333333333,4,2,1,55,0,0
90811,-71.4285714285714,4,2,1,65,0,0
94745,-58.8235294117647,4,2,1,85,0,1
96712,-54.054054054054,4,2,1,85,0,1
97696,-58.8235294117647,4,2,1,85,0,1
108516,-83.3333333333333,4,2,1,65,0,1
109499,-117.647058823529,4,2,1,55,0,1
110483,-117.647058823529,4,2,1,45,0,0
110975,-83.3333333333333,4,2,1,45,0,0
134581,-83.3333333333333,4,2,1,55,0,0
145893,-62.5,4,2,1,65,0,0
149827,-50,4,2,1,85,0,1
180319,-83.3333333333333,4,2,1,65,0,1
181303,500,4,2,1,25,1,0
181428,-100,4,2,1,5,0,0
183053,433.212996389892,4,2,1,5,1,8
183270,495.867768595041,4,2,1,5,1,0
184757,465.116279069767,4,2,1,5,1,8
185222,492.813141683778,4,2,1,5,1,0
187193,498.960498960499,4,2,1,45,1,0
187193,-181.818181818182,4,2,1,25,0,0
189313,-181.818181818182,4,2,1,5,0,0
190186,487.80487804878,4,2,1,5,1,8
191161,491.803278688525,4,2,1,5,1,0
193128,483.870967741935,4,2,1,5,1,0
195063,495.867768595041,4,2,1,25,1,0
195063,-181.818181818182,4,2,1,45,0,0
195806,-117.647058823529,4,2,1,45,0,0
196550,-83.3333333333333,4,2,1,65,0,0
197046,491.803278688525,4,2,1,65,1,0
197046,-50,4,2,1,85,0,1
226554,-83.3333333333333,4,2,1,65,0,1
227537,-117.647058823529,4,2,1,55,0,1
228275,-181.818181818182,4,2,1,45,0,1
228521,-181.818181818182,4,2,1,45,0,0
229013,-83.3333333333333,4,2,1,45,0,0
259013,-285.714285714286,4,2,1,45,0,0

[Colours]
Combo1 : 254,158,118
Combo2 : 198,198,227
Combo3 : 170,170,255
Combo4 : 254,196,171

[HitObjects]
109,322,320,6,0,P|105:336|102:351,2,29.75,2|0|0,2:0|2:0|2:0,2:0:0:0:
41,280,1063,2,0,P|33:308|24:337,1,59.4999999999999,2|0,2:0|2:0,2:0:0:0:
386,269,2303,6,0,P|402:275|413:291,2,29.75,2|0|0,2:0|2:0|2:0,2:0:0:0:
292,237,3036,2,0,P|311:214|339:208,1,59.4999999999999,2|0,2:0|2:0,2:0:0:0:
318,314,3769,1,0,2:0:0:0:
281,19,4258,6,0,L|288:59,2,29.75,2|0|0,2:0|2:0|2:0,2:0:0:0:
221,105,4991,2,0,L|208:167,1,59.4999999999999,2|0,2:0|2:0,2:0:0:0:
292,237,5724,2,0,L|286:201,1,29.75,0|0,2:0|2:0,2:0:0:0:
158,349,6213,6,0,P|135:355|85:250,1,165.75,2|0,2:0|2:0,2:0:0:0:
62,183,7204,2,0,P|90:158|127:162,1,76.5000000000001,2|2,2:0|2:0,2:0:0:0:
87,58,7924,1,2,2:0:0:0:
76,51,8164,6,0,P|108:40|168:8,1,93.4999999999999,0|0,2:0|2:0,2:0:0:0:
298,15,8898,2,0,P|321:30|267:106,1,140.25,2|2,2:0|2:0,2:0:0:0:
191,222,9876,1,2,2:0:0:0:
183,233,10121,6,0,P|203:277|213:336,1,93.4999999999999,0|2,2:0|2:0,2:0:0:0:
316,377,10855,2,0,P|326:347|386:333,1,93.4999999999999,2|0,2:0|2:0,2:0:0:0:
461,320,11590,2,0,L|473:371,2,46.75,2|2|0,2:0|2:0|2:0,2:0:0:0:
312,169,12599,5,2,2:0:0:0:
315,159,12845,2,0,L|366:147,1,46.75,2|0,2:0|2:0,2:0:0:0:
417,65,13338,2,0,L|463:75,1,46.75,2|0,2:0|2:0,2:0:0:0:
269,61,13830,2,0,P|229:82|226:127,1,93.4999999999999,2|2,2:0|2:0,2:0:0:0:
176,196,14569,1,0,2:0:0:0:
173,205,14815,2,0,P|180:243|284:262,1,140.25,2|2,2:0|2:0,2:0:0:0:
351,259,15800,2,0,L|343:310,1,46.75,2|0,2:0|2:0,2:0:0:0:
42,234,16784,5,0,2:0:0:0:
34,245,17031,2,0,L|23:135,1,93.4999999999999,2|2,2:0|2:0,2:0:0:0:
94,39,17769,2,0,L|82:98,1,46.75,2|0,2:0|2:0,2:0:0:0:
121,195,18262,2,0,P|145:201|186:146,1,93.4999999999999,2|0,2:0|2:0,2:0:0:0:
232,35,19000,2,0,P|258:45|286:44,1,46.75,2|0,2:0|2:0,2:0:0:0:
346,147,19493,2,0,P|320:137|265:173,1,93.4999999999999,0|0,2:0|2:0,2:0:0:0:
255,372,20477,6,0,L|249:322,1,46.75,2|0,2:0|2:0,2:0:0:0:
373,226,20970,2,0,L|356:329,1,93.4999999999999,2|2,2:0|2:0,2:0:0:0:
230,235,21708,2,0,P|206:234|187:247,1,46.75,2|0,2:0|2:0,2:0:0:0:
137,363,22201,2,0,P|97:340|89:295,1,93.4999999999999,2|0,2:0|2:0,2:0:0:0:
116,171,22939,1,2,2:0:0:0:
122,180,23186,2,0,P|115:202|110:225,1,46.75,2|0,2:0|2:0,2:0:0:0:
38,236,23678,1,2,2:0:0:0:
252,370,23924,5,0,1:2:0:0:
176,85,24417,6,0,P|199:42|248:40,1,102,10|0,2:0|2:0,2:0:0:0:
398,68,24786,1,0,1:2:0:0:
387,74,24909,2,0,L|375:123,1,51,2|0,2:0|2:0,2:0:0:0:
298,139,25155,1,0,1:2:0:0:
469,309,25401,2,0,P|465:248|376:224,1,153,10|0,2:0|2:0,2:0:0:0:
197,311,25893,6,0,P|233:363|295:334,1,102,0|2,1:2|2:0,2:0:0:0:
374,231,26385,2,0,L|353:359,1,102,8|2,2:0|2:0,2:0:0:0:
255,247,26753,1,0,1:2:0:0:
244,240,26876,2,0,P|239:215|233:191,1,51,0|0,2:0|2:0,2:0:0:0:
184,299,27122,1,0,1:2:0:0:
43,211,27368,2,0,P|98:233|96:297,1,102,10|2,2:0|2:0,2:0:0:0:
229,48,27860,6,0,P|167:57|71:123,1,153,0|0,1:2|2:0,2:0:0:0:
177,206,28352,2,0,P|221:238|273:215,1,102,8|2,2:0|2:0,2:0:0:0:
367,224,28721,1,0,1:2:0:0:
360,211,28844,2,0,L|374:149,1,51,0|0,2:0|2:0,2:0:0:0:
317,106,29089,1,2,1:2:0:0:
164,194,29335,2,0,L|184:298,1,102,8|2,2:0|2:0,2:0:0:0:
355,375,29827,6,0,B|399:381|425:343|402:325|427:290|472:296,1,153,0|0,1:2|2:0,2:0:0:0:
378,103,30319,2,0,L|353:217,1,102,10|2,2:0|2:0,2:0:0:0:
262,300,30688,1,0,1:2:0:0:
249,309,30811,2,0,P|226:296|202:288,1,51,0|0,2:0|2:0,2:0:0:0:
173,215,31057,1,2,1:2:0:0:
291,86,31303,2,0,P|259:111|266:174,1,102,8|2,2:0|2:0,2:0:0:0:
0,49,31794,6,0,P|-20:102|69:155,1,153,0|0,1:2|2:0,2:0:0:0:
20,323,32286,2,0,P|45:278|108:279,1,102,10|2,2:0|2:0,2:0:0:0:
177,145,32655,1,0,1:2:0:0:
164,149,32778,2,0,L|150:198,1,51,0|0,2:0|2:0,2:0:0:0:
194,257,33024,1,0,1:2:0:0:
382,242,33270,2,0,L|270:219,1,102,10|2,2:0|2:0,2:0:0:0:
225,34,33762,6,0,P|259:8|315:117,1,204,0|8,1:2|2:0,2:0:0:0:
421,261,34499,1,0,2:0:0:0:
421,261,34622,1,0,1:2:0:0:
421,261,34745,1,2,2:0:0:0:
451,183,34991,1,0,1:2:0:0:
310,367,35237,2,0,P|303:316|292:266,1,102,10|2,2:0|2:0,2:0:0:0:
206,189,35729,1,0,1:2:0:0:
14,371,36221,6,0,P|32:325|90:317,1,102,10|2,2:0|2:0,2:0:0:0:
183,223,36589,1,0,1:2:0:0:
170,231,36712,2,0,P|168:256|161:281,1,51,2|0,2:0|2:0,2:0:0:0:
201,353,36958,1,0,1:2:0:0:
277,189,37204,2,0,P|350:204|402:236,1,102,10|2,2:0|2:0,2:0:0:0:
510,50,37696,6,0,P|439:75|468:177,1,178.5,0|0,1:2|2:0,2:0:0:0:
349,366,38188,2,0,P|378:350|467:321,1,119,8|2,2:0|2:0,2:0:0:0:
341,235,38557,1,0,1:2:0:0:
329,226,38680,2,0,P|302:240|274:249,1,59.5,0|0,2:0|2:0,2:0:0:0:
249,327,38926,1,2,1:2:0:0:
258,132,39171,1,10,2:0:0:0:
67,328,39417,5,8,2:0:0:0:
56,328,39540,1,8,2:0:0:0:
47,324,39663,2,0,P|9:264|116:186,1,223.125,6|0,1:2|2:0,2:0:0:0:
77,48,40155,1,10,2:0:0:0:
223,262,40401,1,2,2:0:0:0:
231,266,40524,1,0,1:2:0:0:
242,266,40647,2,0,P|298:245|328:243,1,74.375,0|0,2:0|2:0,2:0:0:0:
351,172,40893,1,2,1:2:0:0:
185,19,41139,2,0,P|216:22|248:144,1,148.75,8|2,2:0|2:0,2:0:0:0:
293,384,41630,6,0,P|404:311|509:266,1,223.125,0|0,1:2|2:0,2:0:0:0:
464,160,42122,1,10,2:0:0:0:
175,146,42368,2,0,P|209:174|192:220,1,74.375,2|0,2:0|1:2,2:0:0:0:
246,313,42614,2,0,P|181:283|125:326,1,148.75,0|0,2:0|1:2,2:0:0:0:
36,365,42983,1,0,2:0:0:0:
25,364,43106,2,0,L|7:273,1,74.375,10|0,2:0|2:0,2:0:0:0:
51,229,43352,1,2,2:0:0:0:
322,345,43598,6,0,L|351:167,1,148.75,0|0,1:2|2:0,2:0:0:0:
88,34,44089,1,10,2:0:0:0:
152,219,44335,1,2,2:0:0:0:
138,217,44458,1,0,1:2:0:0:
129,209,44581,2,0,P|139:123|214:122,1,148.75,0|0,2:0|1:2,2:0:0:0:
236,296,45073,1,10,2:0:0:0:
462,257,45319,2,0,P|469:220|481:185,1,74.375,2|0,2:0|2:0,2:0:0:0:
288,17,45565,6,0,P|302:89|323:161,1,148.75,0|2,1:2|2:0,2:0:0:0:
478,93,46057,1,10,2:0:0:0:
331,286,46303,1,2,2:0:0:0:
340,297,46426,1,0,1:2:0:0:
352,299,46548,2,0,P|377:305|422:331,1,74.375,2|0,2:0|2:0,2:0:0:0:
481,185,46794,2,0,P|456:179|411:153,1,74.375,2|0,1:2|2:0,2:0:0:0:
240,324,47040,1,8,2:0:0:0:
229,70,47286,1,2,2:0:0:0:
11,315,47532,6,0,B|66:344|115:290|96:256|144:211|201:240,1,223.125,6|0,1:2|2:0,2:0:0:0:
9,157,48024,2,0,P|4:97|86:66,1,148.75,10|2,2:0|2:0,2:0:0:0:
185,7,48393,1,0,1:2:0:0:
192,17,48516,2,0,P|186:53|172:88,1,74.375,0|0,2:0|2:0,2:0:0:0:
237,146,48762,1,2,1:2:0:0:
408,39,49007,2,0,P|477:52|495:121,1,148.75,8|2,2:0|2:0,2:0:0:0:
139,159,49499,6,0,P|151:269|184:376,1,223.125,0|0,1:2|2:0,2:0:0:0:
200,377,49991,1,10,2:0:0:0:
63,252,50237,1,2,2:0:0:0:
54,250,50360,1,0,1:2:0:0:
44,249,50483,2,0,P|15:271|7:307,1,74.375,0|0,2:0|2:0,2:0:0:0:
66,364,50729,1,2,1:2:0:0:
242,266,50975,2,0,L|396:304,1,148.75,8|2,2:0|2:0,2:0:0:0:
229,116,51466,6,0,P|243:39|387:47,1,223.125,0|0,1:2|2:0,2:0:0:0:
430,151,51958,1,10,2:0:0:0:
236,235,52204,1,2,2:0:0:0:
222,238,52327,1,0,1:2:0:0:
211,236,52450,2,0,P|178:218|164:185,1,74.375,0|0,2:0|2:0,2:0:0:0:
92,231,52696,1,2,1:2:0:0:
355,103,52942,2,0,L|330:275,1,148.75,8|0,2:0|2:0,2:0:0:0:
21,377,53434,6,0,P|3:310|134:259,1,204,2|0,2:0|2:0,2:0:0:0:
20,45,54171,1,2,2:0:0:0:
10,54,54417,2,0,P|17:120|93:119,1,144.500000000001,2|0,2:0|2:0,2:0:0:0:
190,92,55155,2,0,L|179:137,1,46.75,2|0,2:0|2:0,2:0:0:0:
232,368,57368,6,0,L|220:304,1,59.4999999999999,2|0,2:0|2:0,2:0:0:0:
289,290,58106,2,0,L|301:226,1,59.4999999999999,2|0,2:0|2:0,2:0:0:0:
239,190,58844,1,0,2:0:0:0:
67,72,59335,6,0,P|67:102|85:124,1,59.4999999999999,2|0,2:0|2:0,2:0:0:0:
100,198,60073,2,0,P|127:206|154:195,1,59.4999999999999,2|0,2:0|2:0,2:0:0:0:
184,124,60811,1,0,2:0:0:0:
139,318,61303,6,0,L|126:377,1,59.4999999999999,2|0,2:0|2:0,2:0:0:0:
207,362,62040,1,0,2:0:0:0:
207,362,62286,1,2,2:0:0:0:
413,6,62778,5,8,2:0:0:0:
212,95,63024,1,8,2:0:0:0:
205,104,63147,1,8,2:0:0:0:
200,115,63270,2,0,P|272:129|294:199,1,153,2|0,1:2|2:0,2:0:0:0:
282,371,63762,2,0,P|329:357|349:312,1,102,8|2,2:0|2:0,2:0:0:0:
215,239,64130,1,0,1:2:0:0:
205,251,64253,2,0,L|216:300,1,51,0|0,2:0|2:0,2:0:0:0:
137,296,64499,1,0,1:2:0:0:
83,165,64745,2,0,P|17:182|25:245,1,102,10|2,2:0|2:0,2:0:0:0:
161,33,65237,6,0,P|236:12|326:1,1,153,0|0,1:2|2:0,2:0:0:0:
388,29,65729,1,8,2:0:0:0:
331,182,65975,2,0,P|374:240|444:225,1,153,2|0,2:0|2:0,2:0:0:0:
443,145,66466,1,0,2:0:0:0:
204,108,66712,2,0,P|219:156|225:207,1,102,8|2,2:0|2:0,2:0:0:0:
441,327,67204,6,0,B|398:313|368:339|382:356|349:387|306:374,1,153,2|0,1:2|2:0,2:0:0:0:
119,367,67696,2,0,P|165:346|215:337,1,102,8|2,2:0|2:0,2:0:0:0:
306,232,68065,1,0,1:2:0:0:
297,236,68188,2,0,P|287:259|281:284,1,51,0|0,2:0|2:0,2:0:0:0:
215,230,68434,1,2,1:2:0:0:
396,160,68680,2,0,P|450:193|441:256,1,102,8|2,2:0|2:0,2:0:0:0:
207,48,69171,6,0,P|260:36|364:7,1,153,0|0,1:2|2:0,2:0:0:0:
324,113,69663,1,8,2:0:0:0:
117,50,69909,2,0,P|66:81|78:148,1,102,2|2,2:0|2:0,2:0:0:0:
113,178,70401,1,2,1:2:0:0:
4,11,70647,1,8,2:0:0:0:
299,187,71139,6,0,P|278:287|267:355,1,153,0|0,1:2|2:0,2:0:0:0:
125,384,71630,2,0,P|137:336|185:324,1,102,10|2,2:0|2:0,2:0:0:0:
0,258,71999,1,0,1:2:0:0:
7,262,72122,2,0,L|73:243,1,51,2|0,2:0|2:0,2:0:0:0:
51,326,72368,1,2,1:2:0:0:
172,116,72614,2,0,L|145:225,1,102,8|2,2:0|2:0,2:0:0:0:
342,384,73106,6,0,L|309:180,1,204,0|10,1:2|2:0,2:0:0:0:
476,114,73844,1,2,2:0:0:0:
416,171,74089,2,0,P|428:212|499:217,1,102,0|0,2:0|1:2,2:0:0:0:
409,18,74581,1,8,2:0:0:0:
141,80,75073,6,0,P|99:122|86:213,1,153,2|0,1:2|2:0,2:0:0:0:
40,371,75565,2,0,P|64:335|124:345,1,102,8|2,2:0|2:0,2:0:0:0:
239,283,75934,1,0,1:2:0:0:
236,273,76057,2,0,L|165:258,1,51,0|0,2:0|2:0,2:0:0:0:
223,194,76303,1,2,1:2:0:0:
314,381,76548,2,0,L|342:262,1,102,8|2,2:0|2:0,2:0:0:0:
209,69,77040,6,0,P|282:69|297:189,1,204,2|8,1:2|2:0,2:0:0:0:
223,194,77778,1,0,2:0:0:0:
485,149,78024,2,0,P|498:74|524:2,1,153,0|0,2:0|2:0,2:0:0:0:
408,35,78516,1,8,2:0:0:0:
332,263,78762,5,8,2:0:0:0:
326,275,78885,1,8,2:0:0:0:
314,281,79007,2,0,P|313:242|204:202,1,153,0|0,1:2|2:0,2:0:0:0:
12,91,79499,6,0,L|36:190,1,102,10|2,2:0|2:0,2:0:0:0:
134,293,79868,1,0,1:2:0:0:
124,295,79991,2,0,L|110:363,1,51,0|0,2:0|2:0,2:0:0:0:
47,304,80237,1,0,1:2:0:0:
221,193,80483,2,0,P|172:191|147:149,1,102,10|2,2:0|2:0,2:0:0:0:
332,0,80975,6,0,L|360:188,1,153,0|0,1:2|2:0,2:0:0:0:
306,213,81466,1,8,2:0:0:0:
474,383,81712,2,0,L|496:280,1,102,2|0,2:0|2:0,2:0:0:0:
435,234,82204,1,2,2:0:0:0:
254,325,82450,2,0,P|207:307|193:260,1,102,8|2,2:0|2:0,2:0:0:0:
100,147,82942,6,0,P|200:163|296:196,1,204,0|8,1:2|2:0,2:0:0:0:
145,12,83680,1,0,2:0:0:0:
151,18,83803,1,0,1:2:0:0:
155,24,83926,2,0,P|164:48|171:73,1,51,2|0,2:0|2:0,2:0:0:0:
238,25,84171,1,0,1:2:0:0:
30,80,84417,2,0,P|19:130|5:179,1,102,10|2,2:0|2:0,2:0:0:0:
157,384,84909,6,0,P|168:324|256:320,1,153,0|0,1:2|2:0,2:0:0:0:
450,251,85401,2,0,P|418:208|363:220,1,102,10|2,2:0|2:0,2:0:0:0:
284,113,85770,1,0,2:0:0:0:
279,120,85893,2,0,L|295:191,1,51,0|0,2:0|2:0,2:0:0:0:
234,229,86139,1,2,1:2:0:0:
402,75,86385,2,0,L|521:105,1,102,10|0,2:0|2:0,2:0:0:0:
176,0,86876,6,0,B|147:32|169:75|188:63|209:103|185:140,1,153,2|0,1:2|2:0,2:0:0:0:
0,315,87368,2,0,P|17:262|94:265,1,102,10|2,2:0|2:0,2:0:0:0:
83,110,87737,1,0,1:2:0:0:
90,119,87860,2,0,L|74:185,1,51,0|0,2:0|2:0,2:0:0:0:
136,220,88106,1,0,1:2:0:0:
54,382,88352,2,0,L|184:355,1,102,10|2,2:0|2:0,2:0:0:0:
373,357,88844,6,0,P|376:295|287:268,1,153,0|0,1:2|2:0,2:0:0:0:
185,140,89335,2,0,P|223:109|270:122,1,102,8|0,2:0|2:0,2:0:0:0:
423,153,89704,1,0,2:0:0:0:
428,163,89827,2,0,B|416:185|410:210,1,51,0|0,2:0|2:0,2:0:0:0:
347,163,90073,1,0,1:2:0:0:
373,357,90319,1,10,2:0:0:0:
375,368,90565,1,2,2:0:0:0:
148,245,90811,6,0,L|185:33,1,178.5,2|0,1:2|2:0,2:0:0:0:
99,2,91303,1,10,2:0:0:0:
2,157,91548,1,2,2:0:0:0:
1,165,91671,1,0,1:2:0:0:
0,173,91794,2,0,P|13:199|49:210,1,59.5,0|0,2:0|2:0,2:0:0:0:
62,369,92040,2,0,P|75:342|101:331,1,59.5,0|0,1:2|2:0,2:0:0:0:
184,95,92286,2,0,P|194:151|249:165,1,119,10|2,2:0|2:0,2:0:0:0:
512,0,92778,6,0,P|460:73|431:157,1,178.5,0|0,1:2|2:0,2:0:0:0:
468,383,93270,2,0,P|510:344|498:288,1,119,8|0,2:0|2:0,2:0:0:0:
319,240,93639,5,0,2:0:0:0:
330,237,93762,1,0,1:2:0:0:
328,263,93885,1,8,2:0:0:0:
304,273,94007,1,2,1:2:0:0:
328,65,94253,1,8,2:0:0:0:
42,129,94499,5,8,2:0:0:0:
28,134,94622,1,8,2:0:0:0:
19,146,94745,2,0,B|84:138|105:196|81:213|106:275|165:276,1,216.75,6|0,1:2|2:0,2:0:0:0:
404,351,95237,2,0,B|336:364|336:364|332:367|332:367|263:381,1,144.5,10|2,2:0|2:0,2:0:0:0:
236,214,95606,1,0,1:2:0:0:
242,206,95729,2,0,L|318:221,1,72.25,0|0,2:0|2:0,2:0:0:0:
264,293,95975,1,2,1:2:0:0:
115,90,96221,2,0,P|127:22|194:6,1,144.5,8|2,2:0|2:0,2:0:0:0:
511,93,96712,6,0,B|456:14|456:14|413:173,1,235.875,0|0,1:2|2:0,2:0:0:0:
466,254,97204,1,10,2:0:0:0:
340,44,97450,1,2,2:0:0:0:
334,37,97573,1,0,1:2:0:0:
328,30,97696,2,0,L|257:44,1,72.25,0|0,2:0|2:0,2:0:0:0:
212,111,97942,1,0,1:2:0:0:
295,345,98188,2,0,P|299:273|362:258,1,144.5,10|2,2:0|2:0,2:0:0:0:
49,223,98680,6,0,B|83:262|67:325|67:325|88:264|147:257,1,216.75,0|0,1:2|2:0,2:0:0:0:
212,111,99171,2,0,P|144:108|120:171,1,144.5,10|2,2:0|2:0,2:0:0:0:
169,354,99540,1,0,1:2:0:0:
160,348,99663,2,0,L|230:333,1,72.25,0|0,2:0|2:0,2:0:0:0:
285,384,99909,1,0,1:2:0:0:
412,209,100155,1,10,2:0:0:0:
302,135,100401,2,0,P|316:167|324:203,1,72.25,2|0,2:0|2:0,2:0:0:0:
462,373,100647,6,0,P|480:303|511:237,1,144.5,0|2,1:2|2:0,2:0:0:0:
361,74,101139,1,10,2:0:0:0:
243,258,101385,1,2,2:0:0:0:
233,265,101507,1,0,1:2:0:0:
222,268,101630,2,0,P|179:252|168:216,1,72.25,2|0,2:0|2:0,2:0:0:0:
87,232,101876,1,2,1:2:0:0:
110,384,102122,2,0,P|102:339|127:311,1,72.25,8|0,2:0|2:0,2:0:0:0:
236,179,102368,1,2,2:0:0:0:
0,118,102614,6,0,B|58:152|108:113|80:81|131:42|190:70,1,216.75,6|0,1:2|2:0,2:0:0:0:
64,0,103106,1,10,2:0:0:0:
150,194,103352,1,2,2:0:0:0:
154,201,103475,1,0,1:2:0:0:
157,207,103598,2,0,L|135:290,1,72.25,0|0,2:0|2:0,2:0:0:0:
72,217,103844,1,2,1:2:0:0:
303,384,104089,2,0,B|295:320|295:320|296:314|296:314|287:240,1,144.5,8|2,2:0|2:0,2:0:0:0:
512,95,104581,6,0,B|492:77|492:40|492:40|432:36|391:94|419:152,1,216.75,0|0,1:2|2:0,2:0:0:0:
373,0,105073,1,10,2:0:0:0:
287,240,105319,1,2,2:0:0:0:
287,232,105442,1,0,1:2:0:0:
290,224,105565,2,0,P|318:207|360:200,1,72.25,0|0,2:0|2:0,2:0:0:0:
296,126,105811,1,2,1:2:0:0:
400,353,106057,2,0,P|467:356|495:294,1,144.5,8|2,2:0|2:0,2:0:0:0:
207,376,106548,6,0,B|191:277|191:277|192:268|192:268|175:161,1,216.75,0|0,1:2|2:0,2:0:0:0:
9,15,107040,2,0,P|52:5|83:95,1,144.5,10|2,2:0|2:0,2:0:0:0:
23,235,107409,1,0,1:2:0:0:
20,226,107532,2,0,L|106:246,1,72.25,0|0,2:0|2:0,2:0:0:0:
91,323,107778,1,2,1:2:0:0:
317,138,108024,2,0,L|162:163,1,144.5,8|0,2:0|2:0,2:0:0:0:
394,383,108516,6,0,P|417:291|512:283,1,204,2|0,2:0|2:0,2:0:0:0:
265,226,109253,1,2,2:0:0:0:
255,229,109499,2,0,P|232:292|288:329,1,144.500000000001,2|0,2:0|2:0,2:0:0:0:
296,338,110237,1,2,2:0:0:0:
361,130,110483,5,4,1:2:0:0:
361,130,110975,2,0,L|255:111,1,102,8|0,2:0|2:0,2:0:0:0:
163,9,111344,1,0,1:2:0:0:
157,15,111466,2,0,L|171:87,1,51,0|0,2:0|2:0,2:0:0:0:
241,28,111712,1,0,1:2:0:0:
165,196,111958,2,0,P|116:189|97:144,1,102,8|0,2:0|2:0,2:0:0:0:
284,383,112450,6,0,P|294:333|343:232,1,153,0|0,1:2|2:0,2:0:0:0:
161,277,112942,2,0,P|160:325|204:344,1,102,8|0,2:0|2:0,2:0:0:0:
256,218,113311,1,0,1:2:0:0:
259,204,113434,2,0,P|251:164|233:125,1,51,0|0,2:0|2:0,2:0:0:0:
336,159,113680,1,0,1:2:0:0:
344,321,113926,2,0,P|389:283|430:314,1,102,8|0,2:0|2:0,2:0:0:0:
118,173,114417,6,0,L|144:22,1,153,0|0,1:2|2:0,2:0:0:0:
0,162,114909,2,0,P|2:210|46:232,1,102,8|0,2:0|2:0,2:0:0:0:
188,218,115278,1,0,1:2:0:0:
182,226,115401,2,0,L|194:286,1,51,0|0,2:0|2:0,2:0:0:0:
111,272,115647,1,0,1:2:0:0:
152,374,115893,1,8,2:0:0:0:
278,77,116385,6,0,P|327:75|339:171,1,153,0|0,1:2|2:0,2:0:0:0:
291,330,116876,2,0,P|285:263|271:218,1,102,8|0,2:0|2:0,2:0:0:0:
413,221,117245,1,0,1:2:0:0:
416,231,117368,2,0,P|402:252|393:276,1,51,0|0,2:0|2:0,2:0:0:0:
447,333,117614,1,0,1:2:0:0:
182,213,117860,1,8,2:0:0:0:
177,201,117983,1,8,2:0:0:0:
178,189,118106,1,2,2:0:0:0:
135,384,118352,6,0,P|74:339|4:310,1,153,2|0,1:2|2:0,2:0:0:0:
34,165,118844,2,0,P|73:177|71:248,1,102,10|2,2:0|2:0,2:0:0:0:
224,72,119212,1,0,1:2:0:0:
216,78,119335,2,0,L|228:160,1,51,0|0,2:0|2:0,2:0:0:0:
144,117,119581,1,0,1:2:0:0:
238,246,119827,2,0,P|241:305|173:314,1,102,10|2,2:0|2:0,2:0:0:0:
512,178,120319,6,0,L|356:137,1,153,0|0,1:2|2:0,2:0:0:0:
302,187,120811,1,8,2:0:0:0:
482,289,121057,2,0,P|473:339|362:352,1,153,2|0,2:0|2:0,2:0:0:0:
365,294,121548,1,0,1:2:0:0:
192,384,121794,2,0,L|212:268,1,102,8|2,2:0|2:0,2:0:0:0:
263,26,122286,6,0,L|288:184,1,153,2|0,1:2|2:0,2:0:0:0:
101,225,122778,2,0,P|112:158|167:151,1,102,8|2,2:0|2:0,2:0:0:0:
106,14,123147,1,0,1:2:0:0:
110,21,123270,2,0,P|106:46|98:70,1,51,0|0,2:0|2:0,2:0:0:0:
183,73,123516,1,0,1:2:0:0:
24,126,123762,1,8,2:0:0:0:
213,383,124253,6,0,P|202:330|200:277,1,102,2|2,1:2|2:0,2:0:0:0:
395,248,124745,2,0,P|400:320|318:336,1,153,8|0,2:0|2:0,2:0:0:0:
239,208,125237,2,0,P|286:211|300:262,1,102,0|2,2:0|2:0,2:0:0:0:
366,166,125729,1,8,2:0:0:0:
108,255,126221,6,0,P|40:241|45:165,1,153,0|0,1:2|2:0,2:0:0:0:
31,21,126712,2,0,L|131:39,1,102,10|2,2:0|2:0,2:0:0:0:
191,173,127081,1,0,1:2:0:0:
198,164,127204,2,0,L|189:113,1,51,2|0,2:0|2:0,2:0:0:0:
272,148,127450,1,2,1:2:0:0:
105,117,127696,1,8,2:0:0:0:
129,378,128188,6,0,L|285:352,1,153,2|0,1:2|2:0,2:0:0:0:
325,283,128680,1,8,2:0:0:0:
198,164,128926,2,0,P|132:192|143:262,1,153,0|0,2:0|2:0,2:0:0:0:
75,307,129417,1,0,1:2:0:0:
290,195,129663,2,0,L|268:87,1,102,8|2,2:0|2:0,2:0:0:0:
399,376,130155,6,0,P|471:375|502:310,1,153,2|0,1:2|2:0,2:0:0:0:
378,146,130647,2,0,P|425:158|439:205,1,102,10|2,2:0|2:0,2:0:0:0:
328,300,131016,1,0,1:2:0:0:
324,291,131139,2,0,L|373:303,1,51,2|0,2:0|2:0,2:0:0:0:
364,223,131385,1,0,1:2:0:0:
287,370,131630,2,0,L|186:384,1,102,10|2,2:0|2:0,2:0:0:0:
108,196,132122,6,0,P|47:218|58:302,1,153,2|0,1:2|2:0,2:0:0:0:
186,384,132614,2,0,P|177:336|130:327,1,102,8|0,2:0|2:0,2:0:0:0:
0,364,133106,1,0,2:0:0:0:
359,287,133598,1,8,2:0:0:0:
361,301,133721,1,8,2:0:0:0:
354,312,133844,1,0,2:0:0:0:
193,93,134089,6,0,L|219:264,1,153,0|0,1:2|2:0,2:0:0:0:
430,206,134581,2,0,P|423:157|377:141,1,102,10|2,2:0|2:0,2:0:0:0:
276,0,134950,1,0,1:2:0:0:
282,8,135073,2,0,L|271:104,1,51,0|0,2:0|2:0,2:0:0:0:
354,47,135319,1,2,1:2:0:0:
113,184,135565,2,0,P|67:164|58:116,1,102,8|2,2:0|2:0,2:0:0:0:
328,384,136057,6,0,P|343:309|364:235,1,153,0|0,1:2|2:0,2:0:0:0:
288,152,136548,1,8,2:0:0:0:
214,341,136794,2,0,P|163:377|126:352,1,102,2|0,2:0|2:0,2:0:0:0:
20,342,137286,1,2,2:0:0:0:
263,254,137532,2,0,L|155:228,1,102,8|0,2:0|2:0,2:0:0:0:
6,88,138024,6,0,L|64:76,1,51,2|0,1:2|2:0,2:0:0:0:
82,9,138270,1,2,2:0:0:0:
351,163,138516,2,0,P|356:95|300:69,1,102,10|0,2:0|2:0,2:0:0:0:
162,51,138885,1,0,1:2:0:0:
170,58,139007,2,0,L|181:116,1,51,2|0,2:0|2:0,2:0:0:0:
126,158,139253,1,0,1:2:0:0:
245,354,139499,2,0,L|262:253,1,102,10|2,2:0|2:0,2:0:0:0:
430,4,139991,6,0,P|406:72|334:75,1,153,0|0,1:2|2:0,2:0:0:0:
437,165,140483,1,8,2:0:0:0:
262,253,140729,2,0,P|330:240|409:228,1,102,2|0,2:0|2:0,2:0:0:0:
302,157,141221,1,0,1:2:0:0:
234,375,141466,1,8,2:0:0:0:
199,45,141958,6,0,P|128:54|119:132,1,153,2|0,1:2|2:0,2:0:0:0:
10,300,142450,2,0,L|33:178,1,102,8|2,2:0|2:0,2:0:0:0:
198,132,142819,1,0,1:2:0:0:
207,137,142942,2,0,L|219:198,1,51,0|0,2:0|2:0,2:0:0:0:
142,218,143188,1,2,1:2:0:0:
285,378,143434,2,0,L|160:354,1,102,8|2,2:0|2:0,2:0:0:0:
310,128,143926,6,0,B|354:127|373:165|352:181|371:220|413:222,1,153,2|0,1:2|2:0,2:0:0:0:
512,364,144417,2,0,P|461:373|412:384,1,102,10|2,2:0|2:0,2:0:0:0:
262,291,144786,1,0,2:0:0:0:
259,279,144909,2,0,P|264:254|283:238,1,51,0|0,2:0|2:0,2:0:0:0:
340,290,145155,1,0,1:2:0:0:
146,242,145401,2,0,L|21:277,1,102,10|0,2:0|2:0,2:0:0:0:
361,142,145893,6,0,P|357:49|265:50,1,204,2|0,1:2|2:0,2:0:0:0:
10,6,146385,2,0,L|35:144,1,136,10|2,2:0|2:0,2:0:0:0:
155,166,146753,1,0,1:2:0:0:
161,175,146876,2,0,L|145:244,1,68,0|0,2:0|2:0,2:0:0:0:
78,278,147122,1,0,1:2:0:0:
334,369,147368,2,0,P|328:304|267:284,1,136,10|2,2:0|2:0,2:0:0:0:
27,150,147860,6,0,B|85:161|118:115|94:89|128:43|184:50,1,204,0|0,1:2|2:0,2:0:0:0:
406,59,148352,2,0,P|331:94|349:167,1,136,8|2,2:0|2:0,2:0:0:0:
231,203,148721,1,0,2:0:0:0:
234,192,148844,1,8,2:0:0:0:
264,206,148966,1,8,2:0:0:0:
268,239,149089,1,2,2:0:0:0:
253,5,149335,1,8,2:0:0:0:
48,264,149581,5,8,2:0:0:0:
33,250,149704,1,8,2:0:0:0:
32,227,149827,2,0,P|121:251|129:94,1,255,6|0,1:2|2:0,2:0:0:0:
373,75,150319,2,0,B|353:152|353:152|353:159|353:159|326:250,1,170,10|2,2:0|2:0,2:0:0:0:
252,384,150688,1,0,1:2:0:0:
259,371,150811,2,0,P|253:338|212:310,1,85,0|0,2:0|2:0,2:0:0:0:
145,354,151057,1,2,1:2:0:0:
494,258,151303,2,0,P|428:271|421:375,1,170,8|2,2:0|2:0,2:0:0:0:
203,110,151794,6,0,B|207:54|291:41|329:108|288:185|215:200,1,255,0|0,1:2|2:0,2:0:0:0:
373,151,152286,1,10,2:0:0:0:
103,20,152532,1,2,2:0:0:0:
93,27,152655,1,0,1:2:0:0:
85,33,152778,2,0,L|109:134,1,85,0|0,2:0|2:0,2:0:0:0:
41,177,153024,1,0,1:2:0:0:
176,384,153270,2,0,B|188:308|188:308|190:303|190:303|204:216,1,170,10|2,2:0|2:0,2:0:0:0:
492,110,153762,6,0,B|490:76|509:58|509:58|439:18|365:78|390:157,1,255,0|0,1:2|2:0,2:0:0:0:
208,19,154253,2,0,B|230:57|209:99|209:99|234:59|280:60,1,170,10|2,2:0|2:0,2:0:0:0:
339,222,154622,1,0,1:2:0:0:
329,224,154745,2,0,P|295:199|293:158,1,85,0|0,2:0|2:0,2:0:0:0:
388,150,154991,1,0,1:2:0:0:
350,13,155237,1,10,2:0:0:0:
220,283,155483,2,0,P|217:241|184:217,1,85,2|0,2:0|2:0,2:0:0:0:
5,13,155729,6,0,L|31:180,1,170,0|2,1:2|2:0,2:0:0:0:
134,49,156221,1,10,2:0:0:0:
33,291,156466,1,2,2:0:0:0:
29,299,156589,1,0,1:2:0:0:
28,308,156712,2,0,P|48:343|88:344,1,85,2|0,2:0|2:0,2:0:0:0:
165,252,156958,1,2,1:2:0:0:
259,384,157204,2,0,P|279:348|260:313,1,85,8|0,2:0|2:0,2:0:0:0:
122,156,157450,1,2,2:0:0:0:
486,201,157696,6,0,B|319:168|319:168|302:210|249:214,1,255,6|0,1:2|2:0,2:0:0:0:
419,92,158188,1,10,2:0:0:0:
363,278,158434,1,2,2:0:0:0:
360,286,158557,1,0,1:2:0:0:
358,294,158680,2,0,L|378:384,1,85,0|0,2:0|2:0,2:0:0:0:
457,360,158926,1,2,1:2:0:0:
242,208,159171,2,0,P|169:241|178:320,1,170,8|2,2:0|2:0,2:0:0:0:
340,67,159663,6,0,P|206:56|95:-10,1,255,0|0,1:2|2:0,2:0:0:0:
0,102,160155,1,10,2:0:0:0:
242,208,160401,1,2,2:0:0:0:
246,217,160524,1,0,1:2:0:0:
246,225,160647,2,0,P|232:263|193:278,1,85,0|0,2:0|2:0,2:0:0:0:
179,129,160893,1,2,1:2:0:0:
103,356,161139,2,0,B|180:369|180:369|188:369|188:369|270:382,1,170,8|2,2:0|2:0,2:0:0:0:
483,263,161630,6,0,B|508:314|473:360|473:360|430:291|350:279,1,255,0|0,1:2|2:0,2:0:0:0:
177,66,162122,2,0,B|155:99|178:129|178:129|207:83|260:75,1,170,10|2,2:0|2:0,2:0:0:0:
454,121,162491,1,0,1:2:0:0:
458,132,162614,2,0,P|445:171|399:180,1,85,0|0,2:0|2:0,2:0:0:0:
355,125,162860,1,2,1:2:0:0:
283,372,163106,2,0,P|228:300|302:249,1,170,8|0,2:0|2:0,2:0:0:0:
17,80,163598,6,0,B|-40:104|-19:203|68:195|128:131|104:59,1,255,2|0,1:2|2:0,2:0:0:0:
44,363,164089,2,0,P|7:343|3:303,1,85,10|0,2:0|2:0,2:0:0:0:
142,215,164335,1,2,2:0:0:0:
146,223,164458,1,0,1:2:0:0:
150,230,164581,2,0,L|129:322,1,85,0|0,1:2|2:0,2:0:0:0:
215,368,164827,1,2,1:2:0:0:
187,129,165073,1,10,2:0:0:0:
460,286,165319,5,8,2:0:0:0:
474,292,165442,1,8,2:0:0:0:
489,291,165565,2,0,B|478:264|489:232|489:232|411:223|362:285|374:352,1,255,6|0,1:2|2:0,2:0:0:0:
437,90,166057,2,0,B|365:76|365:76|359:77|359:77|270:59,1,170,10|2,2:0|2:0,2:0:0:0:
103,18,166426,1,0,1:2:0:0:
96,29,166548,2,0,L|114:115,1,85,0|0,2:0|2:0,2:0:0:0:
55,163,166794,1,2,1:2:0:0:
295,148,167040,2,0,P|304:230|198:229,1,170,8|2,2:0|2:0,2:0:0:0:
511,52,167532,6,0,P|385:28|261:0,1,255,0|0,1:2|2:0,2:0:0:0:
129,122,168024,1,10,2:0:0:0:
228,342,168270,1,2,2:0:0:0:
232,351,168393,1,0,1:2:0:0:
237,360,168516,2,0,P|277:370|314:319,1,85,0|0,2:0|2:0,2:0:0:0:
284,268,168762,1,0,1:2:0:0:
87,199,169007,2,0,P|108:254|120:373,1,170,10|2,2:0|2:0,2:0:0:0:
8,66,169499,6,0,B|13:34|-7:10|-7:10|68:-20|133:30|123:104,1,255,0|0,1:2|2:0,2:0:0:0:
269,12,169991,2,0,B|255:81|255:81|256:90|256:90|239:180,1,170,10|2,2:0|2:0,2:0:0:0:
356,299,170360,1,0,1:2:0:0:
366,307,170483,2,0,P|406:306|429:272,1,85,0|0,2:0|2:0,2:0:0:0:
382,189,170729,1,0,1:2:0:0:
489,369,170975,1,10,2:0:0:0:
432,107,171221,2,0,P|402:78|362:86,1,85,2|0,2:0|2:0,2:0:0:0:
193,258,171466,6,0,B|237:267|249:315|249:315|239:266|272:237,1,170,0|2,1:2|2:0,2:0:0:0:
30,194,171958,1,10,2:0:0:0:
193,52,172204,1,2,2:0:0:0:
203,53,172327,1,0,1:2:0:0:
212,58,172450,2,0,P|184:88|186:129,1,85,2|0,2:0|2:0,2:0:0:0:
116,173,172696,1,2,1:2:0:0:
367,103,172942,2,0,P|329:85|290:101,1,85,8|0,2:0|2:0,2:0:0:0:
120,12,173188,1,2,2:0:0:0:
219,353,173434,6,0,B|289:379|337:322|306:289|362:236|432:267,1,255,6|0,1:2|2:0,2:0:0:0:
212,58,173926,2,0,B|168:130|168:130|238:178,1,170,10|2,2:0|2:0,2:0:0:0:
493,136,174294,1,0,1:2:0:0:
499,126,174417,2,0,L|403:105,1,85,0|0,2:0|2:0,2:0:0:0:
474,39,174663,1,2,1:2:0:0:
431,266,174909,2,0,P|354:253|354:169,1,170,8|2,2:0|2:0,2:0:0:0:
113,384,175401,6,0,B|150:294|150:294|-9:345,1,255,0|0,1:2|2:0,2:0:0:0:
88,191,175893,1,10,2:0:0:0:
281,330,176139,1,2,2:0:0:0:
278,340,176262,1,0,1:2:0:0:
274,350,176385,2,0,L|262:248,1,85,0|0,2:0|2:0,2:0:0:0:
337,219,176630,1,2,1:2:0:0:
160,84,176876,2,0,P|84:110|87:190,1,170,8|2,2:0|2:0,2:0:0:0:
381,8,177368,6,0,B|484:10|498:155|409:171|348:112|392:64,1,255,0|0,1:2|2:0,2:0:0:0:
172,176,177860,2,0,B|247:195|247:195|250:197|250:197|336:218,1,170,10|2,2:0|2:0,2:0:0:0:
190,384,178229,1,0,1:2:0:0:
194,375,178352,2,0,L|179:286,1,85,0|0,2:0|2:0,2:0:0:0:
271,319,178598,1,2,1:2:0:0:
0,242,178844,2,0,P|-6:319|94:318,1,170,8|0,2:0|2:0,2:0:0:0:
309,47,179335,6,0,P|291:85|282:127,1,85,2|0,1:2|2:0,2:0:0:0:
115,189,179581,2,0,P|132:227|141:269,1,85,8|0,2:0|2:0,2:0:0:0:
301,380,179827,1,2,1:2:0:0:
358,321,179950,2,0,P|340:243|261:235,1,170,8|0,2:0|2:0,2:0:0:0:
0,138,180319,2,0,B|58:152|88:92|60:80|87:24|152:41,1,204,8|2,1:2|1:2,2:0:0:0:
244,237,181057,5,10,2:0:0:0:
231,235,181180,1,8,2:0:0:0:
220,226,181303,1,4,1:2:0:0:
256,192,181428,12,0,185222,2:0:0:0:
372,10,187193,6,0,P|393:21|467:40,1,93.4999999999999,2|0,2:0|2:0,2:0:0:0:
313,102,187941,2,0,P|381:116|445:146,1,140.25,2|0,2:0|2:0,2:0:0:0:
463,227,188939,2,0,P|448:245|425:251,1,46.75,2|0,2:0|2:0,2:0:0:0:
256,192,189313,12,0,193128,2:0:0:0:
48,274,195063,6,0,L|32:175,1,93.4999999999999,2|0,2:0|2:0,2:0:0:0:
195,378,195806,2,0,L|220:232,1,144.500000000001,2|0,2:0|2:0,2:0:0:0:
115,91,196550,2,0,L|131:199,1,102,2|0,2:0|2:0,2:0:0:0:
512,110,197046,6,0,P|486:127|495:186,1,85,6|0,1:2|2:0,2:0:0:0:
469,326,197291,2,0,P|390:313|374:234,1,170,0|10,2:0|2:0,2:0:0:0:
197,117,197783,1,2,2:0:0:0:
197,108,197906,1,0,1:2:0:0:
203,101,198029,2,0,P|244:92|282:74,1,85,0|0,2:0|2:0,2:0:0:0:
353,125,198275,1,2,1:2:0:0:
217,306,198521,2,0,B|242:341|221:388|221:388|246:343|288:348,1,170,8|2,2:0|2:0,2:0:0:0:
73,0,199013,6,0,B|107:40|96:136|25:185|-32:131|-22:78|31:68|50:108,1,255,0|0,1:2|2:0,2:0:0:0:
95,272,199505,1,10,2:0:0:0:
245,116,199750,1,2,2:0:0:0:
241,106,199873,1,0,1:2:0:0:
232,99,199996,2,0,P|191:98|168:131,1,85,0|0,2:0|2:0,2:0:0:0:
190,230,200242,1,0,1:2:0:0:
180,9,200488,1,10,2:0:0:0:
46,101,200734,2,0,P|32:139|57:171,1,85,2|0,2:0|2:0,2:0:0:0:
262,369,200980,6,0,B|265:331|238:309|238:309|283:261|347:278|347:278|339:311|360:342,1,255,0|0,1:2|2:0,2:0:0:0:
286,133,201472,2,0,P|250:153|250:193,1,85,10|0,2:0|2:0,2:0:0:0:
494,332,201718,1,2,2:0:0:0:
502,327,201841,1,0,1:2:0:0:
512,323,201964,2,0,L|439:299,1,85,0|0,2:0|2:0,2:0:0:0:
361,342,202209,1,0,1:2:0:0:
496,213,202455,1,10,2:0:0:0:
320,11,202701,2,0,P|355:30|355:71,1,85,2|0,2:0|2:0,2:0:0:0:
205,280,202947,6,0,B|203:236|147:203|106:229|106:229|115:246|111:268,1,170,0|2,1:2|2:0,2:0:0:0:
9,330,203316,1,0,2:0:0:0:
1,324,203439,2,0,P|0:283|34:262,1,85,10|0,2:0|2:0,2:0:0:0:
287,110,203685,1,2,2:0:0:0:
281,105,203808,1,0,1:2:0:0:
274,99,203931,2,0,B|266:141|266:141|264:146|264:146|253:213,1,85,2|0,2:0|2:0,2:0:0:0:
318,303,204177,1,2,1:2:0:0:
142,46,204423,5,8,2:0:0:0:
104,11,204546,1,8,2:0:0:0:
52,12,204668,1,10,2:0:0:0:
15,48,204791,1,8,2:0:0:0:
12,100,204914,6,0,B|114:89|146:231|59:258|-8:207|29:154,1,255,6|0,1:2|2:0,2:0:0:0:
348,66,205406,2,0,B|333:45|332:13|332:13|264:36|274:106,1,170,10|2,2:0|2:0,2:0:0:0:
402,251,205775,1,0,1:2:0:0:
416,253,205898,2,0,P|461:222|442:164,1,85,0|0,2:0|2:0,2:0:0:0:
418,114,206144,1,2,1:2:0:0:
298,379,206390,2,0,B|315:379|328:386|328:386|352:344|323:291|268:290,1,170,8|2,2:0|2:0,2:0:0:0:
0,147,206882,6,0,B|22:120|21:82|21:82|63:138|70:204|70:204|69:232|41:249,1,255,0|0,1:2|2:0,2:0:0:0:
150,162,207373,1,10,2:0:0:0:
32,353,207619,1,2,2:0:0:0:
32,364,207742,1,0,1:2:0:0:
39,372,207865,2,0,P|58:335|98:326,1,85,0|0,2:0|2:0,2:0:0:0:
138,249,208111,1,2,1:2:0:0:
0,147,208357,1,8,2:0:0:0:
215,16,208603,2,0,B|210:8|194:0|194:0|209:31|211:60,1,85,2|0,2:0|2:0,2:0:0:0:
371,308,208849,6,0,B|354:273|376:246|376:246|308:226|247:285|263:355,1,255,0|0,1:2|2:0,2:0:0:0:
198,193,209341,1,10,2:0:0:0:
418,162,209586,1,2,2:0:0:0:
424,157,209709,1,0,1:2:0:0:
431,151,209832,2,0,L|348:132,1,85,0|0,2:0|2:0,2:0:0:0:
331,55,210078,1,2,1:2:0:0:
180,278,210324,2,0,P|185:355|262:353,1,170,8|0,2:0|2:0,2:0:0:0:
204,96,210816,6,0,B|138:134|80:67|114:38|65:-28|-2:10,1,255,2|0,1:2|2:0,2:0:0:0:
65,241,211308,2,0,P|99:218|103:177,1,85,10|0,2:0|2:0,2:0:0:0:
253,24,211554,2,0,P|287:46|291:87,1,85,2|0,1:2|2:0,2:0:0:0:
253,369,211800,1,8,2:0:0:0:
242,360,211923,1,8,2:0:0:0:
238,348,212046,2,0,P|242:307|276:284,1,85,2|0,2:0|2:0,2:0:0:0:
109,373,212291,1,10,2:0:0:0:
305,75,212537,5,8,2:0:0:0:
323,76,212660,1,8,2:0:0:0:
338,85,212783,2,0,B|385:128|364:202|364:202|389:130|456:124,1,255,6|0,1:2|2:0,2:0:0:0:
501,310,213275,2,0,B|538:256|498:201|457:193|428:225|456:262|482:238,1,170,10|2,2:0|2:0,2:0:0:0:
329,359,213644,1,0,1:2:0:0:
337,370,213767,2,0,P|376:379|404:349,1,85,0|0,2:0|2:0,2:0:0:0:
262,187,214013,2,0,P|234:157|194:166,1,85,2|0,1:2|2:0,2:0:0:0:
75,368,214259,2,0,P|159:337|246:320,1,170,8|2,2:0|2:0,2:0:0:0:
2,17,214750,6,0,B|-25:46|-12:86|-12:86|44:81|86:119|86:119|120:98|119:57,1,255,0|0,1:2|2:0,2:0:0:0:
20,276,215242,2,0,P|-10:249|0:210,1,85,10|0,2:0|2:0,2:0:0:0:
185,150,215488,1,2,2:0:0:0:
190,159,215611,1,0,1:2:0:0:
194,166,215734,2,0,L|170:267,1,85,0|0,2:0|2:0,2:0:0:0:
238,317,215980,1,0,1:2:0:0:
84,225,216226,1,10,2:0:0:0:
301,106,216472,2,0,P|341:107|365:141,1,85,2|0,2:0|2:0,2:0:0:0:
412,382,216718,6,0,B|354:296|465:201|529:265|516:349|451:340,1,255,0|0,1:2|2:0,2:0:0:0:
239,319,217209,2,0,B|277:284|262:230|220:209|220:209|213:228|195:238,1,170,10|2,2:0|2:0,2:0:0:0:
78,336,217578,1,0,1:2:0:0:
82,346,217701,2,0,B|118:356|118:356|125:361|125:361|162:371,1,85,0|0,2:0|2:0,2:0:0:0:
316,370,217947,1,0,1:2:0:0:
146,175,218193,2,0,P|105:171|80:204,1,85,10|0,2:0|2:0,2:0:0:0:
10,280,218439,1,2,2:0:0:0:
216,37,218685,6,0,B|269:10|269:10|240:127,1,170,0|2,1:2|2:0,2:0:0:0:
424,250,219054,1,0,2:0:0:0:
415,253,219177,2,0,P|377:235|367:195,1,85,10|0,2:0|2:0,2:0:0:0:
495,71,219423,1,2,2:0:0:0:
497,62,219546,1,0,1:2:0:0:
499,52,219668,2,0,L|393:74,1,85,2|0,2:0|2:0,2:0:0:0:
370,5,219914,1,2,1:2:0:0:
471,355,220160,5,8,2:0:0:0:
430,343,220283,1,8,2:0:0:0:
389,331,220406,1,10,2:0:0:0:
348,320,220529,1,8,2:0:0:0:
307,308,220652,6,0,B|280:282|284:246|284:246|199:250|181:338|217:385,1,255,6|0,1:2|2:0,2:0:0:0:
159,96,221144,2,0,B|204:83|218:39|218:39|208:84|240:117,1,170,10|2,2:0|2:0,2:0:0:0:
115,254,221513,1,0,1:2:0:0:
105,253,221636,2,0,P|70:230|71:190,1,85,0|0,2:0|2:0,2:0:0:0:
0,124,221882,1,2,1:2:0:0:
2,376,222127,2,0,P|24:341|64:342,1,85,8|0,2:0|2:0,2:0:0:0:
182,180,222373,1,2,2:0:0:0:
19,44,222619,6,0,B|219:3|219:3|243:47,1,255,0|0,1:2|2:0,2:0:0:0:
182,196,223111,1,10,2:0:0:0:
504,243,223357,1,2,2:0:0:0:
500,249,223480,1,0,1:2:0:0:
496,255,223603,2,0,L|405:231,1,85,0|0,2:0|2:0,2:0:0:0:
395,152,223849,1,2,1:2:0:0:
443,367,224095,1,8,2:0:0:0:
163,222,224341,2,0,P|169:262|207:276,1,85,2|0,2:0|2:0,2:0:0:0:
442,68,224586,6,0,B|434:42|452:18|452:18|395:-21|301:10|313:114,1,255,0|0,1:2|2:0,2:0:0:0:
60,199,225078,2,0,P|64:158|101:141,1,85,10|0,2:0|2:0,2:0:0:0:
224,20,225324,1,2,2:0:0:0:
229,26,225447,1,0,1:2:0:0:
235,33,225570,2,0,L|134:15,1,85,0|0,2:0|2:0,2:0:0:0:
26,54,225816,1,2,1:2:0:0:
0,384,226062,2,0,P|19:307|97:310,1,170,8|0,2:0|2:0,2:0:0:0:
391,374,226554,6,0,P|352:301|274:209,1,204,2|0,2:0|2:0,2:0:0:0:
311,58,227291,1,2,2:0:0:0:
321,55,227537,2,0,P|370:77|358:169,1,144.500000000001,2|0,2:0|2:0,2:0:0:0:
217,57,228275,2,0,L|227:4,1,46.75,2|0,2:0|1:2,2:0:0:0:
40,278,229013,6,0,P|11:259|30:185,1,102,8|0,2:0|2:0,2:0:0:0:
126,114,229382,1,0,1:2:0:0:
134,121,229505,2,0,L|118:187,1,51,0|0,2:0|2:0,2:0:0:0:
48,121,229750,1,0,1:2:0:0:
223,186,229996,2,0,L|234:291,1,102,8|0,2:0|2:0,2:0:0:0:
432,270,230488,6,0,B|440:226|405:198|395:213|357:186|368:143,1,153,0|0,1:2|2:0,2:0:0:0:
449,137,230980,1,8,2:0:0:0:
345,359,231349,1,0,1:2:0:0:
333,355,231472,2,0,P|322:300|372:269,1,102,0|0,2:0|1:2,2:0:0:0:
449,137,231964,2,0,P|380:119|382:48,1,153,8|0,2:0|2:0,2:0:0:0:
206,0,232455,6,0,P|239:89|244:166,1,153,0|0,1:2|2:0,2:0:0:0:
185,201,232947,1,8,2:0:0:0:
231,380,233316,1,0,1:2:0:0:
218,384,233439,2,0,P|177:367|174:310,1,102,0|0,2:0|1:2,2:0:0:0:
40,345,233931,1,8,2:0:0:0:
7,56,234423,6,0,P|-3:121|79:134,1,153,0|0,1:2|2:0,2:0:0:0:
211,87,234914,2,0,L|105:64,1,102,8|0,2:0|2:0,2:0:0:0:
141,224,235283,1,0,1:2:0:0:
153,214,235406,2,0,L|143:163,1,51,0|0,2:0|2:0,2:0:0:0:
68,141,235652,1,0,1:2:0:0:
312,137,235898,2,0,B|300:211|300:211|301:217|301:217|290:294,1,153,8|8,2:0|2:0,2:0:0:0:
165,317,236390,6,0,B|207:305|238:342|226:353|252:386|296:373,1,153,0|0,1:2|2:0,2:0:0:0:
424,344,236882,2,0,P|384:334|372:270,1,102,8|0,2:0|2:0,2:0:0:0:
483,138,237250,1,0,1:2:0:0:
487,148,237373,2,0,L|469:249,1,102,0|0,2:0|1:2,2:0:0:0:
378,71,237865,1,8,2:0:0:0:
378,71,238357,6,0,P|295:85|307:148,1,153,0|0,1:2|2:0,2:0:0:0:
149,13,238849,2,0,P|182:-3|218:57,1,102,8|0,2:0|2:0,2:0:0:0:
200,197,239218,1,0,1:2:0:0:
190,193,239341,2,0,L|178:124,1,51,0|0,2:0|2:0,2:0:0:0:
118,232,239586,1,0,1:2:0:0:
298,137,239832,2,0,L|462:177,1,153,8|0,2:0|2:0,2:0:0:0:
499,265,240324,6,0,P|478:303|424:295,1,102,0|0,1:2|2:0,2:0:0:0:
507,108,240816,1,8,2:0:0:0:
307,256,241185,1,0,1:2:0:0:
298,264,241308,2,0,L|313:364,1,102,0|0,2:0|1:2,2:0:0:0:
373,182,241800,1,8,2:0:0:0:
74,136,242291,6,0,P|75:74|156:58,1,153,0|0,1:2|2:0,2:0:0:0:
127,271,242783,2,0,P|78:269|56:225,1,102,8|0,2:0|2:0,2:0:0:0:
227,194,243152,1,0,1:2:0:0:
222,184,243275,2,0,L|171:176,1,51,0|0,2:0|2:0,2:0:0:0:
210,108,243521,1,0,1:2:0:0:
266,335,243767,1,8,2:0:0:0:
329,64,244013,5,8,2:0:0:0:
344,57,244136,1,8,2:0:0:0:
360,57,244259,2,0,P|326:109|426:105,1,204,0|8,1:2|2:0,2:0:0:0:
266,335,244996,1,0,2:0:0:0:
270,324,245119,2,0,L|440:294,1,153,0|0,1:2|1:2,2:0:0:0:
188,192,245734,2,0,L|291:216,1,102,8|0,2:0|2:0,2:0:0:0:
104,379,246226,6,0,P|107:304|-3:289,1,204,0|8,1:2|2:0,2:0:0:0:
70,71,246964,1,0,2:0:0:0:
57,70,247086,2,0,P|0:111|26:177,1,153,0|0,1:2|1:2,2:0:0:0:
178,206,247701,2,0,P|167:158|120:149,1,102,8|0,2:0|2:0,2:0:0:0:
362,364,248193,6,0,P|395:276|461:184,1,204,0|8,1:2|2:0,2:0:0:0:
272,189,248931,1,0,2:0:0:0:
285,186,249054,2,0,P|307:117|251:72,1,153,0|0,1:2|1:2,2:0:0:0:
482,83,249668,2,0,P|462:52|399:58,1,102,8|0,2:0|2:0,2:0:0:0:
187,156,250160,6,0,L|219:357,1,204,0|8,1:2|2:0,2:0:0:0:
395,288,251021,1,0,1:2:0:0:
406,280,251144,2,0,L|293:254,1,102,0|0,2:0|1:2,2:0:0:0:
66,212,251636,2,0,P|95:273|140:264,1,102,8|0,2:0|2:0,2:0:0:0:
195,206,252005,2,0,L|187:156,1,51,8|0,2:0|1:2,2:0:0:0:
445,125,252619,5,8,2:0:0:0:
273,87,252988,1,0,1:2:0:0:
273,87,253357,1,0,1:2:0:0:
445,125,253603,1,8,2:0:0:0:
273,87,254095,5,0,1:2:0:0:
445,125,254586,1,8,2:0:0:0:
273,87,254955,1,0,1:2:0:0:
273,87,255324,1,0,1:2:0:0:
445,125,255570,1,8,2:0:0:0:
273,87,256062,5,0,1:2:0:0:
445,125,256554,1,8,2:0:0:0:
273,87,256923,1,0,1:2:0:0:
273,87,257291,1,0,1:2:0:0:
445,125,257537,1,8,2:0:0:0:
273,87,258029,5,0,1:2:0:0:
445,125,258521,1,8,2:0:0:0:
360,0,259013,5,8,2:0:0:0:
363,12,259136,2,0,L|371:56,1,44.625,8|0,2:0|2:0,2:0:0:0:
190,157,259750,5,8,2:0:0:0:
193,145,259873,1,8,2:0:0:0:
