osu file format v14

[General]
AudioFilename: audio.ogg
AudioLeadIn: 0
PreviewTime: 214329
Countdown: 0
SampleSet: Soft
StackLeniency: 0.7
Mode: 0
LetterboxInBreaks: 0
WidescreenStoryboard: 0

[Editor]
Bookmarks: 369868
DistanceSpacing: 0.6
BeatDivisor: 6
GridSize: 32
TimelineZoom: 2.599999

[Metadata]
Title:Light Defiance
TitleUnicode:Light Defiance
Artist:The Fractured Dimension
ArtistUnicode:The Fractured Dimension
Creator:SaltyLucario
Version:Effulgence
Source:
Tags:saltking salty symphonic progressive metal instrumental prog jazz fusion shred on the precipice of many infinities jerry twyford jimmy pitts hannes grossmann vishal j. singh tom fountainhead geldshlager
BeatmapID:4054173
BeatmapSetID:1957037

[Difficulty]
HPDrainRate:5
CircleSize:4
OverallDifficulty:9
ApproachRate:9
SliderMultiplier:2.1
SliderTickRate:0.5

[Events]
//Background and Video events
0,0,"bg.jpg",0,0
//Break Periods
2,326701,327747
//Storyboard Layer 0 (Background)
//Storyboard Layer 1 (Fail)
//Storyboard Layer 2 (Pass)
//Storyboard Layer 3 (Foreground)
//Storyboard Layer 4 (Overlay)
//Storyboard Sound Samples

[TimingPoints]
423,434.782608695652,4,2,1,80,1,0
423,-133.333333333333,4,2,1,80,0,0
1292,-133.333333333333,4,2,99,5,0,0
1727,-133.333333333333,4,2,1,80,0,0
2379,-111.111111111111,4,2,1,80,0,0
3031,-111.111111111111,4,2,99,5,0,0
3465,-111.111111111111,4,2,1,80,0,0
3901,-200,4,2,2,80,0,0
4553,-200,4,2,1,80,0,0
4770,-125,4,2,2,80,0,0
5640,-71.4285714285714,4,2,2,80,0,0
5966,-83.3333333333333,4,2,99,5,0,0
6075,-71.4285714285714,4,2,1,80,0,0
6509,-71.4285714285714,4,2,2,80,0,0
6654,-71.4285714285714,4,2,1,80,0,0
7379,-83.3333333333333,4,2,3,65,0,0
7705,-83.3333333333333,4,2,99,5,0,0
7814,-133.333333333333,4,2,1,65,0,0
10531,-133.333333333333,4,2,2,65,0,0
10640,-133.333333333333,4,2,1,65,0,0
12379,-133.333333333333,4,2,2,65,0,0
12596,-133.333333333333,4,2,1,75,0,0
12741,-133.333333333333,4,2,2,75,0,0
12886,-133.333333333333,4,2,1,75,0,0
13176,-133.333333333333,4,2,2,75,0,0
13321,-133.333333333333,4,2,1,75,0,0
13611,-133.333333333333,4,2,2,75,0,0
13756,-133.333333333333,4,2,1,75,0,0
13901,-222.222222222221,4,2,1,75,0,0
14227,-222.222222222221,4,2,99,5,0,0
14336,-83.3333333333333,4,2,3,65,0,0
14662,-83.3333333333333,4,2,99,5,0,0
14770,-133.333333333333,4,2,2,65,0,0
14987,-133.333333333333,4,2,1,65,0,0
15422,-133.333333333333,4,2,2,65,0,0
15748,-133.333333333333,4,2,1,65,0,0
16618,-133.333333333333,4,2,2,65,0,0
16727,-133.333333333333,4,2,1,65,0,0
17162,-133.333333333333,4,2,3,65,0,0
17270,-133.333333333333,4,2,1,65,0,0
17379,-133.333333333333,4,2,2,65,0,0
17488,-133.333333333333,4,2,1,65,0,0
17596,-133.333333333333,4,2,4,65,0,0
17814,-133.333333333333,4,2,2,65,0,0
18031,-133.333333333333,4,2,1,65,0,0
20749,-133.333333333333,4,2,2,65,0,0
20857,-133.333333333333,4,2,1,65,0,0
21183,-133.333333333333,4,2,2,65,0,0
21292,-83.3333333333333,4,2,3,65,0,0
21618,-83.3333333333333,4,2,99,5,0,0
21727,-83.3333333333333,4,2,1,65,0,0
21835,-83.3333333333333,4,2,99,5,0,0
21944,-83.3333333333333,4,2,1,65,0,0
22052,-83.3333333333333,4,2,99,5,0,0
22162,-133.333333333333,4,2,1,65,0,0
22596,-100,4,2,1,65,0,0
22704,-100,4,2,99,5,0,0
22814,-100,4,2,1,65,0,0
22922,-100,4,2,99,5,0,0
23031,-133.333333333333,4,2,1,65,0,0
23466,-100,4,2,1,65,0,0
23574,-100,4,2,99,5,0,0
23683,-100,4,2,1,65,0,0
23791,-100,4,2,99,5,0,0
23901,-83.3333333333333,4,2,1,65,0,0
24227,-83.3333333333333,4,2,99,5,0,0
24336,-83.3333333333333,4,2,1,65,0,0
24444,-83.3333333333333,4,2,99,5,0,0
24553,-83.3333333333333,4,2,1,65,0,0
24661,-83.3333333333333,4,2,99,5,0,0
24770,-83.3333333333333,4,2,3,65,0,0
25096,-83.3333333333333,4,2,99,5,0,0
25205,-100,4,2,2,65,0,0
25313,-100,4,2,99,5,0,0
25422,-100,4,2,2,65,0,0
25530,-100,4,2,99,5,0,0
25640,-100,4,2,1,65,0,0
26509,-100,4,2,3,65,0,0
28249,-76.9230769230769,4,2,3,65,0,0
28575,-76.9230769230769,4,2,99,5,0,0
28683,-76.9230769230769,4,2,3,65,0,0
29336,-76.9230769230769,4,2,4,65,0,0
29553,-76.9230769230769,4,2,3,65,0,0
29770,-76.9230769230769,4,2,4,65,0,0
29988,-111.111111111111,4,2,3,65,0,0
31075,-111.111111111111,4,2,4,65,0,0
31292,-111.111111111111,4,2,3,65,0,0
31457,-111.111111111111,4,2,1,75,0,0
32017,-111.111111111111,4,2,2,75,0,0
32596,-111.111111111111,4,2,1,75,0,0
32886,-111.111111111111,4,2,2,75,0,0
33176,-83.3333333333333,4,2,2,75,0,0
33218,-83.3333333333333,4,2,1,75,0,0
34046,-83.3333333333333,4,2,5,75,0,0
34926,-83.3333333333333,4,2,3,75,0,0
35640,-83.3333333333333,4,2,1,75,0,0
35966,-90.9090909090909,4,2,1,75,0,0
36400,-90.9090909090909,4,2,99,5,0,0
36509,-90.9090909090909,4,2,1,75,0,0
37705,-71.4285714285714,4,2,1,75,0,0
38248,-71.4285714285714,4,2,99,5,0,0
38357,-71.4285714285714,4,2,1,75,0,0
38683,434.782608695652,5,2,1,75,1,0
39443,-90.9090909090909,5,2,1,75,0,0
39876,-90.9090909090909,5,2,99,5,0,0
39986,-90.9090909090909,5,2,1,75,0,0
40094,-90.9090909090909,5,2,3,75,0,0
40420,-90.9090909090909,5,2,1,75,0,0
40638,-90.9090909090909,5,2,3,75,0,0
40856,434.782608695652,4,2,3,75,1,0
41290,-90.9090909090909,4,2,1,75,0,0
42050,-90.9090909090909,4,2,99,5,0,0
42160,-90.9090909090909,4,2,1,75,0,0
43355,-71.4285714285714,4,2,1,75,0,0
43898,-71.4285714285714,4,2,99,5,0,0
44007,-71.4285714285714,4,2,1,75,0,0
44334,434.782608695652,5,2,1,75,1,0
45094,-90.9090909090909,5,2,1,75,0,0
45639,-90.9090909090909,5,2,99,5,0,0
45749,-90.9090909090909,5,2,1,75,0,0
46075,-90.9090909090909,5,2,6,75,0,0
46147,-90.9090909090909,5,2,2,75,0,0
46220,-90.9090909090909,5,2,3,75,0,0
46365,-90.9090909090909,5,2,1,75,0,0
46507,434.782608695652,4,2,3,75,1,0
46507,-90.9090909090909,4,2,3,75,0,0
47699,-90.9090909090909,4,2,99,5,0,0
47809,-90.9090909090909,4,2,3,75,0,0
48244,-71.4285714285714,4,2,3,75,0,0
49438,-71.4285714285714,4,2,99,5,0,0
49548,-71.4285714285714,4,2,3,75,0,0
49985,434.782608695652,5,2,3,75,1,0
49985,-58.8235294117647,5,2,3,75,0,0
51287,-58.8235294117647,5,2,99,5,0,0
51396,-58.8235294117647,5,2,3,75,0,0
51722,-71.4285714285714,5,2,1,75,0,0
52158,434.782608695652,4,2,3,75,1,0
52158,-90.9090909090909,4,2,3,75,0,0
53352,-90.9090909090909,4,2,99,5,0,0
53462,-90.9090909090909,4,2,3,75,0,0
53897,-71.4285714285714,4,2,1,75,0,0
54332,-71.4285714285714,4,2,3,75,0,0
55201,-71.4285714285714,4,2,99,5,0,0
55310,-71.4285714285714,4,2,2,75,0,0
55418,-71.4285714285714,4,2,1,75,0,0
55636,434.782608695652,5,2,3,75,1,0
55636,-58.8235294117647,5,2,3,75,0,0
56722,-58.8235294117647,5,2,99,5,0,0
56831,-58.8235294117647,5,2,3,75,0,0
57665,-58.8235294117647,5,2,1,75,0,0
57809,434.782608695652,4,2,3,65,1,0
57809,-125,4,2,3,65,0,0
63895,-125,4,2,1,65,0,0
64330,-76.9230769230769,4,2,5,65,0,0
64438,-76.9230769230769,4,2,99,5,0,0
64547,-76.9230769230769,4,2,1,65,0,0
64655,-76.9230769230769,4,2,99,5,0,0
64764,-76.9230769230769,4,2,1,70,0,0
64982,-100,4,2,1,70,0,0
65090,-100,4,2,99,5,0,0
65199,-66.6666666666667,4,2,3,70,0,0
65307,-66.6666666666667,4,2,99,5,0,0
65416,-66.6666666666667,4,2,3,70,0,0
65634,-83.3333333333333,4,2,3,70,0,0
65742,-83.3333333333333,4,2,99,5,0,0
65851,-83.3333333333333,4,2,3,70,0,0
65959,-83.3333333333333,4,2,99,5,0,0
66069,-83.3333333333333,4,2,3,70,0,0
66938,-71.4285714285714,4,2,3,70,0,0
67046,-71.4285714285714,4,2,99,5,0,0
67156,-71.4285714285714,4,2,3,70,0,0
67373,-58.8235294117647,4,2,3,70,0,0
67481,-58.8235294117647,4,2,99,5,0,0
67590,-58.8235294117647,4,2,3,70,0,0
67698,-58.8235294117647,4,2,99,5,0,0
67808,-58.8235294117647,4,2,3,70,0,0
67916,-58.8235294117647,4,2,99,5,0,0
68025,-58.8235294117647,4,2,1,70,0,0
68134,-58.8235294117647,4,2,99,5,0,0
68243,-100,4,2,3,80,0,0
68352,-58.8235294117647,4,2,99,5,0,0
68460,-100,4,2,3,80,0,0
68677,-83.3333333333333,4,2,3,80,0,0
68785,-83.3333333333333,4,2,99,5,0,0
68895,-83.3333333333333,4,2,3,80,0,0
69220,-83.3333333333333,4,2,99,5,0,0
69330,-83.3333333333333,4,2,3,80,0,0
69438,-83.3333333333333,4,2,99,5,0,0
69547,-58.8235294117647,4,2,3,80,0,0
69655,-58.8235294117647,4,2,99,5,0,0
69764,-58.8235294117647,4,2,3,80,0,0
69872,-58.8235294117647,4,2,99,5,0,0
69982,-58.8235294117647,4,2,3,80,0,0
70851,-52.6315789473684,4,2,3,80,0,0
71503,-52.6315789473684,4,2,1,75,0,0
71611,-52.6315789473684,4,2,1,80,0,0
72590,-52.6315789473684,4,2,3,75,0,0
73025,-76.9230769230769,4,2,3,75,0,0
74764,-100,4,2,3,75,0,0
75199,-76.9230769230769,4,2,3,75,0,0
75525,-100,4,2,3,75,0,0
77373,-133.333333333333,4,2,3,75,0,0
78243,-66.6666666666667,4,2,5,75,0,0
78460,-66.6666666666667,4,2,1,75,0,0
78677,-66.6666666666667,4,2,1,80,0,0
79112,-66.6666666666667,4,2,3,80,0,0
80416,-58.8235294117647,4,2,3,80,0,0
81069,-66.6666666666667,4,2,3,80,0,0
81286,-58.8235294117647,4,2,3,80,0,0
81721,-90.9090909090909,4,2,3,80,0,0
82373,-66.6666666666667,4,2,3,80,0,0
83967,-66.6666666666667,4,2,1,80,0,0
84112,-66.6666666666667,4,2,2,80,0,0
84330,-66.6666666666667,4,2,1,80,0,0
84402,-66.6666666666667,4,2,2,80,0,0
84474,-66.6666666666667,4,2,1,80,0,0
85199,-100,4,2,1,80,0,0
85271,-100,4,2,3,80,0,0
85416,-100,4,2,1,80,0,0
85634,-71.4285714285714,4,2,3,80,0,0
86069,-71.4285714285714,4,2,1,80,0,0
86286,-71.4285714285714,4,2,2,80,0,0
86503,-71.4285714285714,4,2,1,80,0,0
86721,-71.4285714285714,4,2,2,80,0,0
86938,-71.4285714285714,4,2,1,80,0,0
87156,-71.4285714285714,4,2,2,80,0,0
87373,-71.4285714285714,4,2,1,80,0,0
87590,-71.4285714285714,4,2,2,80,0,0
87808,-71.4285714285714,4,2,1,80,0,0
88025,-71.4285714285714,4,2,2,80,0,0
88243,-71.4285714285714,4,2,1,80,0,0
88895,-71.4285714285714,4,2,4,80,0,0
89438,-83.3333333333333,4,2,4,80,0,0
89546,-83.3333333333333,4,2,1,80,0,0
89764,-83.3333333333333,4,2,2,80,0,0
89982,-62.5,4,2,1,80,0,0
90199,-62.5,4,2,2,80,0,0
90416,-62.5,4,2,1,80,0,0
90634,-62.5,4,2,2,80,0,0
90851,-62.5,4,2,1,80,0,0
91286,-71.4285714285714,4,2,1,80,0,0
92264,-71.4285714285714,4,2,3,80,0,0
92373,-71.4285714285714,4,2,1,80,0,0
92481,-71.4285714285714,4,2,2,80,0,0
92590,-71.4285714285714,4,2,3,80,0,0
93025,-71.4285714285714,4,2,1,80,0,0
94112,-71.4285714285714,4,2,2,80,0,0
94330,-71.4285714285714,4,2,1,80,0,0
94547,-71.4285714285714,4,2,2,80,0,0
94764,-71.4285714285714,4,2,1,80,0,0
94982,-71.4285714285714,4,2,2,80,0,0
95199,-71.4285714285714,4,2,1,80,0,0
95851,-71.4285714285714,4,2,4,80,0,0
96503,-71.4285714285714,4,2,7,80,0,0
97590,-55.5555555555556,4,2,7,80,0,0
97808,-71.4285714285714,4,2,7,80,0,0
98460,-71.4285714285714,4,2,1,80,0,0
98786,-71.4285714285714,4,2,3,80,0,0
99003,-71.4285714285714,4,2,1,80,0,0
99330,-71.4285714285714,4,2,3,80,0,0
99547,-71.4285714285714,4,2,1,80,0,0
101069,-83.3333333333333,4,2,1,80,0,0
102808,-71.4285714285714,4,2,1,80,0,0
104112,-100,4,2,1,80,0,0
104547,-71.4285714285714,4,2,1,80,0,0
106069,-71.4285714285714,4,2,3,80,0,0
106286,-71.4285714285714,4,2,1,80,0,0
106395,-71.4285714285714,4,2,2,80,0,0
106938,-71.4285714285714,4,2,1,80,0,0
109547,-58.8235294117647,4,2,1,80,0,0
109764,-71.4285714285714,4,2,1,80,0,0
111938,-71.4285714285714,4,2,2,80,0,0
112373,-71.4285714285714,4,2,1,80,0,0
112808,-71.4285714285714,4,2,3,80,0,0
113025,-71.4285714285714,4,2,1,80,0,0
113243,-71.4285714285714,4,2,2,80,0,0
113460,-133.333333333333,4,2,3,65,0,0
114112,-133.333333333333,4,2,1,65,0,0
115742,-133.333333333333,4,2,99,5,0,0
115851,-133.333333333333,4,2,1,65,0,0
116177,-133.333333333333,4,2,2,65,0,0
116286,-133.333333333333,4,2,1,65,0,0
117916,-133.333333333333,4,2,2,65,0,0
118025,-133.333333333333,4,2,1,65,0,0
118677,-133.333333333333,4,2,3,65,0,0
119330,-133.333333333333,4,2,1,65,0,0
120090,-133.333333333333,4,2,2,65,0,0
120199,-133.333333333333,4,2,1,65,0,0
120960,-133.333333333333,4,2,99,5,0,0
121069,-133.333333333333,4,2,1,65,0,0
121503,-95.2380952380951,4,2,1,65,0,0
122046,-95.2380952380951,4,2,99,5,0,0
122156,-95.2380952380951,4,2,1,65,0,0
122373,-133.333333333333,4,2,1,65,0,0
122590,-133.333333333333,4,2,2,65,0,0
122808,-133.333333333333,4,2,1,65,0,0
123677,-133.333333333333,4,2,3,65,0,0
124547,-133.333333333333,4,2,1,65,0,0
124764,-100,4,2,1,65,0,0
125308,-100,4,2,2,65,0,0
125416,-100,4,2,1,65,0,0
127916,-100,4,2,2,65,0,0
128025,-100,4,2,1,65,0,0
130308,-100,4,2,2,65,0,0
130525,-100,4,2,1,65,0,0
133134,-100,4,2,2,65,0,0
133243,-100,4,2,1,65,0,0
133677,-100,4,2,5,65,0,0
134003,-100,4,2,3,65,0,0
134112,-100,4,2,1,65,0,0
134221,-100,4,2,2,65,0,0
134330,-100,4,2,3,65,0,0
134872,-100,4,2,2,65,0,0
134982,-100,4,2,3,65,0,0
135525,-100,4,2,1,65,0,0
135851,-100,4,2,3,65,0,0
135960,-100,4,2,1,65,0,0
136069,-100,4,2,2,65,0,0
136177,-100,4,2,1,65,0,0
136286,-100,4,2,3,65,0,0
136611,-100,4,2,1,65,0,0
136721,-100,4,2,3,65,0,0
137264,-100,4,2,1,65,0,0
137590,-100,4,2,3,65,0,0
137699,-100,4,2,2,65,0,0
138025,-100,4,2,3,65,0,0
138351,-100,4,2,1,65,0,0
138460,-100,4,2,3,65,0,0
139111,-100,4,2,1,65,0,0
139221,-100,4,2,3,65,0,0
139438,-100,4,2,1,65,0,0
139547,-100,4,2,3,65,0,0
140090,-100,4,2,2,65,0,0
140199,-100,4,2,3,65,0,0
140743,-100,4,2,2,65,0,0
141069,-100,4,2,3,65,0,0
141829,-100,4,2,2,65,0,0
141938,-100,4,2,3,65,0,0
142482,-100,4,2,2,65,0,0
142808,-100,4,2,3,65,0,0
143568,-100,4,2,2,65,0,0
143677,-100,4,2,3,65,0,0
143895,-76.9230769230769,4,2,3,65,0,0
144547,-76.9230769230769,4,2,1,65,0,0
144656,-76.9230769230769,4,2,2,65,0,0
144764,-166.666666666667,4,2,2,70,0,0
145362,-166.666666666667,4,2,1,70,0,0
145524,-166.666666666667,4,2,99,5,0,0
145634,-166.666666666667,4,2,1,70,0,0
145851,-66.6666666666667,4,2,1,70,0,0
145923,-66.6666666666667,4,2,2,70,0,0
146069,-66.6666666666667,4,2,3,70,0,0
146286,-66.6666666666667,4,2,1,70,0,0
146395,-66.6666666666667,4,2,2,70,0,0
146503,-133.333333333333,4,2,3,70,0,0
147263,-133.333333333333,4,2,99,5,0,0
147373,-133.333333333333,4,2,3,70,0,0
147590,-66.6666666666667,4,2,3,70,0,0
148025,-66.6666666666667,4,2,1,70,0,0
148243,-100,4,2,1,70,0,0
148351,-100,4,2,99,5,0,0
148460,-100,4,2,3,70,0,0
148568,-100,4,2,99,5,0,0
148677,-100,4,2,1,70,0,0
149112,-76.9230769230769,4,2,1,70,0,0
149256,-76.9230769230769,4,2,2,70,0,0
149547,-76.9230769230769,4,2,1,70,0,0
149982,-133.333333333333,4,2,3,70,0,0
150634,-133.333333333333,4,2,1,70,0,0
150851,-66.6666666666667,4,2,1,70,0,0
151069,-66.6666666666667,4,2,3,70,0,0
151213,-66.6666666666667,4,2,2,70,0,0
151286,-66.6666666666667,4,2,1,70,0,0
151721,-133.333333333333,4,2,3,70,0,0
152481,-133.333333333333,4,2,99,5,0,0
152590,-181.818181818181,4,2,3,70,0,0
153024,-181.818181818181,4,2,7,70,0,0
153460,-166.666666666667,4,2,7,70,0,0
155416,-133.333333333333,4,2,7,70,0,0
156286,-181.818181818181,4,2,7,70,0,0
157156,-133.333333333333,4,2,7,70,0,0
158243,-133.333333333333,4,2,1,70,0,0
158895,-181.818181818181,4,2,1,70,0,0
159329,-181.818181818181,4,2,7,70,0,0
160417,434.782608695652,3,2,1,70,1,0
160417,-1000,3,2,1,70,0,0
161286,-1000,3,2,99,5,0,0
161414,-1000,3,2,1,70,0,0
161830,-1000,3,2,99,5,0,0
161938,-83.3333333333333,3,2,3,70,0,0
162264,-83.3333333333333,3,2,99,5,0,0
162373,-55.5555555555556,3,2,1,70,0,0
162699,-55.5555555555556,3,2,99,5,0,0
162808,-83.3333333333333,3,2,4,70,0,0
163134,-83.3333333333333,3,2,99,5,0,0
163243,-333.333333333333,3,2,2,70,0,0
164112,-333.333333333333,3,2,99,5,0,0
164764,-166.666666666667,3,2,2,70,0,0
164981,-166.666666666667,3,2,99,5,0,0
165090,-166.666666666667,3,2,2,70,0,0
165307,-166.666666666667,3,2,99,5,0,0
165416,-166.666666666667,3,2,2,70,0,0
166214,-166.666666666667,3,2,1,70,0,0
166359,-166.666666666667,3,2,3,70,0,0
166612,-166.666666666667,3,2,1,70,0,0
166938,-1000,3,2,1,70,0,0
167808,-1000,3,2,99,5,0,0
168460,-83.3333333333333,3,2,3,70,0,0
168786,-83.3333333333333,3,2,99,5,0,0
168895,-55.5555555555556,3,2,1,70,0,0
169221,-55.5555555555556,3,2,99,5,0,0
169330,-83.3333333333333,3,2,4,70,0,0
169656,-83.3333333333333,3,2,99,5,0,0
169765,-333.333333333333,3,2,2,70,0,0
170634,-333.333333333333,3,2,99,5,0,0
171286,-166.666666666667,3,2,2,70,0,0
171503,-166.666666666667,3,2,99,5,0,0
171612,-166.666666666667,3,2,2,70,0,0
171829,-166.666666666667,3,2,99,5,0,0
171938,-166.666666666667,3,2,2,70,0,0
173460,-1000,3,2,2,70,0,0
174330,-1000,3,2,99,5,0,0
174982,-71.4285714285714,3,2,3,70,0,0
175308,-71.4285714285714,3,2,99,5,0,0
175417,-50,3,2,1,70,0,0
175743,-50,3,2,99,5,0,0
175852,-71.4285714285714,3,2,4,70,0,0
176178,-71.4285714285714,3,2,99,5,0,0
176286,-333.333333333333,3,2,2,70,0,0
177156,-333.333333333333,3,2,99,5,0,0
177808,-166.666666666667,3,2,2,70,0,0
178025,-166.666666666667,3,2,99,5,0,0
178134,-166.666666666667,3,2,2,70,0,0
178351,-166.666666666667,3,2,99,5,0,0
178460,-166.666666666667,3,2,2,70,0,0
179547,-166.666666666667,3,2,1,70,0,0
179620,-166.666666666667,3,2,2,70,0,0
179982,-1000,3,2,2,70,0,0
180852,-1000,3,2,99,5,0,0
181504,-71.4285714285714,3,2,3,70,0,0
181830,-71.4285714285714,3,2,99,5,0,0
181938,-50,3,2,1,70,0,0
182264,-50,3,2,99,5,0,0
182373,-71.4285714285714,3,2,4,70,0,0
182699,-71.4285714285714,3,2,99,5,0,0
182808,-666.666666666667,3,2,3,70,0,0
183678,-666.666666666667,3,2,99,5,0,0
184547,-666.666666666667,3,2,3,70,0,0
185417,-666.666666666667,3,2,99,5,0,0
186215,-666.666666666667,3,2,2,55,0,0
186503,434.782608695652,4,2,3,55,1,0
186503,-100,4,2,3,55,0,0
187136,-100,4,2,2,55,0,0
187951,-86.0234312990937,4,2,2,55,0,0
189980,-142.857142857143,4,2,2,55,0,0
190318,-161.290322580645,4,2,2,55,0,0
191187,-161.290322580645,4,2,99,5,0,0
191236,-142.857142857143,4,2,2,55,0,0
194328,-100,4,2,2,55,0,0
194980,-142.857142857143,4,2,2,55,0,0
196502,-100,4,2,1,55,0,0
197153,-100,4,2,2,55,0,0
197371,-100,4,2,1,55,0,0
197589,-100,4,2,2,55,0,0
197806,-100,4,2,1,55,0,0
198023,-100,4,2,2,55,0,0
198241,-100,4,2,1,55,0,0
198893,-100,4,2,2,55,0,0
199110,-100,4,2,1,55,0,0
199328,-100,4,2,2,55,0,0
199545,-100,4,2,1,55,0,0
199763,-100,4,2,2,55,0,0
199980,-100,4,2,1,55,0,0
200197,-100,4,2,1,60,0,0
201176,-100,4,2,7,60,0,0
201719,-100,4,2,1,60,0,0
202806,-100,4,2,2,60,0,0
203023,-100,4,2,1,60,0,0
203350,-100,4,2,2,60,0,0
203458,-100,4,2,1,60,0,0
203566,-100,4,2,99,5,0,0
203676,-100,4,2,1,60,0,0
203784,-100,4,2,99,5,0,0
203893,-100,4,2,1,60,0,0
207371,-76.9230769230769,4,2,1,60,0,0
207589,-76.9230769230769,4,2,2,60,0,0
207806,-76.9230769230769,4,2,1,60,0,0
209763,-100,4,2,2,60,0,0
210089,-76.9230769230769,4,2,1,60,0,0
210415,-111.111111111111,4,2,1,60,0,0
210523,-111.111111111111,4,2,99,5,0,0
210632,-111.111111111111,4,2,1,60,0,0
210740,-111.111111111111,4,2,99,5,0,0
210850,-111.111111111111,4,2,7,60,0,0
211828,-83.3333333333333,4,2,1,60,0,0
212045,-83.3333333333333,4,2,99,5,0,0
212154,-83.3333333333333,4,2,1,60,0,0
212262,-83.3333333333333,4,2,99,5,0,0
212371,-83.3333333333333,4,2,1,60,0,0
212479,-83.3333333333333,4,2,99,5,0,0
212589,-83.3333333333333,4,2,2,60,0,0
213023,-71.4285714285714,4,2,1,60,0,0
213131,-71.4285714285714,4,2,99,5,0,0
213241,-71.4285714285714,4,2,1,60,0,0
213784,-71.4285714285714,4,2,3,60,0,0
214110,-71.4285714285714,4,2,1,60,0,0
214329,434.782608695652,3,2,1,70,1,0
214329,-1000,3,2,1,70,0,0
215197,-1000,3,2,99,5,0,0
215850,-83.3333333333333,3,2,3,70,0,0
216176,-83.3333333333333,3,2,99,5,0,0
216284,-55.5555555555556,3,2,1,70,0,0
216610,-55.5555555555556,3,2,99,5,0,0
216719,-83.3333333333333,3,2,4,70,0,0
217045,-83.3333333333333,3,2,99,5,0,0
217154,-333.333333333333,3,2,1,70,0,0
218023,-333.333333333333,3,2,99,5,0,0
218893,-333.333333333333,3,2,1,70,0,0
219110,-76.9230769230769,3,2,1,70,0,0
219473,-76.9230769230769,3,2,3,70,0,0
220052,-76.9230769230769,3,2,1,70,0,0
220197,-76.9230769230769,3,2,2,70,0,0
220342,-76.9230769230769,3,2,1,70,0,0
220849,-1000,3,2,1,70,0,0
221719,-1000,3,2,99,5,0,0
222371,-83.3333333333333,3,2,3,70,0,0
222697,-83.3333333333333,3,2,99,5,0,0
222806,-55.5555555555556,3,2,1,70,0,0
223132,-55.5555555555556,3,2,99,5,0,0
223241,-83.3333333333333,3,2,4,70,0,0
223567,-83.3333333333333,3,2,99,5,0,0
223675,-333.333333333333,3,2,2,70,0,0
224364,-333.333333333333,3,2,99,5,0,0
225197,-166.666666666667,3,2,2,70,0,0
225414,-166.666666666667,3,2,99,5,0,0
225523,-166.666666666667,3,2,2,70,0,0
225740,-166.666666666667,3,2,99,5,0,0
225849,-166.666666666667,3,2,2,70,0,0
227372,434.782608695652,4,2,3,70,1,0
227372,-83.3333333333333,4,2,3,70,0,0
230523,-83.3333333333333,4,2,99,5,0,0
230632,-83.3333333333333,4,2,1,70,0,0
230740,-83.3333333333333,4,2,99,5,0,0
230850,-83.3333333333333,4,2,3,70,0,0
233893,-62.5,4,2,1,70,0,0
234001,-62.5,4,2,99,5,0,0
234110,-62.5,4,2,1,70,0,0
234218,-62.5,4,2,99,5,0,0
234328,-83.3333333333333,4,2,3,70,0,0
237371,-83.3333333333333,4,2,1,70,0,0
237806,-83.3333333333333,4,2,3,70,0,0
239110,-83.3333333333333,4,2,1,70,0,0
239545,-83.3333333333333,4,2,4,70,0,0
240415,-66.6666666666667,4,2,1,70,0,0
240632,-66.6666666666667,4,2,4,70,0,0
241067,-66.6666666666667,4,2,3,70,0,0
241284,-68.9655172413793,4,2,3,70,0,0
241719,-68.9655172413793,4,2,1,70,0,0
247914,-68.9655172413793,4,2,2,70,0,0
248676,-68.9655172413793,4,2,1,70,0,0
252371,-68.9655172413793,4,2,3,70,0,0
252806,-68.9655172413793,4,2,1,70,0,0
253023,-68.9655172413793,4,2,2,70,0,0
253784,-68.9655172413793,4,2,1,70,0,0
254001,-68.9655172413793,4,2,2,70,0,0
254110,-68.9655172413793,4,2,3,70,0,0
254328,-68.9655172413793,4,2,1,70,0,0
254545,-68.9655172413793,4,2,2,70,0,0
254762,-80,4,2,2,70,0,0
254870,-80,4,2,99,5,0,0
254980,-80,4,2,4,70,0,0
255088,-80,4,2,99,5,0,0
255197,-80,4,2,3,65,0,0
256067,-100,4,2,3,65,0,0
260197,-100,4,2,1,65,0,0
260306,-100,4,2,2,65,0,0
260414,-100,4,2,3,65,0,0
263675,-100,4,2,1,65,0,0
263892,-100,4,2,3,65,0,0
264979,-76.9230769230769,4,2,4,65,0,0
265087,-76.9230769230769,4,2,99,5,0,0
265197,-76.9230769230769,4,2,4,65,0,0
265522,-76.9230769230769,4,2,99,5,0,0
265631,-76.9230769230769,4,2,3,65,0,0
266066,-76.9230769230769,4,2,1,65,0,0
268785,-76.9230769230769,4,2,99,5,0,0
268893,-76.9230769230769,4,2,1,65,0,0
269002,-76.9230769230769,4,2,99,5,0,0
269110,-76.9230769230769,4,2,3,65,0,0
269544,-76.9230769230769,4,2,1,65,0,0
269979,-62.5,4,2,1,65,0,0
270087,-62.5,4,2,99,5,0,0
270197,-62.5,4,2,1,65,0,0
270305,-62.5,4,2,99,5,0,0
270414,-62.5,4,2,1,65,0,0
273022,-62.5,4,2,3,65,0,0
273131,-62.5,4,2,1,65,0,0
273348,-62.5,4,2,3,65,0,0
273457,-62.5,4,2,1,65,0,0
273674,-62.5,4,2,2,65,0,0
273783,-62.5,4,2,1,65,0,0
274182,-62.5,4,2,2,65,0,0
274327,-71.4285714285714,4,2,2,65,0,0
274653,-71.4285714285714,4,2,99,5,0,0
274762,-71.4285714285714,4,2,1,65,0,0
274834,-71.4285714285714,4,2,2,65,0,0
275197,-71.4285714285714,4,2,1,65,0,0
275305,-71.4285714285714,4,2,2,65,0,0
275631,-71.4285714285714,4,2,1,65,0,0
276066,-62.5,4,2,1,65,0,0
276174,-62.5,4,2,99,5,0,0
276284,-62.5,4,2,3,65,0,0
276392,-62.5,4,2,99,5,0,0
276501,-62.5,4,2,3,65,0,0
276609,-62.5,4,2,99,5,0,0
276718,-62.5,4,2,3,65,0,0
276826,-62.5,4,2,99,5,0,0
276936,-62.5,4,2,3,65,0,0
277261,-62.5,4,2,99,5,0,0
277370,-62.5,4,2,3,65,0,0
277478,-62.5,4,2,99,5,0,0
277588,-62.5,4,2,3,65,0,0
278131,-62.5,4,2,99,5,0,0
278240,-62.5,4,2,3,65,0,0
278348,-62.5,4,2,99,5,0,0
278457,-62.5,4,2,3,65,0,0
278565,-62.5,4,2,99,5,0,0
278675,-62.5,4,2,3,65,0,0
279000,-62.5,4,2,99,5,0,0
279110,-62.5,4,2,3,65,0,0
279218,-62.5,4,2,99,5,0,0
279327,-62.5,4,2,3,65,0,0
279762,-76.9230769230769,4,2,1,65,0,0
279870,-76.9230769230769,4,2,99,5,0,0
279979,-76.9230769230769,4,2,1,65,0,0
280305,-76.9230769230769,4,2,99,5,0,0
280414,-76.9230769230769,4,2,1,65,0,0
280522,-76.9230769230769,4,2,99,5,0,0
280631,-62.5,4,2,4,65,0,0
280739,-62.5,4,2,99,5,0,0
280849,-62.5,4,2,4,65,0,0
281066,-62.5,4,2,1,65,0,0
281174,-62.5,4,2,99,5,0,0
281284,-62.5,4,2,3,65,0,0
281392,-62.5,4,2,99,5,0,0
281501,-62.5,4,2,3,65,0,0
281826,-62.5,4,2,99,5,0,0
281936,-62.5,4,2,3,65,0,0
282478,-62.5,4,2,99,5,0,0
282588,-62.5,4,2,3,65,0,0
282696,-62.5,4,2,99,5,0,0
282805,-62.5,4,2,3,65,0,0
283565,-62.5,4,2,99,5,0,0
283675,-62.5,4,2,3,65,0,0
284218,-62.5,4,2,99,5,0,0
284327,-62.5,4,2,3,65,0,0
284435,-62.5,4,2,99,5,0,0
284544,-62.5,4,2,3,65,0,0
284652,-62.5,4,2,99,5,0,0
284762,-62.5,4,2,3,65,0,0
284979,-76.9230769230769,4,2,1,65,0,0
285087,-76.9230769230769,4,2,99,5,0,0
285197,-76.9230769230769,4,2,1,65,0,0
285739,-76.9230769230769,4,2,99,5,0,0
285849,-76.9230769230769,4,2,1,65,0,0
285957,-76.9230769230769,4,2,99,5,0,0
286066,-76.9230769230769,4,2,1,65,0,0
286284,-62.5,4,2,1,65,0,0
286392,-62.5,4,2,99,5,0,0
286501,-62.5,4,2,3,75,0,0
291501,-62.5,4,2,1,75,0,0
291719,-90.9090909090909,4,2,1,65,0,0
295197,-90.9090909090909,4,2,3,65,0,0
295632,-90.9090909090909,4,2,1,65,0,0
296937,-83.3333333333333,4,2,3,65,0,0
297371,-83.3333333333333,4,2,1,65,0,0
297479,-83.3333333333333,4,2,99,5,0,0
297589,-83.3333333333333,4,2,1,65,0,0
297697,-83.3333333333333,4,2,99,5,0,0
297806,-83.3333333333333,4,2,1,65,0,0
298349,-83.3333333333333,4,2,99,5,0,0
298458,-83.3333333333333,4,2,1,65,0,0
298566,-83.3333333333333,4,2,99,5,0,0
298676,-83.3333333333333,4,2,1,65,0,0
299218,-83.3333333333333,4,2,99,5,0,0
299328,-83.3333333333333,4,2,1,65,0,0
299436,-83.3333333333333,4,2,99,5,0,0
299545,-83.3333333333333,4,2,1,65,0,0
299653,-83.3333333333333,4,2,99,5,0,0
299763,-83.3333333333333,4,2,1,65,0,0
299980,-62.5,4,2,1,65,0,0
300088,-62.5,4,2,99,5,0,0
300197,-62.5,4,2,1,65,0,0
300415,-83.3333333333333,4,2,3,65,0,0
300850,-83.3333333333333,4,2,1,65,0,0
301936,-83.3333333333333,4,2,3,65,0,0
302009,-83.3333333333333,4,2,1,65,0,0
302081,-83.3333333333333,4,2,2,65,0,0
302153,-76.9230769230769,4,2,3,65,0,0
302588,-76.9230769230769,4,2,1,65,0,0
305631,-76.9230769230769,4,2,3,65,0,0
306066,-76.9230769230769,4,2,1,65,0,0
307153,-76.9230769230769,4,2,3,65,0,0
307261,-76.9230769230769,4,2,1,65,0,0
307370,-76.9230769230769,4,2,1,70,0,0
308240,-62.5,4,2,1,70,0,0
310849,-62.5,4,2,3,70,0,0
311718,-62.5,4,2,1,70,0,0
311936,-62.5,4,2,3,70,0,0
312153,-62.5,4,2,1,70,0,0
312370,-62.5,4,2,3,65,0,0
313023,-62.5,4,2,1,65,0,0
314110,-62.5,4,2,1,70,0,0
314327,-62.5,4,2,3,70,0,0
314762,-62.5,4,2,1,70,0,0
315197,-83.3333333333333,4,2,1,70,0,0
315718,-83.3333333333333,4,2,3,70,0,0
316501,-83.3333333333333,4,2,1,70,0,0
317478,-83.3333333333333,4,2,99,5,0,0
317588,-83.3333333333333,4,2,1,70,0,0
317696,-83.3333333333333,4,2,99,5,0,0
317805,-83.3333333333333,4,2,3,70,0,0
318240,-83.3333333333333,4,2,1,70,0,0
319399,-83.3333333333333,4,2,2,70,0,0
319544,-66.6666666666667,4,2,3,75,0,0
319761,-66.6666666666667,4,2,1,75,0,0
319870,-66.6666666666667,4,2,99,5,0,0
319979,-66.6666666666667,4,2,1,75,0,0
320415,-66.6666666666667,4,2,1,55,0,0
320849,-66.6666666666667,4,2,1,85,0,0
321284,-66.6666666666667,4,2,2,55,0,0
322153,-66.6666666666667,4,2,1,75,0,0
323312,-66.6666666666667,4,2,2,75,0,0
323457,-66.6666666666667,4,2,1,75,0,0
324001,-66.6666666666667,4,2,3,75,0,0
324110,-66.6666666666667,4,2,1,75,0,0
324218,-66.6666666666667,4,2,2,75,0,0
325414,-100,4,2,2,75,0,0
326066,-55.5555555555556,4,2,3,75,0,0
326500,-55.5555555555556,4,2,99,5,0,0
326502,461.538461538462,4,2,99,5,1,0
328347,434.782608695652,4,2,3,60,1,0
328564,-125,4,2,3,60,0,0
328882,-125,4,2,1,60,0,0
328890,-125,4,2,2,60,0,0
328998,-125,4,2,1,60,0,0
329760,-125,4,2,2,60,0,0
329869,-125,4,2,1,60,0,0
330629,-125,4,2,2,60,0,0
330667,-125,4,2,1,60,0,0
332368,-125,4,2,2,60,0,0
332476,-125,4,2,1,60,0,0
333889,-125,4,2,2,60,0,0
334215,-125,4,2,1,60,0,0
334976,-125,4,2,2,60,0,0
335085,-125,4,2,1,60,0,0
337585,-125,4,2,2,60,0,0
337694,-125,4,2,1,60,0,0
338129,-125,4,2,5,60,0,0
338455,-125,4,2,3,60,0,0
338672,-125,4,2,1,60,0,0
338781,-125,4,2,1,65,0,0
338998,-100,4,2,1,65,0,0
339324,-100,4,2,2,65,0,0
339432,-100,4,2,3,65,0,0
339976,-100,4,2,1,65,0,0
340302,-100,4,2,3,65,0,0
340410,-100,4,2,1,65,0,0
340737,-100,4,2,3,65,0,0
341063,-100,4,2,1,65,0,0
341171,-100,4,2,3,65,0,0
341715,-100,4,2,1,65,0,0
341932,-100,4,2,2,65,0,0
342042,-100,4,2,3,65,0,0
342150,-100,4,2,2,65,0,0
342476,-100,4,2,3,65,0,0
342802,-100,4,2,1,65,0,0
342911,-100,4,2,3,65,0,0
343889,-100,4,2,1,65,0,0
344216,-100,4,2,3,65,0,0
344542,-100,4,2,1,65,0,0
344650,-100,4,2,3,65,0,0
345194,-100,4,2,2,65,0,0
345520,-100,4,2,3,65,0,0
346281,-100,4,2,2,65,0,0
346389,-100,4,2,3,65,0,0
347042,-125,4,2,3,65,0,0
347150,-125,4,2,2,65,0,0
347259,-125,4,2,3,65,0,0
347694,-76.9230769230769,4,2,3,65,0,0
348020,-76.9230769230769,4,2,1,65,0,0
348129,-76.9230769230769,4,2,3,65,0,0
348998,-76.9230769230769,4,2,1,65,0,0
349107,-76.9230769230769,4,2,2,65,0,0
349216,-90.9090909090909,4,2,2,65,0,0
349433,-90.9090909090909,4,2,3,65,0,0
349868,-90.9090909090909,4,2,1,65,0,0
350629,-90.9090909090909,4,2,2,65,0,0
350737,-90.9090909090909,4,2,1,65,0,0
353237,-90.9090909090909,4,2,2,65,0,0
353346,-90.9090909090909,4,2,1,65,0,0
353672,-71.4285714285714,4,2,1,65,0,0
354098,-71.4285714285714,4,2,2,65,0,0
354106,-71.4285714285714,4,2,3,65,0,0
354650,-83.3333333333333,4,2,3,65,0,0
355084,-83.3333333333333,4,2,1,65,0,0
355629,-83.3333333333333,4,2,2,65,0,0
355846,-83.3333333333333,4,2,1,65,0,0
356606,-83.3333333333333,4,2,99,5,0,0
356716,-83.3333333333333,4,2,2,65,0,0
356824,-83.3333333333333,4,2,1,65,0,0
356932,-83.3333333333333,4,2,99,5,0,0
357042,-83.3333333333333,4,2,1,65,0,0
358020,-76.9230769230769,4,2,1,65,0,0
358455,-76.9230769230769,4,2,2,65,0,0
358563,-76.9230769230769,4,2,1,65,0,0
358781,-83.3333333333333,4,2,1,65,0,0
358889,-83.3333333333333,4,2,99,5,0,0
358998,-83.3333333333333,4,2,5,65,0,0
359106,-83.3333333333333,4,2,99,5,0,0
359216,-83.3333333333333,4,2,5,65,0,0
359324,-83.3333333333333,4,2,3,65,0,0
359433,-83.3333333333333,4,2,1,65,0,0
359542,-83.3333333333333,4,2,2,65,0,0
359650,-83.3333333333333,4,2,2,70,0,0
359868,-83.3333333333333,4,2,3,70,0,0
360194,-83.3333333333333,4,2,2,70,0,0
360302,-83.3333333333333,4,2,3,70,0,0
361063,-83.3333333333333,4,2,1,70,0,0
361172,-83.3333333333333,4,2,3,70,0,0
361281,-83.3333333333333,4,2,1,70,0,0
361498,-83.3333333333333,4,2,2,70,0,0
361607,-83.3333333333333,4,2,3,70,0,0
362584,-83.3333333333333,4,2,1,70,0,0
362802,-83.3333333333333,4,2,2,70,0,0
362911,-83.3333333333333,4,2,3,70,0,0
363237,-83.3333333333333,4,2,2,70,0,0
363346,-83.3333333333333,4,2,3,70,0,0
363672,-83.3333333333333,4,2,1,70,0,0
363781,-83.3333333333333,4,2,3,70,0,0
364324,-66.6666666666667,4,2,3,70,0,0
364758,-66.6666666666667,4,2,1,70,0,0
364868,-83.3333333333333,4,2,1,65,0,0
364976,-83.3333333333333,4,2,99,5,0,0
365085,-83.3333333333333,4,2,3,65,0,0
365411,-83.3333333333333,4,2,1,65,0,0
365519,-83.3333333333333,4,2,3,65,0,0
365845,-83.3333333333333,4,2,99,5,0,0
365955,-83.3333333333333,4,2,3,65,0,0
366063,-83.3333333333333,4,2,2,65,0,0
366284,-83.3333333333333,4,2,3,65,0,0
366716,-51.2820512820513,4,2,3,65,0,0
367150,-51.2820512820513,4,2,2,65,0,0
367259,-51.2820512820513,4,2,3,65,0,0
367476,-64.5161290322581,4,2,3,65,0,0
367584,-64.5161290322581,4,2,99,5,0,0
367694,-64.5161290322581,4,2,3,65,0,0
367802,-64.5161290322581,4,2,2,65,0,0
368023,-64.5161290322581,4,2,3,65,0,0
368889,-64.5161290322581,4,2,2,65,0,0
368998,-64.5161290322581,4,2,3,65,0,0
369216,-66.6666666666667,4,2,3,65,0,0
369759,-66.6666666666667,4,2,2,60,0,0
369868,-66.6666666666667,4,2,1,65,0,0
369976,-66.6666666666667,4,2,2,65,0,0
370302,-125,4,2,2,60,0,0
370584,-125,4,2,1,60,0,0
371281,-100,4,2,1,60,0,0
372368,-100,4,2,2,60,0,0
372476,-100,4,2,1,60,0,0
374976,-100,4,2,2,60,0,0
375085,-100,4,2,1,60,0,0
375737,-76.9230769230769,4,2,1,60,0,0
375845,-76.9230769230769,4,2,2,60,0,0
375955,-76.9230769230769,4,2,1,60,0,0
376389,-100,4,2,1,60,0,0
376497,-100,4,2,2,60,0,0
376716,-100,4,2,1,60,0,0
376933,-100,4,2,2,60,0,0
377259,-100,4,2,1,60,0,0
377585,-100,4,2,2,60,0,0
377694,-100,4,2,1,60,0,0
379324,-100,4,2,2,60,0,0
379433,-100,4,2,1,60,0,0
379868,-100,4,2,2,60,0,0
380085,-100,4,2,3,60,0,0
380302,-100,4,2,1,60,0,0
380411,-100,4,2,2,60,0,0
380520,-90.9090909090909,4,2,2,60,0,0
380628,-90.9090909090909,4,2,99,5,0,0
380737,-90.9090909090909,4,2,2,60,0,0
381172,-90.9090909090909,4,2,3,60,0,0
381389,-125,4,2,3,60,0,0
381824,-58.8235294117647,4,2,3,60,0,0
381932,-58.8235294117647,4,2,1,60,0,0
382042,-58.8235294117647,4,2,3,60,0,0
382150,-58.8235294117647,4,2,1,60,0,0
382259,-54.054054054054,4,2,1,60,0,0
382368,-54.054054054054,4,2,2,60,0,0
382476,-54.054054054054,4,2,3,60,0,0
382911,-68.9655172413793,4,2,3,60,0,0
383455,-68.9655172413793,4,2,1,60,0,0
383672,-68.9655172413793,4,2,2,60,0,0
383781,-68.9655172413793,4,2,3,60,0,0
383889,-68.9655172413793,4,2,2,60,0,0
383998,-62.5,4,2,2,60,0,0
384216,-62.5,4,2,3,60,0,0
384324,-62.5,4,2,99,5,0,0
384433,-62.5,4,2,3,60,0,0
384542,-62.5,4,2,1,60,0,0
384650,-62.5,4,2,3,60,0,0
384759,-62.5,4,2,99,5,0,0
384868,-62.5,4,2,3,60,0,0
385628,-62.5,4,2,1,60,0,0
385955,-83.3333333333333,4,2,1,60,0,0
386281,-83.3333333333333,4,2,2,60,0,0
386389,-83.3333333333333,4,2,3,60,0,0
386607,-100,4,2,3,60,0,0
386932,-100,4,2,2,60,0,0
387259,-100,4,2,3,60,0,0
387476,-76.9230769230769,4,2,3,60,0,0
388020,-76.9230769230769,4,2,2,60,0,0
388129,-76.9230769230769,4,2,3,60,0,0
388672,-76.9230769230769,4,2,2,60,0,0
388998,-76.9230769230769,4,2,3,60,0,0
389216,-62.5,4,2,3,60,0,0
389758,-62.5,4,2,2,60,0,0
389867,-62.5,4,2,3,60,0,0
390737,-62.5,4,2,1,60,0,0
390846,-62.5,4,2,2,60,0,0
390955,-76.9230769230769,4,2,2,65,0,0
391607,-68.9655172413793,4,2,1,65,0,0
392368,-68.9655172413793,4,2,2,65,0,0
392476,-68.9655172413793,4,2,1,65,0,0
394976,-68.9655172413793,4,2,2,65,0,0
395085,-68.9655172413793,4,2,1,65,0,0
395303,-64.5161290322581,4,2,1,65,0,0
396173,-62.5,4,2,1,65,0,0
396281,-62.5,4,2,99,5,0,0
396390,-62.5,4,2,1,65,0,0
396498,-62.5,4,2,2,65,0,0
396824,-62.5,4,2,1,65,0,0
397368,-62.5,4,2,2,65,0,0
397477,-83.3333333333333,4,2,2,65,0,0
397694,-83.3333333333333,4,2,1,65,0,0
397802,-83.3333333333333,4,2,2,65,0,0
398129,-83.3333333333333,4,2,1,65,0,0
398346,-100,4,2,1,65,0,0
399759,-71.4285714285714,4,2,1,65,0,0
400194,-71.4285714285714,4,2,2,65,0,0
400302,-71.4285714285714,4,2,1,65,0,0
400575,-71.4285714285714,4,2,5,65,0,0
400628,-71.4285714285714,4,2,99,5,0,0
400738,-71.4285714285714,4,2,5,65,0,0
400846,-71.4285714285714,4,2,99,5,0,0
400955,-71.4285714285714,4,2,5,65,0,0
401064,-71.4285714285714,4,2,3,65,0,0
401173,-71.4285714285714,4,2,1,65,0,0
401281,-71.4285714285714,4,2,2,65,0,0
401390,-83.3333333333333,4,2,2,65,0,0
401498,-83.3333333333333,4,2,99,5,0,0
401607,-83.3333333333333,4,2,2,65,0,0
402041,-83.3333333333333,4,2,3,65,0,0
402259,-62.5,4,2,3,65,0,0
402585,-62.5,4,2,1,65,0,0
402911,-62.5,4,2,3,65,0,0
403019,-62.5,4,2,1,65,0,0
403238,-62.5,4,2,2,65,0,0
403346,-62.5,4,2,3,65,0,0
403564,-66.6666666666667,4,2,3,65,0,0
403672,-66.6666666666667,4,2,1,65,0,0
403781,-66.6666666666667,4,2,3,65,0,0
404324,-66.6666666666667,4,2,1,65,0,0
404433,-100,4,2,1,65,0,0
404476,-100,4,2,2,65,0,0
404651,-100,4,2,3,65,0,0
404759,-100,4,2,2,65,0,0
404977,-54.054054054054,4,2,2,65,0,0
405085,-54.054054054054,4,2,3,65,0,0
405411,-54.054054054054,4,2,1,65,0,0
405520,-54.054054054054,4,2,3,65,0,0
405738,-62.5,4,2,3,65,0,0
406281,-62.5,4,2,1,65,0,0
406824,-71.4285714285714,4,2,1,65,0,0
407258,-71.4285714285714,4,2,3,65,0,0
407477,-58.8235294117647,4,2,3,65,0,0
408890,-58.8235294117647,4,2,2,65,0,0
408998,-58.8235294117647,4,2,3,65,0,0
409759,-58.8235294117647,4,2,2,65,0,0
409868,-58.8235294117647,4,2,3,65,0,0
411390,-58.8235294117647,4,2,2,65,0,0
411498,-58.8235294117647,4,2,3,65,0,0
411607,-125,4,2,8,65,0,0
412042,-125,4,2,99,5,0,0

[Colours]
Combo1 : 183,73,235
Combo2 : 11,169,244
Combo3 : 71,77,184
Combo4 : 138,223,251
Combo5 : 40,125,202
Combo6 : 220,75,194
Combo7 : 220,227,138
Combo8 : 230,211,51

[HitObjects]
98,114,423,70,0,B|80:75|41:74|41:74|119:86|96:41|150:42|150:42|180:40|225:72|223:135|172:160|172:160|169:157|169:157|107:196|129:269,1,472.500018024445,4|0,3:2|2:0,2:0:0:0:
301,331,2017,37,0,3:0:0:0:
297,314,2089,1,0,3:0:0:0:
292,296,2162,1,12,2:0:0:0:
413,114,2379,2,0,B|431:75|470:74|470:74|392:86|415:41|361:42|361:42|331:40|286:72|288:135|339:160|339:160|342:157|342:157|404:196|382:269,1,472.499985580445,12|0,2:0|2:0,2:0:0:0:
153,185,3683,69,8,2:3:0:0:
163,188,3756,1,8,2:3:0:0:
172,196,3828,1,8,2:3:0:0:
178,204,3901,2,0,P|175:237|111:246,1,105,12|0,2:0|2:0,2:0:0:0:
358,96,4553,37,8,2:3:0:0:
342,105,4625,1,8,2:3:0:0:
331,114,4698,1,8,2:3:0:0:
323,128,4770,2,0,P|326:161|437:165,1,168,12|0,2:0|2:0,2:0:0:0:
134,15,5422,69,8,2:3:0:0:
148,21,5495,1,8,2:3:0:0:
167,33,5567,1,8,2:3:0:0:
184,46,5640,2,0,P|228:289|231:307,1,220.499993270874,12|0,2:0|2:0,2:0:0:0:
95,367,6075,37,8,2:0:0:0:
76,322,6147,1,8,2:0:0:0:
95,280,6220,1,8,2:0:0:0:
141,265,6292,1,8,2:0:0:0:
184,284,6365,69,0,3:0:0:0:
196,303,6437,1,0,3:0:0:0:
219,311,6509,1,8,2:3:0:0:
247,304,6582,1,8,2:3:0:0:
263,285,6654,1,8,2:3:0:0:
265,262,6727,1,8,2:3:0:0:
258,244,6799,1,0,3:0:0:0:
244,232,6872,1,0,3:0:0:0:
229,228,6944,53,8,2:0:0:0:
279,334,7162,1,0,3:0:0:0:
461,59,7379,6,0,B|367:74|367:74|361:71|361:71|247:88,1,188.999994232178,4|0,3:2|2:0,2:0:0:0:
265,97,7814,2,0,P|292:128|271:179,1,78.7500030040742,2|0,2:0|2:0,2:0:0:0:
156,308,8249,1,8,2:0:0:0:
146,218,8466,2,0,B|239:205|201:283|317:252,1,157.500006008148,2|2,2:0|2:0,2:0:0:0:
465,305,9118,5,0,3:0:0:0:
372,351,9336,2,0,P|384:278|400:174,1,157.500006008148,2|2,2:0|2:0,2:0:0:0:
267,33,9988,1,8,2:0:0:0:
350,83,10205,1,2,2:0:0:0:
348,115,10314,2,0,P|308:150|265:145,1,78.7500030040742,2|2,2:0|2:0,2:0:0:0:
264,136,10640,1,2,2:0:0:0:
108,34,10857,5,0,3:0:0:0:
126,77,10966,1,0,2:0:0:0:
137,126,11075,1,2,3:2:0:0:
1,249,11292,1,0,2:0:0:0:
42,122,11509,1,2,2:0:0:0:
221,254,11727,69,8,2:0:0:0:
119,228,11944,1,2,2:0:0:0:
0,46,12162,5,8,2:0:0:0:
150,0,12379,1,2,2:0:0:0:
99,284,12596,37,2,3:2:0:0:
126,190,12741,1,8,2:3:0:0:
232,243,12886,37,8,2:0:0:0:
164,103,13031,1,8,2:3:0:0:
248,156,13176,1,8,2:3:0:0:
109,193,13321,69,8,2:0:0:0:
242,70,13466,1,8,2:0:0:0:
143,16,13611,37,8,2:3:0:0:
143,16,13756,1,8,2:3:0:0:
80,118,13901,70,0,B|113:112|113:112|118:107|118:107|164:97,1,70.8749978370667,0|0,3:0|2:0,2:0:0:0:
237,154,14336,54,0,B|326:170|326:170|331:168|331:168|443:187,1,188.999994232178,4|0,3:2|2:0,2:0:0:0:
433,198,14770,2,0,P|445:237|418:275,1,78.7500030040742,2|2,2:0|2:0,2:0:0:0:
281,362,15205,1,8,2:0:0:0:
212,268,15422,1,2,2:0:0:0:
225,261,15531,2,0,L|336:288,1,78.7500030040742,2|2,2:0|2:0,2:0:0:0:
316,269,15857,1,2,3:2:0:0:
208,157,16075,5,0,3:0:0:0:
116,241,16292,2,0,P|109:188|94:95,1,118.125004506111,2|2,2:0|2:0,2:0:0:0:
75,113,16727,1,2,2:0:0:0:
260,2,16944,1,8,2:0:0:0:
225,126,17162,1,8,2:3:0:0:
211,109,17270,1,8,2:3:0:0:
212,88,17379,1,8,2:3:0:0:
289,92,17488,1,2,2:0:0:0:
289,92,17596,1,4,3:2:0:0:
173,211,17814,6,0,P|234:226|282:241,1,78.7500030040742,2|2,3:2|3:2,2:0:0:0:
374,305,18249,1,0,3:0:0:0:
281,345,18466,1,2,3:2:0:0:
411,185,18683,1,8,2:0:0:0:
310,130,18901,2,0,P|324:193|331:233,1,78.7500030040742,2|0,2:0|2:0,2:0:0:0:
391,309,19227,1,8,2:0:0:0:
404,287,19336,1,2,2:0:0:0:
237,202,19553,5,0,3:0:0:0:
150,262,19770,1,2,3:2:0:0:
217,372,19988,2,0,P|233:304|245:266,1,78.7500030040742,0|2,3:0|2:0,2:0:0:0:
75,137,20422,69,8,2:0:0:0:
32,181,20531,1,8,2:0:0:0:
48,241,20640,1,8,2:3:0:0:
66,245,20749,1,8,2:3:0:0:
85,249,20857,5,8,2:0:0:0:
127,290,20966,1,8,2:0:0:0:
109,347,21075,1,8,2:3:0:0:
94,355,21183,1,8,2:3:0:0:
20,319,21292,6,0,B|39:282|39:282|4:180|4:180|37:120,1,188.999994232178,4|0,3:2|2:0,2:0:0:0:
23,127,21727,2,0,B|42:118|42:118|123:133,1,62.9999980773926,2|0,2:0|2:0,2:0:0:0:
185,219,21944,2,0,B|135:209|135:209|125:216,1,62.9999980773926,0|0,2:0|2:0,2:0:0:0:
209,29,22162,6,0,P|198:66|189:105,1,78.7500030040742,10|0,2:0|2:0,2:0:0:0:
380,180,22596,2,0,B|377:153|377:153|363:124,1,52.5,2|0,2:0|2:0,2:0:0:0:
290,152,22814,2,0,B|293:179|293:179|307:208,1,52.5,0|0,2:0|2:0,2:0:0:0:
434,55,23031,70,0,P|375:37|326:22,1,78.7500030040742,2|0,3:2|2:0,2:0:0:0:
461,244,23466,2,0,L|474:174,1,52.5,2|0,2:0|2:0,2:0:0:0:
378,268,23683,2,0,L|396:336,1,52.5,0|0,2:0|2:0,2:0:0:0:
156,141,23901,6,0,B|212:111|250:144|237:156|279:198|370:141,1,188.999994232178,12|0,2:0|2:0,2:0:0:0:
331,141,24336,2,0,B|339:126|339:126|312:56,1,62.9999980773926,2|0,2:0|2:0,2:0:0:0:
193,220,24553,2,0,B|209:262|209:262|201:277,1,62.9999980773926,0|0,2:0|2:0,2:0:0:0:
511,272,24770,6,0,B|484:286|484:286|369:236|369:236|312:267,1,188.999994232178,4|0,3:2|2:0,2:0:0:0:
320,256,25205,2,0,L|309:333,1,52.5,2|0,2:0|2:0,2:0:0:0:
402,384,25422,2,0,L|390:332,1,52.5,2|0,2:0|2:0,2:0:0:0:
357,120,25640,5,10,2:0:0:0:
133,243,25857,1,10,2:0:0:0:
312,307,26075,1,10,2:0:0:0:
183,78,26292,1,10,2:0:0:0:
33,353,26509,69,12,2:0:0:0:
404,37,28249,6,0,B|385:136|385:136|387:145|387:145|365:257,1,204.749990627289,4|0,3:2|2:0,2:0:0:0:
378,259,28683,1,10,2:0:0:0:
255,335,28901,1,0,3:0:0:0:
97,172,29118,1,2,3:2:0:0:
142,276,29336,1,2,2:0:0:0:
146,286,29444,1,2,2:0:0:0:
149,297,29553,1,10,2:0:0:0:
286,187,29770,1,2,2:0:0:0:
289,174,29879,1,2,2:0:0:0:
292,162,29988,6,0,P|308:94|314:61,1,94.499997116089,2|0,3:2|3:0,2:0:0:0:
89,196,30422,1,10,2:0:0:0:
44,82,30640,1,0,3:0:0:0:
203,199,30857,1,2,3:2:0:0:
106,328,31075,1,2,2:0:0:0:
114,319,31183,1,2,2:0:0:0:
118,308,31292,2,0,L|220:290,1,94.499997116089,10|0,2:0|3:0,2:0:0:0:
385,8,31727,21,12,2:0:0:0:
363,91,31872,1,0,3:0:0:0:
284,54,32017,1,2,3:2:0:0:
237,133,32162,37,0,3:0:0:0:
282,211,32307,1,2,3:2:0:0:
363,172,32451,1,0,3:0:0:0:
394,345,32596,69,10,2:0:0:0:
318,294,32741,1,0,3:0:0:0:
252,349,32886,37,2,3:2:0:0:
392,256,33031,1,0,3:0:0:0:
298,213,33176,2,0,P|312:259|318:294,1,83.9999974365235,2|0,3:2|3:0,2:0:0:0:
97,112,33466,69,10,2:0:0:0:
58,270,33611,1,10,2:0:0:0:
189,158,33756,1,8,2:0:0:0:
191,247,33901,37,0,3:0:0:0:
118,211,34046,1,2,3:2:0:0:
173,329,34191,69,8,2:0:0:0:
286,244,34336,1,8,2:0:0:0:
196,164,34480,37,0,3:0:0:0:
196,164,34625,1,2,3:2:0:0:
284,159,34770,69,8,2:0:0:0:
202,255,34915,2,0,P|161:243|120:234,1,83.9999974365235,8|0,2:0|3:0,2:0:0:0:
38,63,35205,53,4,3:2:0:0:
225,0,35422,1,0,3:0:0:0:
73,172,35640,1,2,3:2:0:0:
89,155,35749,1,0,3:0:0:0:
101,139,35857,1,0,3:0:0:0:
41,78,35966,6,0,B|48:126|62:166|62:166|62:209|62:209|79:251|94:314,1,231.000007049561,8|0,2:0|2:0,2:0:0:0:
169,343,36509,2,0,B|202:299|202:299|188:267|148:230,1,115.50000352478,2|0,2:0|2:0,2:0:0:0:
351,89,36944,5,2,3:2:0:0:
311,310,37162,1,0,3:0:0:0:
444,176,37379,1,2,3:2:0:0:
454,204,37488,1,0,3:0:0:0:
466,232,37596,1,0,3:0:0:0:
512,149,37705,6,0,B|456:122|418:178|418:178|413:177|413:177|369:246|305:203|305:203|303:205|303:205|296:115|390:118,1,367.49998878479,8|2,2:0|2:0,2:0:0:0:
345,45,38357,1,0,1:0:0:0:
322,36,38466,1,8,2:0:0:0:
250,49,38575,1,8,2:0:0:0:
229,124,38683,69,2,3:2:0:0:
382,200,38901,1,0,3:0:0:0:
163,297,39118,1,2,3:2:0:0:
183,282,39227,1,0,3:0:0:0:
206,271,39336,1,0,3:0:0:0:
277,327,39444,6,0,B|222:288|222:288|240:221|259:110,1,231.000007049561,8|0,2:0|2:0,2:0:0:0:
299,60,39987,5,2,3:2:0:0:
334,75,40096,1,8,2:3:0:0:
350,108,40204,1,8,2:3:0:0:
343,135,40313,1,8,2:3:0:0:
380,182,40422,5,2,3:2:0:0:
377,200,40530,1,8,2:3:0:0:
359,218,40639,1,8,2:3:0:0:
338,222,40748,1,8,2:3:0:0:
270,184,40857,69,4,3:2:0:0:
461,136,41073,1,0,3:0:0:0:
252,87,41290,1,2,3:2:0:0:
273,80,41399,1,0,3:0:0:0:
292,73,41507,1,0,3:0:0:0:
249,1,41616,6,0,B|239:50|225:77|225:77|252:129|252:129|227:174|218:245,1,231.000007049561,8|0,2:0|2:0,2:0:0:0:
278,279,42160,2,0,P|330:230|278:178,1,115.50000352478,2|0,2:0|2:0,2:0:0:0:
84,120,42594,5,2,3:2:0:0:
326,52,42812,1,0,3:0:0:0:
178,215,43029,1,2,3:2:0:0:
169,194,43138,1,0,3:0:0:0:
159,172,43247,1,0,3:0:0:0:
89,232,43356,6,0,B|132:207|191:224|204:286|204:286|207:289|207:289|180:310|186:342|186:342|214:286|278:258|363:318,1,367.49998878479,8|2,2:0|2:0,2:0:0:0:
431,345,44007,69,8,2:0:0:0:
410,274,44116,1,8,2:0:0:0:
393,206,44225,1,8,2:0:0:0:
372,135,44334,5,2,3:2:0:0:
226,83,44551,1,0,3:0:0:0:
385,239,44768,1,2,3:2:0:0:
366,247,44877,1,0,3:0:0:0:
344,257,44986,1,0,3:0:0:0:
285,329,45094,6,0,B|275:302|240:275|240:275|262:213|262:213|261:208|261:208|286:140|286:140|259:116|232:61,1,288.750008811951,8|2,2:0|3:2,2:0:0:0:
132,34,45747,5,8,2:0:0:0:
82,91,45855,1,8,2:0:0:0:
110,160,45964,1,8,2:0:0:0:
186,167,46073,5,10,2:0:0:0:
171,172,46145,1,8,2:3:0:0:
158,180,46218,1,8,2:3:0:0:
148,192,46290,1,8,2:3:0:0:
143,206,46363,1,8,2:3:0:0:
141,221,46435,1,8,2:3:0:0:
143,235,46507,54,0,L|237:267,1,57.7500017623902,4|0,3:2|2:0,2:0:0:0:
252,313,46724,2,0,L|346:345,1,57.7500017623902,0|0,3:0|2:0,2:0:0:0:
413,136,46941,5,2,3:2:0:0:
392,144,47050,1,0,3:0:0:0:
368,152,47159,1,0,3:0:0:0:
434,211,47267,6,0,B|320:184|320:184|317:179|317:179|175:144,1,231.000007049561,8|0,2:0|2:0,2:0:0:0:
181,66,47811,5,2,2:0:0:0:
173,70,47919,1,0,2:0:0:0:
165,72,48028,1,0,2:0:0:0:
158,76,48137,1,0,2:0:0:0:
150,82,48246,70,0,B|143:117|143:117|139:120|139:120|124:185,1,73.4999977569581,2|0,3:2|2:0,2:0:0:0:
157,308,48463,2,0,B|164:276|164:276|168:273|168:273|175:238,1,73.4999977569581,0|0,3:0|2:0,2:0:0:0:
12,99,48680,5,2,3:2:0:0:
21,124,48789,1,0,3:0:0:0:
33,149,48898,1,0,3:0:0:0:
0,229,49006,6,0,B|19:175|66:169|66:169|68:165|68:165|89:173|107:192|107:192|112:189|112:189|302:240,1,293.999991027832,8|0,2:0|2:0,2:0:0:0:
324,315,49550,5,2,2:0:0:0:
336,310,49659,1,0,2:0:0:0:
346,307,49767,1,0,2:0:0:0:
355,304,49876,1,0,2:0:0:0:
367,302,49985,70,0,B|378:275|378:275|352:199,1,89.2500017023087,2|0,3:2|2:0,2:0:0:0:
177,105,50202,2,0,B|194:128|194:128|275:142,1,89.2500017023087,0|0,3:0|2:0,2:0:0:0:
178,374,50419,5,2,3:2:0:0:
188,343,50528,1,0,3:0:0:0:
205,316,50637,1,0,3:0:0:0:
266,384,50746,6,0,B|236:341|183:329|183:329|182:323|182:323|121:321|91:351|91:351|42:250|134:203|134:203|130:209|130:209|142:244|100:264,1,446.250008511543,8|2,2:0|3:2,2:0:0:0:
226,246,51398,5,8,2:0:0:0:
304,228,51506,1,8,2:0:0:0:
378,213,51615,1,8,2:0:0:0:
403,233,51724,2,0,B|395:270|395:270|397:274|397:274|383:325,1,73.4999977569581,4|0,3:2|1:0,2:0:0:0:
158,106,51941,69,8,2:0:0:0:
239,133,52050,1,8,2:0:0:0:
324,157,52158,6,0,L|309:86,1,57.7500017623902,4|0,3:2|2:0,2:0:0:0:
248,56,52375,2,0,L|233:-15,1,57.7500017623902,0|0,3:0|2:0,2:0:0:0:
440,160,52592,5,2,3:2:0:0:
431,184,52701,1,0,3:0:0:0:
424,205,52810,1,0,3:0:0:0:
464,281,52918,6,0,B|452:239|412:223|412:223|410:227|410:227|244:269,1,231.000007049561,8|0,2:0|2:0,2:0:0:0:
186,314,53462,69,2,2:0:0:0:
181,299,53571,1,0,2:0:0:0:
177,286,53679,1,0,2:0:0:0:
213,208,53788,5,8,2:0:0:0:
207,196,53897,2,0,B|195:178|195:178|104:159,1,73.4999977569581,4|0,3:2|2:0,2:0:0:0:
7,281,54114,2,0,B|19:263|19:263|110:244,1,73.4999977569581,0|0,3:0|2:0,2:0:0:0:
128,53,54331,5,2,3:2:0:0:
100,64,54440,1,0,3:0:0:0:
78,81,54549,1,0,3:0:0:0:
29,6,54658,6,0,B|61:127|61:127|59:133|59:133|93:272|93:272|87:199|152:165,1,367.49998878479,8|2,2:0|2:0,2:0:0:0:
216,196,55309,69,8,2:3:0:0:
251,222,55418,1,8,2:3:0:0:
237,258,55527,1,8,2:3:0:0:
174,312,55636,6,0,B|176:333|176:333|297:376,1,89.2500017023087,4|0,3:2|2:0,2:0:0:0:
301,110,55853,2,0,B|281:101|281:101|184:184,1,89.2500017023087,0|0,3:0|2:0,2:0:0:0:
451,332,56070,5,2,3:2:0:0:
440,302,56179,1,0,3:0:0:0:
425,273,56287,1,0,3:0:0:0:
351,329,56396,6,0,B|339:303|360:265|360:265|363:266|363:266|483:225|483:225|479:221|479:221|506:189|481:120,1,267.750005106926,8|0,2:0|2:0,2:0:0:0:
415,96,56831,2,0,B|394:74|356:74|356:74|390:115|398:165,1,148.750002837181,8|8,2:0|2:0,2:0:0:0:
271,222,57157,5,8,2:0:0:0:
298,184,57230,1,8,2:0:0:0:
287,142,57302,1,8,2:0:0:0:
249,118,57375,1,8,2:0:0:0:
204,131,57447,1,8,2:0:0:0:
186,175,57520,37,8,2:3:0:0:
198,184,57592,1,8,2:3:0:0:
205,200,57664,1,8,2:3:0:0:
209,216,57737,1,8,2:3:0:0:
206,235,57809,6,0,P|167:241|113:255,1,84,4|0,3:2|3:0,2:0:0:0:
17,117,58243,1,2,3:2:0:0:
38,123,58352,1,0,3:0:0:0:
65,129,58461,1,0,3:0:0:0:
118,71,58569,6,0,L|264:38,1,126,8|0,2:0|3:0,2:0:0:0:
368,229,59113,1,10,2:0:0:0:
227,163,59330,1,0,3:0:0:0:
356,36,59548,6,0,P|344:95|338:136,1,84,2|0,3:2|3:0,2:0:0:0:
475,214,59982,1,8,2:0:0:0:
336,298,60200,1,0,3:0:0:0:
339,278,60309,1,0,3:0:0:0:
345,252,60417,6,0,L|395:238,1,42,2|0,3:2|2:0,2:0:0:0:
440,311,60635,2,0,L|490:325,1,42,0|0,3:0|2:0,2:0:0:0:
321,172,60852,2,0,B|267:190|267:190|257:229,1,84,10|0,2:0|3:0,2:0:0:0:
43,120,61287,69,2,3:2:0:0:
50,88,61396,1,0,3:0:0:0:
78,68,61504,1,0,3:0:0:0:
111,66,61613,1,0,3:0:0:0:
141,78,61722,1,10,2:0:0:0:
45,191,61939,1,0,3:0:0:0:
263,273,62157,6,0,L|247:206,1,42,2|0,3:2|2:0,2:0:0:0:
184,187,62374,2,0,L|198:124,1,42,0|0,3:0|2:0,2:0:0:0:
87,301,62591,2,0,B|133:290|133:290|135:287|135:287|193:276,1,84,10|0,2:0|3:0,2:0:0:0:
207,348,62917,1,0,3:0:0:0:
218,363,63026,6,0,B|264:374|264:374|266:377|266:377|324:388,1,84,2|0,3:2|3:0,2:0:0:0:
378,177,63461,1,10,2:0:0:0:
316,161,63570,1,0,2:0:0:0:
279,214,63678,2,0,P|289:246|293:273,1,42,0|0,3:0|2:0,2:0:0:0:
438,341,63896,5,2,3:2:0:0:
443,312,64004,1,0,3:0:0:0:
448,281,64113,1,0,3:0:0:0:
453,247,64222,1,0,3:0:0:0:
394,202,64331,70,0,L|376:121,1,68.2499968757631,10|0,2:0|2:0,2:0:0:0:
460,27,64548,2,0,L|474:93,1,68.2499968757631,4|0,3:2|2:0,2:0:0:0:
235,176,64765,5,4,3:2:0:0:
202,136,64874,1,0,2:0:0:0:
212,102,64983,2,0,P|247:84|289:102,1,52.5,0|0,3:0|2:0,2:0:0:0:
286,291,65200,6,0,P|247:282|209:272,1,78.7500030040742,10|0,2:0|2:0,2:0:0:0:
78,65,65417,1,0,3:0:0:0:
94,71,65526,1,0,3:0:0:0:
109,76,65635,6,0,P|124:103|120:133,1,62.9999980773926,2|0,3:2|2:0,2:0:0:0:
0,196,65852,2,0,P|15:168|11:138,1,62.9999980773926,0|0,3:0|2:0,2:0:0:0:
226,296,66070,70,0,P|187:249|126:250,1,125.999996154785,10|0,2:0|3:0,2:0:0:0:
28,336,66396,1,0,3:0:0:0:
47,348,66504,2,0,P|40:289|23:180,1,125.999996154785,2|0,3:2|3:0,2:0:0:0:
0,129,66794,53,0,2:0:0:0:
8,122,66867,1,0,2:0:0:0:
14,115,66939,2,0,L|134:138,1,73.4999977569581,10|0,2:0|2:0,2:0:0:0:
240,0,67157,53,0,3:0:0:0:
260,15,67265,1,0,3:0:0:0:
276,26,67374,2,0,L|190:49,1,89.2500017023087,2|0,3:2|2:0,2:0:0:0:
114,245,67591,2,0,L|199:221,1,89.2500017023087,2|0,3:2|2:0,2:0:0:0:
67,35,67809,6,0,P|82:77|91:121,1,89.2500017023087,10|0,2:0|2:0,2:0:0:0:
299,241,68026,2,0,P|313:182|245:135,1,133.875002553463,4|0,3:2|2:0,2:0:0:0:
247,141,68243,6,0,L|174:127,1,52.5,4|0,3:2|2:0,2:0:0:0:
81,342,68461,5,0,3:0:0:0:
59,317,68570,1,0,2:0:0:0:
68,274,68678,2,0,P|116:259|145:267,1,62.9999980773926,10|0,2:0|2:0,2:0:0:0:
318,339,68896,69,0,3:0:0:0:
336,346,69004,1,0,3:0:0:0:
354,355,69113,2,0,P|358:317|320:282,1,62.9999980773926,2|0,3:2|2:0,2:0:0:0:
215,201,69330,2,0,P|201:173|207:142,1,62.9999980773926,2|0,3:2|2:0,2:0:0:0:
242,384,69548,6,0,P|219:348|227:305,1,89.2500017023087,8|0,2:0|2:0,2:0:0:0:
324,113,69765,2,0,P|347:149|339:192,1,89.2500017023087,2|0,3:2|2:0,2:0:0:0:
46,230,69982,6,0,P|135:250|187:269,1,89.2500017023087,4|0,3:2|2:0,2:0:0:0:
289,30,70200,5,2,3:2:0:0:
235,13,70309,1,0,2:0:0:0:
182,66,70417,1,8,2:0:0:0:
217,130,70526,1,0,2:0:0:0:
259,145,70635,1,2,3:2:0:0:
268,174,70744,1,0,3:0:0:0:
197,204,70852,70,0,B|168:205|150:182|163:180|145:160|94:168,1,99.7499973363877,2|0,3:2|3:0,2:0:0:0:
329,14,71070,2,0,B|365:7|383:27|369:29|387:52|416:51,1,99.7499973363877,2|0,3:2|3:0,2:0:0:0:
355,373,71287,5,8,2:0:0:0:
336,294,71396,1,8,2:0:0:0:
316,211,71504,2,0,B|306:163|306:163|306:159|306:159|291:93,1,99.7499973363877,8|8,2:3|2:3,2:0:0:0:
98,9,71722,5,4,3:2:0:0:
31,43,71831,1,0,3:0:0:0:
9,114,71939,1,0,3:0:0:0:
40,181,72048,1,0,3:0:0:0:
108,207,72157,1,10,3:2:0:0:
178,182,72265,1,0,3:0:0:0:
210,114,72374,5,0,3:0:0:0:
180,100,72483,1,0,3:0:0:0:
147,104,72591,1,2,3:2:0:0:
123,126,72700,1,0,3:0:0:0:
113,155,72809,1,0,3:0:0:0:
172,213,72917,69,0,3:0:0:0:
192,230,73026,2,0,P|198:262|178:289,1,68.2499968757631,10|0,3:2|3:0,2:0:0:0:
13,252,73244,2,0,P|6:219|26:192,1,68.2499968757631,0|0,3:0|3:0,2:0:0:0:
217,106,73461,5,2,3:2:0:0:
288,127,73570,1,0,3:0:0:0:
356,148,73678,1,0,3:0:0:0:
413,169,73787,1,2,3:2:0:0:
458,191,73896,5,8,3:2:0:0:
447,149,74004,1,0,3:0:0:0:
438,110,74113,1,2,3:2:0:0:
428,78,74222,1,0,3:0:0:0:
418,43,74331,5,2,3:2:0:0:
408,56,74439,1,0,3:0:0:0:
400,71,74548,1,0,3:0:0:0:
388,87,74657,1,0,3:0:0:0:
379,101,74765,70,0,L|398:187,1,52.5,10|0,3:2|3:0,2:0:0:0:
481,232,74983,2,0,L|462:318,1,52.5,2|0,3:2|3:0,2:0:0:0:
244,187,75200,6,0,P|300:194|315:227,1,68.2499968757631,2|0,3:2|3:0,2:0:0:0:
388,384,75417,5,0,3:0:0:0:
378,379,75526,2,0,L|359:317,1,52.5,0|10,3:0|3:2,2:0:0:0:
223,335,75744,1,0,3:0:0:0:
241,323,75852,2,0,L|260:261,1,52.5,0|0,3:0|3:0,2:0:0:0:
414,76,76070,5,2,3:2:0:0:
431,143,76178,1,0,3:0:0:0:
392,200,76287,1,0,3:0:0:0:
323,206,76396,1,0,3:0:0:0:
273,156,76504,1,10,3:2:0:0:
311,82,76613,69,0,3:0:0:0:
326,98,76722,2,0,P|323:144|296:168,1,52.5,0|0,3:0|3:0,2:0:0:0:
4,82,76939,5,2,3:2:0:0:
74,61,77048,1,0,3:0:0:0:
132,48,77157,1,0,3:0:0:0:
187,38,77265,1,0,3:0:0:0:
240,28,77374,6,0,P|232:62|230:83,1,39.3750015020371,10|0,3:2|3:0,2:0:0:0:
169,127,77591,2,0,P|194:150|211:163,1,39.3750015020371,0|0,3:0|3:0,2:0:0:0:
368,79,77809,5,2,3:2:0:0:
345,82,77917,1,0,3:0:0:0:
320,97,78026,1,0,3:0:0:0:
306,121,78135,1,0,3:0:0:0:
349,195,78244,70,0,B|392:184|392:184|394:180|394:180|463:165,1,78.7500030040742,10|0,3:2|3:0,2:0:0:0:
235,29,78461,2,0,B|192:18|192:18|190:14|190:14|121:-1,1,78.7500030040742,4|0,3:2|3:0,2:0:0:0:
246,243,78678,53,4,3:2:0:0:
271,146,78823,1,0,2:0:0:0:
243,257,78968,1,0,2:0:0:0:
135,190,79113,54,0,B|150:252|150:252|151:266|151:266|177:376,1,157.500006008148,10|0,3:2|3:0,2:0:0:0:
253,368,79439,1,0,3:0:0:0:
270,358,79548,5,2,3:2:0:0:
292,323,79657,1,0,3:0:0:0:
281,286,79765,1,0,3:0:0:0:
246,265,79874,1,0,3:0:0:0:
253,182,79983,5,10,3:2:0:0:
306,146,80091,1,0,3:0:0:0:
379,163,80200,1,2,3:2:0:0:
406,239,80309,1,0,3:0:0:0:
336,292,80417,6,0,B|289:238|339:169|339:169|344:172|344:172|400:98|331:23,1,267.750005106926,2|0,3:2|3:0,2:0:0:0:
288,0,80852,1,10,3:2:0:0:
277,10,80961,1,0,3:0:0:0:
267,24,81070,2,0,B|245:55|245:55|285:107,1,78.7500030040742,0|0,3:0|3:0,2:0:0:0:
489,157,81287,70,0,B|440:147|390:136|390:136|388:133|388:133|344:189|344:189|338:186|338:186|296:184|235:204,1,267.750005106926,2|0,3:2|3:0,2:0:0:0:
184,134,81722,2,0,P|151:127|109:116,1,57.7500017623902,10|0,3:2|3:0,2:0:0:0:
107,205,81939,2,0,P|140:212|182:223,1,57.7500017623902,0|0,3:0|3:0,2:0:0:0:
45,32,82157,53,2,3:2:0:0:
34,39,82229,1,0,2:0:0:0:
22,47,82302,1,0,2:0:0:0:
9,58,82374,2,0,B|18:102|18:102|22:105|22:105|39:179,1,78.7500030040742,0|0,3:0|3:0,2:0:0:0:
267,121,82591,54,0,B|238:75|238:75|98:104,1,157.500006008148,10|0,3:2|3:0,2:0:0:0:
99,166,82917,1,0,3:0:0:0:
106,179,83026,5,2,3:2:0:0:
175,199,83135,1,0,3:0:0:0:
226,210,83244,1,0,3:0:0:0:
265,218,83352,1,0,3:0:0:0:
315,282,83461,5,10,3:2:0:0:
347,275,83570,1,0,3:0:0:0:
395,266,83678,1,0,3:0:0:0:
444,253,83787,1,0,3:0:0:0:
489,183,83896,22,0,B|500:160|500:160|495:127,5,52.5000020027161,8|8|8|8|0|0,3:2|2:3|2:3|2:3|3:0|3:0,2:0:0:0:
412,94,84331,2,0,B|401:117|401:117|406:150,5,52.5000020027161,8|8|8|8|0|0,3:2|2:3|2:3|2:3|3:0|3:0,2:0:0:0:
358,224,84765,53,8,2:0:0:0:
279,236,84874,1,8,2:0:0:0:
222,179,84983,1,8,2:0:0:0:
233,106,85091,1,8,2:0:0:0:
297,59,85200,54,0,L|342:69,2,35,8|8|8,2:0|2:3|2:3,2:0:0:0:
274,18,85417,2,0,L|194:36,1,52.5,8|8,2:3|2:3,2:0:0:0:
53,14,85635,54,0,P|81:114|109:260,1,220.499993270874,4|0,3:2|3:0,2:0:0:0:
50,328,86070,5,10,3:2:0:0:
63,362,86178,1,0,3:0:0:0:
105,384,86287,1,2,3:2:0:0:
161,364,86396,1,0,3:0:0:0:
187,290,86504,1,10,3:2:0:0:
254,245,86613,1,0,3:0:0:0:
303,257,86722,1,2,3:2:0:0:
317,283,86831,1,0,3:0:0:0:
294,365,86939,5,10,3:2:0:0:
299,372,87048,1,0,3:0:0:0:
308,376,87157,1,2,3:2:0:0:
317,377,87265,1,0,3:0:0:0:
392,328,87374,6,0,P|370:207|351:98,1,220.499993270874,10|0,3:2|3:0,2:0:0:0:
434,67,87809,69,10,3:2:0:0:
443,48,87917,1,0,3:0:0:0:
425,13,88026,1,2,3:2:0:0:
387,0,88135,1,0,3:0:0:0:
326,41,88244,1,10,3:2:0:0:
334,119,88352,1,0,3:0:0:0:
406,152,88461,2,0,P|469:133|500:131,1,73.4999977569581,4|0,3:2|3:0,2:0:0:0:
222,0,88678,5,10,3:2:0:0:
225,10,88787,1,0,3:0:0:0:
229,21,88896,2,0,P|292:40|323:42,1,73.4999977569581,4|0,3:2|3:0,2:0:0:0:
288,308,89113,6,0,P|274:235|256:164,1,146.999995513916,4|0,3:2|3:0,2:0:0:0:
170,123,89439,2,0,P|153:176|181:203,1,62.9999980773926,0|10,3:0|3:2,2:0:0:0:
67,280,89657,1,0,3:0:0:0:
71,249,89765,2,0,P|112:290|148:284,1,62.9999980773926,2|0,3:2|3:0,2:0:0:0:
257,165,89983,6,0,P|244:204|236:246,1,84,10|0,3:2|3:0,2:0:0:0:
44,131,90200,2,0,P|56:91|64:49,1,84,2|0,3:2|3:0,2:0:0:0:
339,123,90417,69,10,3:2:0:0:
334,63,90526,1,0,3:0:0:0:
281,36,90635,2,0,P|226:47|216:105,1,84,2|0,3:2|3:0,2:0:0:0:
217,252,90852,53,10,3:2:0:0:
230,255,90925,1,0,3:0:0:0:
247,261,90997,1,0,3:0:0:0:
262,267,91070,1,0,3:0:0:0:
279,275,91142,1,0,3:0:0:0:
292,282,91215,1,0,3:0:0:0:
306,290,91287,54,0,P|347:279|407:269,1,73.4999977569581,12|0,3:2|3:0,2:0:0:0:
343,96,91504,2,0,P|332:137|314:195,1,73.4999977569581,0|0,3:0|3:0,2:0:0:0:
512,289,91722,6,0,P|501:248|483:190,1,73.4999977569581,12|0,3:2|3:0,2:0:0:0:
387,8,91939,1,8,2:0:0:0:
458,49,92048,1,8,2:0:0:0:
453,102,92157,1,8,2:0:0:0:
426,126,92265,1,8,2:3:0:0:
405,126,92374,2,0,P|364:97|324:107,1,73.4999977569581,8|8,2:3|2:3,2:0:0:0:
170,202,92591,37,4,3:2:0:0:
222,138,92736,1,0,2:0:0:0:
293,184,92881,1,0,2:0:0:0:
228,304,93026,37,10,3:2:0:0:
171,218,93171,1,0,2:0:0:0:
89,269,93316,1,0,2:0:0:0:
7,139,93461,69,10,3:2:0:0:
93,166,93606,1,0,2:0:0:0:
0,130,93751,1,0,2:0:0:0:
103,6,93896,53,10,3:2:0:0:
120,80,94004,2,0,B|136:151|136:151|134:158|134:158|164:294,1,146.999995513916,8|0,3:2|3:0,2:0:0:0:
251,283,94331,6,0,B|262:249|262:249|234:211,1,73.4999977569581,10|0,3:2|3:0,2:0:0:0:
67,257,94548,2,0,B|56:291|56:291|84:329,1,73.4999977569581,2|0,3:2|3:0,2:0:0:0:
218,85,94765,5,10,3:2:0:0:
279,66,94874,1,0,3:0:0:0:
323,98,94983,1,2,3:2:0:0:
329,136,95091,1,0,3:0:0:0:
257,177,95200,5,10,3:2:0:0:
240,237,95309,1,0,3:0:0:0:
290,298,95417,1,4,3:2:0:0:
369,282,95526,1,0,3:0:0:0:
387,196,95635,70,0,B|377:159|377:159|377:154|377:154|357:82,1,73.4999977569581,10|0,3:2|3:0,2:0:0:0:
202,300,95852,2,0,B|212:263|212:263|212:258|212:258|232:186,1,73.4999977569581,4|0,3:2|3:0,2:0:0:0:
199,58,96070,53,12,3:2:0:0:
213,63,96142,1,0,2:0:0:0:
226,67,96215,1,0,2:0:0:0:
238,72,96287,2,0,L|263:137,2,48.9999985046387,0|0|0,3:0|2:0|2:0,2:0:0:0:
134,132,96504,37,10,3:2:0:0:
115,138,96577,1,0,2:0:0:0:
98,143,96649,1,0,2:0:0:0:
82,150,96722,2,0,L|59:215,2,48.9999985046387,2|0|0,3:2|2:0|2:0,2:0:0:0:
153,275,96939,69,10,3:2:0:0:
181,244,97012,1,0,2:0:0:0:
209,237,97084,1,0,2:0:0:0:
234,240,97157,1,2,3:2:0:0:
253,248,97229,1,0,2:0:0:0:
267,265,97302,1,0,2:0:0:0:
276,282,97374,2,0,L|259:345,2,48.9999985046387,10|0|0,3:2|2:0|2:0,2:0:0:0:
369,240,97591,2,0,B|398:249|398:249|405:247|405:247|475:271,2,62.9999980773926,2|0|0,3:2|2:0|2:0,2:0:0:0:
285,164,97809,54,0,L|234:154,4,36.749998878479,10|0|0|0|2,3:2|2:0|2:0|2:0|3:2,2:0:0:0:
205,57,98135,2,0,L|169:64,4,36.749998878479,8|0|0|0|0,3:2|2:0|3:0|2:0|2:0,2:0:0:0:
128,164,98461,2,0,L|79:155,2,48.9999985046387,2|0|0,3:2|2:0|2:0,2:0:0:0:
214,219,98678,5,8,3:2:0:0:
165,275,98787,1,8,3:0:0:0:
173,301,98896,1,8,3:0:0:0:
175,322,99004,1,8,3:0:0:0:
263,335,99113,5,8,3:2:0:0:
246,258,99222,1,8,3:0:0:0:
228,180,99331,1,8,3:0:0:0:
213,105,99439,1,8,3:0:0:0:
277,56,99548,22,0,L|329:65,2,48.9999985046387,4|0|0,3:2|2:0|2:0,2:0:0:0:
248,80,99765,2,0,L|168:66,1,73.4999977569581,0|0,3:0|3:0,2:0:0:0:
32,204,99983,37,10,3:2:0:0:
68,177,100055,1,0,2:0:0:0:
110,178,100128,1,0,2:0:0:0:
130,196,100200,1,0,3:0:0:0:
148,214,100273,1,0,2:0:0:0:
170,219,100345,1,0,2:0:0:0:
193,209,100417,70,0,L|207:132,2,48.9999985046387,2|0|0,3:2|2:0|2:0,2:0:0:0:
300,268,100635,2,0,L|286:191,2,48.9999985046387,0|0|0,3:0|2:0|2:0,2:0:0:0:
218,322,100852,37,10,2:0:0:0:
213,337,100925,1,0,2:0:0:0:
209,353,100997,1,0,2:0:0:0:
205,367,101070,2,0,L|275:355,1,62.9999980773926,0|0,3:0|2:0,2:0:0:0:
469,260,101287,5,2,3:2:0:0:
433,250,101396,1,0,3:0:0:0:
396,241,101504,1,0,3:0:0:0:
365,233,101613,1,0,3:0:0:0:
301,179,101722,5,10,3:2:0:0:
308,156,101831,1,0,3:0:0:0:
367,99,101939,1,0,3:0:0:0:
356,44,102048,1,0,3:0:0:0:
285,8,102157,6,0,P|246:21|237:54,1,62.9999980773926,4|0,3:2|2:0,2:0:0:0:
323,170,102374,2,0,P|362:157|371:124,1,62.9999980773926,0|0,3:0|2:0,2:0:0:0:
135,175,102591,5,10,2:0:0:0:
167,148,102700,1,0,2:0:0:0:
237,183,102809,2,0,L|253:275,1,73.4999977569581,0|0,3:0|2:0,2:0:0:0:
21,165,103026,70,0,L|39:77,1,73.4999977569581,4|0,3:2|2:0,2:0:0:0:
171,288,103244,1,0,3:0:0:0:
125,351,103352,1,0,3:0:0:0:
62,337,103461,1,12,2:0:0:0:
40,296,103570,1,0,2:0:0:0:
47,266,103678,2,0,L|104:250,2,48.9999985046387,0|0|0,3:0|2:0|2:0,2:0:0:0:
138,171,103896,53,4,3:2:0:0:
147,163,103968,1,0,2:0:0:0:
156,160,104041,1,0,2:0:0:0:
169,158,104113,2,0,P|197:166|219:193,1,52.5,0|0,3:0|3:0,2:0:0:0:
24,14,104331,37,12,2:0:0:0:
33,30,104403,1,0,2:0:0:0:
44,39,104475,1,0,2:0:0:0:
61,43,104548,2,0,P|106:34|133:-6,1,73.4999977569581,0|0,3:0|3:0,2:0:0:0:
345,93,104765,69,4,3:2:0:0:
363,72,104838,1,0,2:0:0:0:
363,43,104910,1,0,2:0:0:0:
338,15,104983,2,0,P|310:27|267:39,1,73.4999977569581,0|0,3:0|3:0,2:0:0:0:
186,90,105200,69,12,2:0:0:0:
199,141,105309,1,0,2:0:0:0:
278,179,105417,5,0,3:0:0:0:
262,250,105526,1,0,2:0:0:0:
192,290,105635,6,0,P|205:323|213:359,1,73.4999977569581,4|0,3:2|2:0,2:0:0:0:
505,326,105852,69,8,2:0:0:0:
443,276,105961,1,8,2:0:0:0:
373,240,106070,1,8,2:3:0:0:
385,269,106178,1,8,2:3:0:0:
394,296,106287,1,8,2:3:0:0:
404,324,106396,1,8,2:3:0:0:
333,378,106504,54,0,B|317:355|317:355|322:311,2,48.9999985046387,4|0|0,3:2|2:0|2:0,2:0:0:0:
247,289,106722,2,0,B|258:263|258:263|299:245,2,48.9999985046387,0|0|0,3:0|2:0|2:0,2:0:0:0:
173,362,106939,37,10,3:2:0:0:
149,354,107012,1,0,2:0:0:0:
130,337,107084,1,0,2:0:0:0:
119,314,107157,1,0,3:0:0:0:
118,289,107229,1,0,2:0:0:0:
127,266,107302,1,0,2:0:0:0:
144,248,107374,70,0,B|146:220|146:220|120:184,2,48.9999985046387,4|0|0,3:2|2:0|2:0,2:0:0:0:
180,123,107591,2,0,B|157:107|157:107|113:112,2,48.9999985046387,0|0|0,3:0|2:0|2:0,2:0:0:0:
279,165,107809,37,10,3:2:0:0:
296,146,107881,1,0,2:0:0:0:
304,121,107954,1,0,2:0:0:0:
302,96,108026,1,0,3:0:0:0:
290,74,108099,1,0,2:0:0:0:
271,58,108171,1,0,2:0:0:0:
247,53,108244,70,0,L|318:31,2,48.9999985046387,4|0|0,3:2|2:0|2:0,2:0:0:0:
378,98,108461,2,0,L|449:120,2,48.9999985046387,0|0|0,3:0|2:0|2:0,2:0:0:0:
279,165,108678,37,10,3:2:0:0:
274,187,108751,1,0,2:0:0:0:
279,203,108823,1,0,2:0:0:0:
290,217,108896,2,0,L|361:195,2,48.9999985046387,0|0|0,3:0|2:0|2:0,2:0:0:0:
207,311,109113,69,10,3:2:0:0:
200,271,109186,1,0,2:0:0:0:
193,236,109258,1,0,2:0:0:0:
184,202,109331,1,0,3:0:0:0:
172,169,109403,1,0,2:0:0:0:
161,137,109475,1,0,2:0:0:0:
149,106,109548,38,0,P|184:69|223:72,2,59.5000011348725,10|0|0,3:2|2:0|2:0,2:0:0:0:
71,176,109765,2,0,P|47:171|31:153,2,48.9999985046387,0|0|0,3:0|2:0|2:0,2:0:0:0:
133,259,109983,5,12,3:2:0:0:
186,248,110091,1,0,3:0:0:0:
238,237,110200,1,0,3:0:0:0:
288,228,110309,1,0,3:0:0:0:
372,244,110417,5,10,3:2:0:0:
357,187,110526,1,0,3:0:0:0:
346,131,110635,1,0,3:0:0:0:
332,74,110744,1,0,3:0:0:0:
251,56,110852,5,10,3:2:0:0:
269,138,110961,1,0,3:0:0:0:
287,218,111070,1,0,3:0:0:0:
308,298,111178,1,0,3:0:0:0:
293,378,111287,5,10,3:2:0:0:
365,357,111396,1,0,3:0:0:0:
436,337,111504,2,0,P|506:318|522:313,1,73.4999977569581,0|0,3:0|3:0,2:0:0:0:
512,144,111722,69,10,3:2:0:0:
463,112,111831,1,0,3:0:0:0:
416,116,111939,1,8,2:3:0:0:
384,137,112048,1,0,3:0:0:0:
370,167,112157,1,8,2:3:0:0:
371,189,112265,1,0,3:0:0:0:
329,262,112374,5,10,2:0:0:0:
315,279,112483,1,0,3:0:0:0:
285,293,112591,1,8,2:3:0:0:
247,288,112700,1,0,3:0:0:0:
209,261,112809,1,8,2:3:0:0:
198,213,112917,1,0,3:0:0:0:
268,165,113026,5,12,2:0:0:0:
293,121,113135,1,0,2:0:0:0:
271,77,113244,1,8,2:3:0:0:
236,64,113352,1,0,2:0:0:0:
174,131,113461,6,0,P|74:147|8:161,1,157.500006008148,4|0,3:2|2:0,2:0:0:0:
136,328,114112,2,0,P|144:285|158:229,1,78.7500030040742,2|0,2:0|2:0,2:0:0:0:
71,232,114547,2,0,P|63:275|49:331,1,78.7500030040742,2|0,2:0|2:0,2:0:0:0:
135,329,114982,1,2,2:0:0:0:
208,123,115199,69,0,3:0:0:0:
208,123,115416,2,0,P|219:182|232:240,1,118.125004506111,2|0,3:2|2:0,2:0:0:0:
247,254,115851,2,0,P|285:256|317:235,1,78.7500030040742,2|0,2:0|2:0,2:0:0:0:
397,251,116177,1,2,2:0:0:0:
405,235,116286,2,0,L|379:139,1,78.7500030040742,2|0,2:0|2:0,2:0:0:0:
325,107,116612,1,2,2:0:0:0:
331,82,116721,1,2,2:0:0:0:
258,285,116938,5,0,3:0:0:0:
258,285,117156,2,0,B|349:259|316:346|422:322,1,157.500006008148,2|2,3:2|2:0,2:0:0:0:
245,182,117808,2,0,P|264:179|284:177,1,39.3750015020371,0|2,2:0|2:0,2:0:0:0:
178,251,118025,1,2,2:0:0:0:
162,248,118134,2,0,L|52:229,1,78.7500030040742,0|2,2:0|2:0,2:0:0:0:
36,167,118460,1,8,2:3:0:0:
62,137,118569,1,8,2:3:0:0:
105,130,118677,6,0,B|172:121|172:121|180:115|180:115|271:104,1,157.500006008148,4|0,3:2|2:0,2:0:0:0:
398,197,119330,2,0,P|347:184|310:177,1,78.7500030040742,2|0,2:0|2:0,2:0:0:0:
349,94,119764,2,0,P|400:107|437:114,1,78.7500030040742,2|0,2:0|2:0,2:0:0:0:
484,166,120090,1,2,2:0:0:0:
503,162,120199,1,2,2:0:0:0:
341,329,120416,5,0,3:0:0:0:
341,329,120634,2,0,P|332:264|315:187,1,118.125004506111,2|0,3:2|2:0,2:0:0:0:
309,202,121069,2,0,P|251:214|238:250,1,78.7500030040742,2|0,2:0|2:0,2:0:0:0:
85,75,121503,70,0,B|134:86|134:86|140:83|140:83|206:99,1,110.249996635437,10|0,2:0|2:0,2:0:0:0:
17,159,121938,2,0,B|41:164|41:164|44:163|44:163|77:171,1,55.1249983177186,10|0,2:0|2:0,2:0:0:0:
170,323,122156,5,4,3:2:0:0:
170,323,122373,2,0,P|180:286|142:254,1,78.7500030040742,0|2,3:0|2:0,2:0:0:0:
67,311,122808,1,2,3:2:0:0:
277,384,123025,5,8,2:0:0:0:
285,333,123134,1,8,2:0:0:0:
297,283,123243,1,8,2:3:0:0:
154,212,123460,5,8,2:0:0:0:
143,159,123569,1,8,2:0:0:0:
131,108,123677,1,8,2:3:0:0:
436,54,123895,69,4,3:2:0:0:
330,81,124112,1,0,3:0:0:0:
244,193,124330,1,0,2:0:0:0:
134,162,124547,1,2,2:0:0:0:
355,289,124764,6,0,B|373:265|373:265|349:171,1,105,8|2,2:0|2:0,2:0:0:0:
290,155,125090,1,2,2:0:0:0:
396,77,125308,1,2,2:0:0:0:
393,90,125416,1,2,2:0:0:0:
183,8,125634,5,0,3:0:0:0:
225,108,125851,1,2,3:2:0:0:
39,247,126069,1,0,2:0:0:0:
100,86,126286,1,2,2:0:0:0:
275,239,126503,6,0,B|229:232|229:232|222:228|222:228|139:214,1,105,8|2,2:0|2:0,2:0:0:0:
112,270,126830,1,2,2:0:0:0:
233,350,127047,1,2,2:0:0:0:
230,338,127156,1,2,2:0:0:0:
30,349,127373,69,0,3:0:0:0:
172,219,127590,2,0,B|163:180|163:180|172:158|172:158|158:78,1,105,2|0,3:2|2:0,2:0:0:0:
106,65,127916,1,2,2:0:0:0:
114,46,128025,1,2,3:2:0:0:
322,169,128243,6,0,L|261:183,1,52.5,8|0,2:0|2:0,2:0:0:0:
398,57,128460,1,2,2:0:0:0:
403,73,128569,2,0,L|329:55,1,52.5,8|0,2:0|2:0,2:0:0:0:
495,176,128786,1,0,3:0:0:0:
504,160,128895,1,8,2:0:0:0:
456,169,129003,1,8,2:0:0:0:
406,182,129112,5,4,3:2:0:0:
273,147,129330,1,0,3:0:0:0:
183,254,129547,1,0,2:0:0:0:
66,277,129764,1,2,3:2:0:0:
316,356,129982,6,0,B|295:341|295:341|314:232,1,105,8|2,2:0|2:0,2:0:0:0:
375,219,130308,1,2,2:0:0:0:
245,163,130525,1,2,2:0:0:0:
250,178,130634,1,2,2:0:0:0:
453,14,130851,69,0,3:0:0:0:
343,62,131069,1,2,3:2:0:0:
468,239,131286,1,0,2:0:0:0:
262,148,131503,1,2,3:2:0:0:
202,366,131721,6,0,B|254:356|254:356|260:351|260:351|353:332,1,105,8|2,2:0|2:0,2:0:0:0:
378,365,132047,1,2,2:0:0:0:
310,250,132264,1,2,2:0:0:0:
350,263,132373,1,2,3:2:0:0:
497,112,132590,5,0,3:0:0:0:
447,198,132808,1,2,2:0:0:0:
324,46,133025,1,0,2:0:0:0:
355,74,133134,1,2,2:0:0:0:
358,117,133243,1,2,2:0:0:0:
221,256,133460,5,8,2:0:0:0:
262,126,133677,1,2,2:0:0:0:
448,256,133895,69,8,2:0:0:0:
393,233,134003,1,8,2:3:0:0:
344,223,134112,1,8,2:3:0:0:
310,216,134221,1,8,2:3:0:0:
250,269,134330,5,4,3:2:0:0:
219,154,134547,1,0,3:0:0:0:
52,219,134764,2,0,L|75:128,1,52.5,0|2,2:0|2:0,2:0:0:0:
86,83,134982,1,2,2:0:0:0:
57,342,135199,6,0,B|130:316|130:316|180:343,1,105,8|2,2:0|2:0,2:0:0:0:
221,377,135525,1,2,2:0:0:0:
290,188,135743,1,2,2:0:0:0:
270,197,135851,1,2,2:0:0:0:
248,207,135960,1,2,2:0:0:0:
227,217,136069,6,0,L|218:277,1,52.5,2|2,3:2|2:0,2:0:0:0:
296,336,136286,1,2,3:2:0:0:
470,183,136503,2,0,L|461:123,1,52.5,0|2,2:0|2:0,2:0:0:0:
316,243,136721,1,2,3:2:0:0:
200,43,136938,70,0,B|250:56|250:56|255:51|255:51|350:76,1,105,8|2,2:0|2:0,2:0:0:0:
367,20,137264,1,2,2:0:0:0:
304,149,137482,1,2,2:0:0:0:
323,143,137590,1,2,3:2:0:0:
346,136,137699,1,2,2:0:0:0:
368,127,137808,6,0,L|348:204,1,52.5,0|2,3:0|2:0,2:0:0:0:
332,254,138025,1,2,3:2:0:0:
170,166,138243,2,0,L|183:228,1,52.5,0|2,2:0|2:0,2:0:0:0:
200,294,138460,1,2,3:2:0:0:
265,56,138677,6,0,P|302:79|313:105,1,52.5,8|0,2:0|2:0,2:0:0:0:
384,108,138895,1,2,3:2:0:0:
398,119,139003,2,0,P|396:162|379:185,1,52.5,8|8,2:0|2:3,2:0:0:0:
291,209,139221,1,8,2:3:0:0:
304,197,139330,1,8,2:0:0:0:
272,173,139438,1,8,2:3:0:0:
228,177,139547,5,4,3:2:0:0:
88,248,139764,1,0,3:0:0:0:
252,348,139982,2,0,L|233:271,1,52.5,0|2,2:0|2:0,2:0:0:0:
176,249,140199,1,2,3:2:0:0:
0,379,140416,70,0,B|11:329|11:329|7:321|7:321|27:236,1,105,8|2,2:0|2:0,2:0:0:0:
88,248,140743,1,2,2:0:0:0:
0,165,140960,1,2,2:0:0:0:
18,169,141069,1,2,2:0:0:0:
252,79,141286,5,0,3:0:0:0:
135,49,141503,1,2,3:2:0:0:
330,209,141721,2,0,L|280:225,1,52.5,0|2,2:0|2:0,2:0:0:0:
157,267,141938,1,2,3:2:0:0:
344,99,142156,6,0,B|420:115|420:115|443:159,1,105,8|2,2:0|3:2,2:0:0:0:
484,195,142482,1,2,2:0:0:0:
334,264,142699,1,2,2:0:0:0:
346,227,142808,1,2,3:2:0:0:
183,27,143025,5,0,3:0:0:0:
244,149,143243,1,2,3:2:0:0:
15,218,143460,2,0,L|24:166,1,52.5,0|2,2:0|2:0,2:0:0:0:
166,116,143677,1,2,3:2:0:0:
49,312,143895,70,0,B|72:304|72:304|78:304|78:304|113:291,1,68.2499968757631,8|2,2:0|3:2,2:0:0:0:
327,246,144112,1,8,2:0:0:0:
272,224,144221,1,8,2:0:0:0:
216,212,144330,1,8,2:3:0:0:
199,242,144438,1,8,2:3:0:0:
204,271,144547,1,8,2:3:0:0:
220,288,144656,1,8,2:3:0:0:
291,233,144764,6,0,P|310:110|328:-6,1,220.499993270874,4|0,3:2|2:0,2:0:0:0:
439,30,145634,37,8,2:0:0:0:
445,61,145706,1,8,2:0:0:0:
453,93,145779,1,8,2:0:0:0:
460,125,145851,2,0,L|394:104,2,52.5000020027161,8|8|8,2:0|2:3|2:3,2:0:0:0:
372,193,146069,53,8,2:3:0:0:
384,244,146177,1,8,2:3:0:0:
392,287,146286,1,8,2:3:0:0:
401,320,146395,1,8,2:3:0:0:
459,258,146503,6,0,B|376:195|317:272|342:291|273:355|184:295,1,275.62501051426,4|0,3:2|2:0,2:0:0:0:
152,204,147373,37,8,2:0:0:0:
187,193,147445,1,8,2:0:0:0:
224,185,147518,1,8,2:0:0:0:
260,175,147590,2,0,L|247:233,2,52.5000020027161,8|0|0,2:0|3:0|3:0,2:0:0:0:
169,114,147808,53,8,2:0:0:0:
319,69,148025,1,4,3:2:0:0:
77,294,148243,6,0,L|63:225,1,52.5,4|0,3:2|2:0,2:0:0:0:
52,169,148460,2,0,L|37:83,1,52.5,0|0,3:0|2:0,2:0:0:0:
162,19,148677,37,0,1:0:0:0:
183,25,148750,1,0,1:0:0:0:
199,40,148822,1,8,2:0:0:0:
208,63,148895,1,8,2:0:0:0:
205,86,148967,1,0,3:0:0:0:
195,108,149040,1,0,3:0:0:0:
178,121,149112,38,0,L|132:110,2,45.4999979171754,8|8|8,2:3|2:3|2:3,2:0:0:0:
260,183,149330,2,0,L|306:172,2,45.4999979171754,8|0|0,2:3|3:0|3:0,2:0:0:0:
247,293,149547,69,8,2:0:0:0:
137,245,149692,1,4,3:2:0:0:
257,297,149837,1,2,3:2:0:0:
155,368,149982,54,0,P|169:261|193:108,1,236.250009012223,4|0,3:2|1:0,2:0:0:0:
253,77,150706,53,0,1:0:0:0:
264,85,150779,1,8,2:0:0:0:
273,93,150851,2,0,L|286:173,2,52.5000020027161,8|8|8,2:0|2:3|2:3,2:0:0:0:
362,187,151069,2,0,L|375:107,2,52.5000020027161,8|8|8,2:3|2:3|2:3,2:0:0:0:
287,233,151286,1,8,2:3:0:0:
7,40,151721,54,0,B|89:-4|137:59|125:80|163:156|277:92,1,275.62501051426,4|0,3:2|2:0,2:0:0:0:
317,52,152590,2,0,P|359:98|326:138,1,115.50000352478,8|2,2:0|2:0,2:0:0:0:
417,347,153460,6,0,P|404:285|395:222,1,125.999996154785,2|2,3:2|2:0,2:0:0:0:
312,361,154330,2,0,P|303:298|290:236,1,125.999996154785,10|2,2:0|2:0,2:0:0:0:
68,74,155199,5,2,2:0:0:0:
218,100,155416,2,0,P|152:79|52:62,1,157.500006008148,0|0,3:0|2:0,2:0:0:0:
0,190,156069,5,8,2:0:0:0:
0,190,156286,2,0,P|49:176|123:166,1,115.50000352478,2|0,2:0|2:0,2:0:0:0:
249,239,156938,69,2,2:0:0:0:
152,350,157156,2,0,P|147:308|130:250,1,78.7500030040742,0|0,3:0|2:0,2:0:0:0:
256,333,157590,1,8,2:0:0:0:
256,333,157808,2,0,P|246:294|242:244,1,78.7500030040742,2|0,2:0|2:0,2:0:0:0:
364,167,158243,1,2,2:0:0:0:
340,250,158460,1,2,2:0:0:0:
248,126,158678,5,0,3:0:0:0:
248,126,158895,2,0,P|313:142|362:153,1,115.50000352478,2|2,2:0|2:0,2:0:0:0:
477,26,159547,37,8,2:0:0:0:
401,54,159692,1,2,2:0:0:0:
499,212,159982,37,8,2:0:0:0:
343,137,160127,1,8,2:0:0:0:
104,384,160417,6,0,L|116:313,1,68.25,4|0,3:2|2:0,2:0:0:0:
184,253,161938,6,0,B|131:210|131:210|68:240|2:262,1,188.999994232178,4|0,3:2|2:0,2:0:0:0:
27,341,162373,2,0,B|53:196|53:196|57:192|57:192|81:52,1,283.499991348267,4|0,3:2|2:0,2:0:0:0:
147,24,162808,2,0,B|167:72|226:99|226:99|168:97|129:166,1,188.999994232178,4|0,3:2|2:0,2:0:0:0:
148,208,163243,6,0,P|207:265|216:174,1,204.749993751526,4|0,3:2|2:0,2:0:0:0:
294,136,164764,6,0,L|363:153,1,62.9999980773926,8|0,2:3|2:0,2:0:0:0:
371,143,165090,2,0,L|443:162,1,62.9999980773926,8|0,2:3|2:0,2:0:0:0:
446,155,165416,1,8,2:3:0:0:
346,227,165634,1,8,2:3:0:0:
232,47,166069,5,8,2:3:0:0:
244,44,166141,1,8,2:3:0:0:
252,41,166214,1,8,2:3:0:0:
264,39,166286,1,8,2:3:0:0:
274,37,166359,1,8,2:3:0:0:
285,34,166431,1,8,2:3:0:0:
296,31,166503,2,0,L|284:84,1,31.4999990386963,8|8,2:3|2:3,2:0:0:0:
471,296,166938,54,0,L|456:229,1,68.25,4|0,3:2|2:0,2:0:0:0:
376,177,168460,6,0,B|329:231|329:231|327:229|327:229|372:293|377:346,1,188.999994232178,4|0,3:2|2:0,2:0:0:0:
445,378,168895,2,0,B|315:350|315:350|306:352|306:352|153:320,1,283.499991348267,4|0,3:2|2:0,2:0:0:0:
103,261,169330,2,0,B|144:235|146:199|146:199|233:220|248:277,1,188.999994232178,4|0,3:2|2:0,2:0:0:0:
335,251,169765,6,0,P|375:206|278:175,1,204.749993751526,4|0,3:2|2:0,2:0:0:0:
184,156,171286,6,0,L|199:230,1,62.9999980773926,8|0,2:3|2:0,2:0:0:0:
210,228,171612,2,0,L|225:302,1,62.9999980773926,8|0,2:3|2:0,2:0:0:0:
240,303,171938,1,8,2:3:0:0:
105,259,172156,1,8,2:3:0:0:
463,28,173460,70,0,P|437:60|443:86,1,68.25,4|0,3:2|2:0,2:0:0:0:
419,180,174982,6,0,B|354:160|351:100|351:100|325:161|233:152,1,220.499993270874,4|0,3:2|2:0,2:0:0:0:
229,69,175417,2,0,B|189:135|233:183|264:198|264:198|256:205|256:205|296:214|332:285|295:346,1,315,4|0,3:2|2:0,2:0:0:0:
220,380,175852,2,0,B|185:319|121:307|121:307|200:277|226:333,1,220.499993270874,4|0,3:2|2:0,2:0:0:0:
290,264,176286,6,0,P|313:197|223:226,1,204.749993751526,4|0,3:2|2:0,2:0:0:0:
148,288,177808,6,0,L|131:200,1,62.9999980773926,8|0,2:3|2:0,2:0:0:0:
143,211,178134,2,0,L|126:123,1,62.9999980773926,8|0,2:3|2:0,2:0:0:0:
141,134,178460,1,8,2:3:0:0:
48,227,178677,1,8,2:3:0:0:
278,32,179547,5,8,2:0:0:0:
274,48,179620,1,8,2:3:0:0:
270,63,179692,1,8,2:3:0:0:
268,76,179765,1,0,3:0:0:0:
85,174,179982,54,0,P|101:167|142:191,1,68.25,4|0,3:2|2:0,2:0:0:0:
135,276,181504,6,0,B|184:292|206:356|206:356|192:285|242:253,1,220.499993270874,12|0,2:0|2:0,2:0:0:0:
317,292,181938,2,0,B|348:212|262:169|262:169|255:175|255:175|167:112|231:17,1,315,4|0,3:2|2:0,2:0:0:0:
306,22,182373,2,0,B|375:57|373:137|373:137|353:102|275:81,1,220.499993270874,4|0,3:2|2:0,2:0:0:0:
204,27,182808,6,0,P|142:38|83:62,2,125.999996154785,4|2|0,3:2|2:0|2:0,2:0:0:0:
65,256,186503,6,0,B|14:304|-95:202|1:72|182:130|109:262|177:285|260:249,1,420,4|0,3:2|2:0,2:0:0:0:
294,147,187589,2,0,P|254:139|216:181,1,91.875,0|0,2:0|2:0,2:0:0:0:
347,348,187952,70,0,B|362:290|361:231|361:231|381:201|381:201|382:152|397:64,1,284.806128247297,0|0,2:0|2:0,2:0:0:0:
160,0,188676,53,0,2:0:0:0:
207,59,188821,1,0,2:0:0:0:
156,117,188965,1,0,2:0:0:0:
220,188,189110,37,0,2:0:0:0:
185,225,189255,1,0,2:0:0:0:
136,207,189400,1,0,2:0:0:0:
77,273,189545,69,0,2:0:0:0:
43,259,189690,1,0,2:0:0:0:
40,227,189835,1,0,2:0:0:0:
74,148,189980,54,0,P|58:89|53:75,1,65.3333313395183,0|0,2:0|2:0,2:0:0:0:
112,19,190318,2,0,B|166:-7|252:24|182:77|268:136|339:89,1,260.39998966919,0|0,2:0|2:0,2:0:0:0:
349,107,191236,2,0,P|411:64|351:15,1,163.333328348796,0|0,2:0|2:0,2:0:0:0:
172,137,192010,53,0,2:0:0:0:
213,154,192155,1,0,2:0:0:0:
132,233,192300,37,0,2:0:0:0:
154,222,192445,1,0,2:0:0:0:
188,319,192589,69,0,2:0:0:0:
185,310,192734,1,0,2:0:0:0:
252,241,192878,38,0,B|294:269|294:269|280:333,1,97.9999970092774,0|0,2:0|2:0,2:0:0:0:
466,365,193458,70,0,P|448:303|431:257,1,97.9999970092774,0|0,3:0|2:0,2:0:0:0:
488,211,193893,1,2,2:0:0:0:
423,154,194038,1,0,2:0:0:0:
343,235,194183,1,0,2:0:0:0:
276,123,194328,54,0,B|172:103|172:103|162:106|162:106|54:87,1,210,2|2,2:0|2:0,2:0:0:0:
14,147,194871,1,2,2:0:0:0:
17,159,194980,2,0,L|30:205,1,36.749998878479,0|0,2:0|2:0,2:0:0:0:
97,300,195197,5,0,3:0:0:0:
205,261,195415,1,0,2:0:0:0:
297,117,195632,1,2,2:0:0:0:
436,165,195850,1,0,2:0:0:0:
340,338,196067,5,2,2:0:0:0:
333,319,196176,1,0,2:0:0:0:
326,298,196284,1,0,2:0:0:0:
320,279,196393,1,0,2:0:0:0:
345,242,196502,2,0,L|353:186,1,52.5,2|0,2:0|2:0,2:0:0:0:
429,306,196719,2,0,L|438:247,1,52.5,2|0,2:0|2:0,2:0:0:0:
291,89,196936,22,0,B|367:64|367:64|389:77,1,105,0|2,3:0|2:0,2:0:0:0:
449,129,197226,1,2,2:0:0:0:
459,124,197299,1,2,2:0:0:0:
468,121,197371,2,0,L|480:65,2,35,2|0|0,2:0|2:0|2:0,2:0:0:0:
371,165,197589,37,2,2:0:0:0:
360,169,197661,1,2,2:0:0:0:
350,174,197734,1,2,2:0:0:0:
341,177,197806,2,0,L|328:241,1,52.5,2|0,2:0|2:0,2:0:0:0:
489,289,198023,69,2,2:0:0:0:
484,277,198096,1,2,2:0:0:0:
479,266,198168,1,2,2:0:0:0:
475,254,198241,54,0,L|390:231,1,52.5,2|0,2:0|2:0,2:0:0:0:
283,348,198458,2,0,L|221:332,1,52.5,2|0,2:0|2:0,2:0:0:0:
246,226,198676,54,0,B|235:178|235:178|236:173|236:173|222:108,1,105,0|2,3:0|2:0,2:0:0:0:
160,68,198965,1,2,2:0:0:0:
163,58,199038,1,2,2:0:0:0:
165,48,199110,2,0,L|230:28,2,35,2|0|0,2:0|2:0|2:0,2:0:0:0:
78,67,199328,37,2,2:0:0:0:
76,78,199400,1,2,2:0:0:0:
73,88,199473,1,2,2:0:0:0:
71,98,199545,2,0,L|3:117,1,52.5,2|0,2:0|2:0,2:0:0:0:
144,243,199763,69,2,2:0:0:0:
139,232,199835,1,2,2:0:0:0:
134,221,199907,1,2,2:0:0:0:
129,209,199980,54,0,L|147:134,1,52.5,2|0,2:0|2:0,2:0:0:0:
332,33,200197,2,0,L|350:108,1,52.5,8|0,2:0|2:0,2:0:0:0:
466,136,200415,6,0,L|427:360,1,210,4|2,3:2|2:0,2:0:0:0:
285,294,201067,1,0,2:0:0:0:
301,305,201176,1,2,2:0:0:0:
316,315,201284,38,0,L|328:434,2,70,8|0|0,2:0|2:0|2:0,2:0:0:0:
371,215,201719,1,2,2:0:0:0:
295,157,201864,1,0,2:0:0:0:
381,222,202009,1,0,2:0:0:0:
240,261,202154,2,0,B|191:250|191:250|158:266|158:266|47:247,1,140,0|0,3:0|2:0,2:0:0:0:
50,129,202589,53,2,3:2:0:0:
84,116,202697,1,0,2:0:0:0:
108,105,202806,2,0,L|115:47,2,35,2|2|2,2:0|2:0|2:0,2:0:0:0:
175,148,203023,1,2,2:0:0:0:
9,194,203241,1,0,2:0:0:0:
56,209,203350,1,2,2:0:0:0:
92,244,203458,2,0,L|69:328,1,52.5,2|0,2:0|2:0,2:0:0:0:
284,144,203676,2,0,L|261:66,1,52.5,8|0,2:0|2:0,2:0:0:0:
178,158,203893,54,0,P|199:233|216:314,1,140,0|0,2:0|2:0,2:0:0:0:
283,361,204328,1,2,3:2:0:0:
359,309,204474,1,0,2:0:0:0:
302,236,204618,1,0,2:0:0:0:
419,163,204763,37,8,2:0:0:0:
431,204,204908,1,0,2:0:0:0:
399,225,205053,1,0,2:0:0:0:
320,142,205198,69,2,2:0:0:0:
288,45,205343,1,0,2:0:0:0:
333,152,205488,1,0,2:0:0:0:
435,89,205632,54,0,P|396:72|367:71,3,52.5,0|0|0|0,2:0|2:0|3:0|2:0,2:0:0:0:
333,152,206067,53,0,3:0:0:0:
305,160,206139,1,0,2:0:0:0:
287,176,206212,1,0,2:0:0:0:
275,199,206284,1,2,2:0:0:0:
272,225,206357,1,0,2:0:0:0:
276,244,206429,1,0,2:0:0:0:
286,260,206502,38,0,L|345:244,2,35,8|0|0,2:0|2:0|2:0,2:0:0:0:
365,325,206719,2,0,L|398:334,2,35,0|0|0,2:0|2:0|2:0,2:0:0:0:
232,353,206936,69,2,2:0:0:0:
224,331,207009,1,0,2:0:0:0:
180,313,207081,1,0,2:0:0:0:
139,327,207154,1,0,3:0:0:0:
108,357,207226,1,0,2:0:0:0:
73,348,207299,1,0,2:0:0:0:
65,328,207371,38,0,L|79:259,2,45.4999979171754,0|0|0,3:0|2:0|2:0,2:0:0:0:
150,234,207589,1,2,2:0:0:0:
145,219,207661,1,2,2:0:0:0:
138,201,207734,1,2,2:0:0:0:
132,185,207806,70,0,L|70:171,2,45.4999979171754,2|0|0,2:0|2:0|2:0,2:0:0:0:
37,87,208023,2,0,L|81:76,2,45.4999979171754,2|0|0,2:0|2:0|2:0,2:0:0:0:
166,0,208241,37,8,2:0:0:0:
198,21,208313,1,0,2:0:0:0:
209,38,208386,1,0,2:0:0:0:
213,59,208458,2,0,P|199:109|194:143,1,68.2499968757631,0|0,2:0|2:0,2:0:0:0:
118,202,208676,69,2,2:0:0:0:
129,224,208748,1,0,2:0:0:0:
137,246,208821,1,0,2:0:0:0:
141,263,208893,1,0,2:0:0:0:
144,279,208965,1,0,2:0:0:0:
146,293,209038,1,0,2:0:0:0:
147,312,209110,2,0,P|105:296|69:286,1,68.2499968757631,0|0,3:0|2:0,2:0:0:0:
309,150,209328,37,0,2:0:0:0:
275,173,209400,1,0,2:0:0:0:
268,199,209473,1,0,2:0:0:0:
293,240,209545,1,0,3:0:0:0:
289,260,209618,1,0,2:0:0:0:
269,277,209690,1,0,2:0:0:0:
256,271,209763,2,0,P|269:325|272:339,1,52.5,2|2,2:0|2:0,2:0:0:0:
457,189,209980,5,2,2:0:0:0:
512,251,210089,2,0,B|447:239|447:239|443:234|443:234|378:221,1,136.499993751526,8|2,2:0|2:0,2:0:0:0:
334,159,210415,2,0,L|287:169,1,47.2499985580445,2|0,2:0|2:0,2:0:0:0:
418,45,210632,2,0,L|340:59,1,47.2499985580445,2|0,2:0|2:0,2:0:0:0:
144,0,210850,5,0,3:0:0:0:
211,85,211068,1,0,3:0:0:0:
81,169,211285,1,2,2:0:0:0:
69,195,211394,1,2,2:0:0:0:
65,218,211503,1,0,2:0:0:0:
252,364,211720,5,8,2:0:0:0:
303,305,211829,2,0,P|289:245|272:155,1,125.999996154785,2|0,2:0|2:0,2:0:0:0:
204,138,212155,2,0,L|217:56,1,62.9999980773926,2|0,2:0|2:0,2:0:0:0:
384,220,212372,2,0,L|400:127,1,62.9999980773926,2|0,2:0|2:0,2:0:0:0:
472,96,212590,1,0,2:0:0:0:
296,165,212807,21,2,2:0:0:0:
292,186,212879,1,2,2:0:0:0:
289,202,212952,1,2,2:0:0:0:
285,219,213024,2,0,B|275:260|275:260|277:267|277:267|267:318,1,73.4999977569581,2|0,2:0|2:0,2:0:0:0:
455,384,213242,70,0,B|486:344|486:344|441:203,1,146.999995513916,0|2,3:0|2:0,2:0:0:0:
109,320,213676,101,8,2:0:0:0:
182,299,213785,1,8,2:3:0:0:
258,281,213894,1,8,2:3:0:0:
21,167,214111,1,8,2:3:0:0:
317,17,214329,6,0,P|309:58|306:87,1,68.25,4|0,3:2|2:0,2:0:0:0:
226,111,215851,6,0,B|340:88|285:207|436:160,1,188.999994232178,4|0,3:2|2:0,2:0:0:0:
447,103,216285,2,0,B|483:131|501:180|501:180|445:240|445:240|443:298|405:381,1,283.499991348267,4|0,3:2|2:0,2:0:0:0:
341,371,216720,2,0,P|267:333|341:293,1,188.999994232178,4|0,3:2|2:0,2:0:0:0:
423,274,217155,6,0,P|349:258|204:225,1,220.499993270874,4|0,3:2|2:0,2:0:0:0:
110,80,218894,5,8,2:0:0:0:
148,70,218966,1,8,2:0:0:0:
187,60,219039,1,8,2:0:0:0:
224,48,219111,2,0,L|234:-6,2,45.4999979171754,8|0|0,2:0|3:0|3:0,2:0:0:0:
236,140,219329,37,8,2:3:0:0:
255,145,219401,1,8,2:3:0:0:
274,150,219474,1,8,2:3:0:0:
294,156,219546,1,8,2:3:0:0:
313,161,219619,1,0,3:0:0:0:
332,167,219691,1,0,3:0:0:0:
352,173,219764,69,8,2:0:0:0:
430,127,219908,1,8,2:3:0:0:
402,37,220053,1,8,2:3:0:0:
304,42,220198,1,8,2:3:0:0:
444,142,220343,37,8,2:0:0:0:
119,337,220850,6,0,P|113:301|106:270,1,68.25,4|0,3:2|2:0,2:0:0:0:
32,213,222372,6,0,B|128:175|108:297|231:245,1,188.999994232178,4|0,3:2|2:0,2:0:0:0:
253,326,222807,2,0,B|280:281|329:271|329:271|273:234|241:159|298:83,1,283.499991348267,4|0,3:2|2:0,2:0:0:0:
347,50,223242,2,0,P|415:109|331:153,1,188.999994232178,4|0,3:2|2:0,2:0:0:0:
266,100,223676,6,0,B|223:93|179:83|179:83|163:87|163:87|124:78|63:68,1,204.749993751526,4|0,3:2|2:0,2:0:0:0:
16,138,225198,6,0,L|28:224,1,62.9999980773926,8|0,2:3|2:0,2:0:0:0:
41,211,225524,2,0,L|53:297,1,62.9999980773926,8|0,2:3|2:0,2:0:0:0:
66,287,225850,1,8,2:3:0:0:
133,166,226068,1,8,2:3:0:0:
447,232,227372,70,0,P|352:205|284:201,1,125.999996154785,4|0,3:2|3:0,2:0:0:0:
238,281,227698,1,0,3:0:0:0:
239,303,227807,2,0,P|311:234|347:177,1,125.999996154785,10|0,2:0|3:0,2:0:0:0:
300,108,228133,1,0,3:0:0:0:
280,96,228242,2,0,P|303:192|334:252,1,125.999996154785,2|0,3:2|3:0,2:0:0:0:
429,246,228568,1,0,3:0:0:0:
447,232,228677,1,10,2:0:0:0:
195,155,228894,5,0,3:0:0:0:
207,179,229003,1,0,3:0:0:0:
212,205,229111,1,2,3:2:0:0:
180,248,229220,1,0,3:0:0:0:
128,254,229329,1,0,3:0:0:0:
86,228,229437,1,0,3:0:0:0:
80,177,229546,1,10,2:0:0:0:
301,54,229764,5,0,3:0:0:0:
274,39,229872,1,0,3:0:0:0:
249,26,229981,2,0,P|163:43|108:50,1,125.999996154785,2|0,3:2|3:0,2:0:0:0:
11,141,230307,1,0,3:0:0:0:
26,127,230416,2,0,L|102:142,1,62.9999980773926,10|0,2:0|2:0,2:0:0:0:
122,212,230633,2,0,L|235:229,1,62.9999980773926,4|0,3:2|2:0,2:0:0:0:
340,17,230851,6,0,B|328:78|328:78|332:84|332:84|313:185,1,125.999996154785,4|0,3:2|3:0,2:0:0:0:
407,210,231177,1,0,3:0:0:0:
399,185,231285,1,10,2:0:0:0:
185,223,231503,69,0,3:0:0:0:
179,247,231611,1,0,3:0:0:0:
171,269,231720,1,2,3:2:0:0:
199,317,231829,1,0,3:0:0:0:
257,320,231937,1,0,3:0:0:0:
293,275,232046,1,0,3:0:0:0:
277,220,232155,1,10,2:0:0:0:
69,124,232372,5,0,3:0:0:0:
62,148,232481,1,0,3:0:0:0:
56,171,232590,2,0,P|154:150|205:139,1,125.999996154785,2|0,3:2|3:0,2:0:0:0:
406,191,233024,5,10,2:0:0:0:
236,42,233242,1,0,3:0:0:0:
278,70,233351,1,0,3:0:0:0:
289,124,233459,1,2,3:2:0:0:
427,9,233677,1,0,3:0:0:0:
187,131,233894,6,0,B|195:175|195:175|194:178|194:178|204:227,1,84,12|0,2:0|2:0,2:0:0:0:
440,280,234111,2,0,B|432:244|432:244|433:241|433:241|425:197,1,84,4|0,3:2|2:0,2:0:0:0:
163,314,234329,70,0,P|251:291|313:271,1,125.999996154785,4|0,3:2|3:0,2:0:0:0:
374,361,234655,1,0,3:0:0:0:
374,383,234764,2,0,P|330:338|284:295,1,125.999996154785,10|0,2:0|3:0,2:0:0:0:
308,174,235090,1,0,3:0:0:0:
327,163,235198,2,0,P|309:223|295:284,1,125.999996154785,2|0,3:2|3:0,2:0:0:0:
174,336,235524,1,0,3:0:0:0:
163,314,235633,5,10,2:0:0:0:
424,209,235851,1,8,2:0:0:0:
284,71,236068,6,0,P|315:98|301:182,1,125.999996154785,2|0,3:2|3:0,2:0:0:0:
176,87,236394,1,0,3:0:0:0:
157,73,236503,2,0,P|164:32|244:2,1,125.999996154785,10|0,2:0|3:0,2:0:0:0:
213,178,236829,1,0,3:0:0:0:
208,199,236937,2,0,P|169:212|103:158,1,125.999996154785,2|0,3:2|3:0,2:0:0:0:
263,80,237264,1,0,3:0:0:0:
284,71,237372,5,12,2:0:0:0:
310,98,237481,1,0,3:0:0:0:
318,140,237590,1,0,3:0:0:0:
306,178,237698,1,0,3:0:0:0:
359,245,237807,70,0,P|431:224|486:210,1,125.999996154785,4|0,3:2|3:0,2:0:0:0:
369,343,238133,1,0,3:0:0:0:
357,357,238242,2,0,P|285:336|230:322,1,125.999996154785,10|0,2:0|3:0,2:0:0:0:
144,226,238568,1,0,3:0:0:0:
156,240,238677,2,0,P|228:219|283:205,1,125.999996154785,2|0,3:2|3:0,2:0:0:0:
374,140,239003,1,0,3:0:0:0:
365,116,239111,5,12,2:0:0:0:
257,351,239329,1,8,2:0:0:0:
39,188,239546,5,4,3:2:0:0:
175,253,239764,1,0,3:0:0:0:
49,12,239981,1,12,2:0:0:0:
301,83,240198,21,0,3:0:0:0:
284,86,240271,1,0,3:0:0:0:
267,89,240343,1,0,3:0:0:0:
248,92,240416,54,0,B|208:100|208:100|202:99|202:99|154:111,1,78.7500030040742,4|0,3:2|2:0,2:0:0:0:
27,342,240633,2,0,B|57:349|57:349|63:348|63:348|103:356,1,78.7500030040742,4|0,3:2|2:0,2:0:0:0:
30,115,240851,6,0,P|44:107|37:116,1,39.3750015020371,8|8,2:0|2:0,2:0:0:0:
85,228,241068,2,0,P|78:209|73:196,1,26.2500010013581,8|8,2:3|2:3,2:0:0:0:
296,0,241285,6,0,P|273:145|248:293,1,228.375006969452,4|0,3:2|3:0,2:0:0:0:
379,252,241720,5,10,3:2:0:0:
382,232,241829,1,0,3:0:0:0:
386,217,241937,1,0,3:0:0:0:
391,199,242046,1,0,3:0:0:0:
336,141,242155,69,2,3:2:0:0:
280,137,242264,1,0,3:0:0:0:
239,176,242372,1,0,3:0:0:0:
245,234,242481,1,0,3:0:0:0:
305,282,242590,5,10,3:2:0:0:
317,315,242698,1,0,3:0:0:0:
306,350,242807,1,0,3:0:0:0:
282,372,242916,1,0,3:0:0:0:
203,353,243024,5,2,3:2:0:0:
191,320,243133,1,0,3:0:0:0:
202,285,243242,1,0,3:0:0:0:
226,263,243351,1,0,3:0:0:0:
262,194,243459,5,10,3:2:0:0:
231,125,243568,1,0,3:0:0:0:
156,114,243677,1,0,3:0:0:0:
101,165,243785,1,0,3:0:0:0:
24,150,243894,69,2,3:2:0:0:
26,94,244003,1,0,3:0:0:0:
69,62,244111,1,0,3:0:0:0:
121,68,244220,1,0,3:0:0:0:
168,130,244329,5,10,3:2:0:0:
156,157,244437,1,0,3:0:0:0:
149,190,244546,1,0,3:0:0:0:
145,217,244655,1,0,3:0:0:0:
83,271,244764,6,0,B|188:248|188:248|202:250|202:250|372:212,1,228.375006969452,4|0,3:2|3:0,2:0:0:0:
384,123,245198,5,10,3:2:0:0:
365,117,245307,1,0,3:0:0:0:
349,113,245416,1,0,3:0:0:0:
331,109,245524,1,0,3:0:0:0:
291,39,245633,69,2,3:2:0:0:
230,59,245742,1,0,3:0:0:0:
207,117,245851,1,0,3:0:0:0:
238,169,245959,1,0,3:0:0:0:
176,216,246068,5,10,3:2:0:0:
138,192,246177,1,0,3:0:0:0:
94,202,246285,1,0,3:0:0:0:
66,238,246394,1,0,3:0:0:0:
92,311,246503,5,2,3:2:0:0:
130,287,246611,1,0,3:0:0:0:
174,297,246720,1,0,3:0:0:0:
202,333,246829,1,0,3:0:0:0:
277,304,246937,5,10,3:2:0:0:
304,228,247046,1,0,3:0:0:0:
252,166,247155,1,0,3:0:0:0:
172,164,247264,1,0,3:0:0:0:
130,242,247372,69,10,3:2:0:0:
172,302,247481,1,0,3:0:0:0:
193,373,247590,1,0,3:0:0:0:
266,325,247698,5,8,3:2:0:0:
289,303,247807,2,0,L|306:209,1,76.1250023231507,8|8,3:2|3:0,2:0:0:0:
174,169,248024,2,0,L|149:41,1,76.1250023231507,8|8,3:0|3:0,2:0:0:0:
508,66,248242,6,0,P|378:98|251:131,1,228.375006969452,4|0,3:2|3:0,2:0:0:0:
242,12,248677,5,10,3:2:0:0:
224,7,248785,1,0,3:0:0:0:
209,3,248894,1,0,3:0:0:0:
189,0,249003,1,0,3:0:0:0:
116,40,249111,69,2,3:2:0:0:
84,86,249220,1,0,3:0:0:0:
97,141,249329,1,0,3:0:0:0:
151,165,249437,1,0,3:0:0:0:
218,131,249546,5,10,3:2:0:0:
252,138,249655,1,0,3:0:0:0:
277,165,249764,1,0,3:0:0:0:
284,196,249872,1,0,3:0:0:0:
228,257,249981,5,10,3:2:0:0:
194,250,250090,1,0,3:0:0:0:
169,223,250198,1,0,3:0:0:0:
162,192,250307,1,0,3:0:0:0:
99,144,250416,5,10,3:2:0:0:
30,175,250524,1,0,3:0:0:0:
19,250,250633,1,0,3:0:0:0:
70,305,250742,1,0,3:0:0:0:
147,283,250851,69,10,3:2:0:0:
151,231,250959,1,0,3:0:0:0:
189,199,251068,1,0,3:0:0:0:
241,196,251177,1,0,3:0:0:0:
305,239,251285,6,0,P|291:284|288:294,3,38.0625011615754,10|0|0|0,3:2|3:0|3:0|3:0,2:0:0:0:
223,304,251502,2,0,P|228:322|234:340,3,38.0625011615754,0|0|0|0,3:2|3:0|3:0|3:0,2:0:0:0:
161,384,251720,6,0,P|148:322|112:231,1,152.250004646301,4|0,3:2|2:0,2:0:0:0:
193,176,252046,1,8,2:0:0:0:
127,114,252155,2,0,P|62:137|16:146,1,76.1250023231507,8|0,2:0|2:0,2:0:0:0:
294,253,252372,5,8,2:3:0:0:
298,238,252481,1,8,2:3:0:0:
302,223,252590,2,0,P|367:200|413:191,1,76.1250023231507,8|0,2:0|2:0,2:0:0:0:
417,130,252807,1,8,2:3:0:0:
238,17,253024,69,2,2:0:0:0:
271,109,253242,1,8,2:3:0:0:
505,114,253459,6,0,P|477:47|406:48,1,152.250004646301,4|0,3:2|2:0,2:0:0:0:
367,134,253785,1,8,2:0:0:0:
443,187,253894,2,0,P|431:242|423:302,1,76.1250023231507,8|8,2:0|2:3,2:0:0:0:
218,340,254111,5,8,2:3:0:0:
240,344,254220,1,8,2:3:0:0:
262,353,254329,5,8,2:3:0:0:
301,322,254437,1,8,2:3:0:0:
303,272,254546,1,8,2:3:0:0:
265,241,254655,1,8,2:3:0:0:
215,242,254763,70,0,P|158:262|121:274,1,65.625,4|0,3:2|2:0,2:0:0:0:
93,353,254981,2,0,P|36:333|-1:321,1,65.625,4|0,3:2|2:0,2:0:0:0:
49,90,255198,5,4,3:2:0:0:
159,157,255415,1,0,3:0:0:0:
44,221,255632,1,8,2:0:0:0:
147,18,255850,1,2,3:2:0:0:
155,30,255958,1,0,3:0:0:0:
161,44,256068,2,0,L|291:71,1,105,0|2,3:0|3:2,2:0:0:0:
390,218,256502,1,8,2:0:0:0:
512,166,256719,1,2,3:2:0:0:
379,10,256937,5,0,3:0:0:0:
373,35,257045,1,0,3:0:0:0:
368,58,257154,1,2,3:2:0:0:
314,270,257371,1,8,2:0:0:0:
172,83,257589,5,2,3:2:0:0:
216,97,257697,1,0,3:0:0:0:
258,125,257806,1,0,3:0:0:0:
108,217,258024,1,2,3:2:0:0:
311,349,258241,1,8,2:0:0:0:
226,206,258458,1,2,3:2:0:0:
13,378,258676,70,0,P|88:355|148:340,1,105,4|2,3:2|3:2,2:0:0:0:
243,218,259110,1,8,2:0:0:0:
62,76,259329,53,2,3:2:0:0:
67,92,259401,1,0,2:0:0:0:
71,106,259473,1,0,2:0:0:0:
76,127,259546,2,0,P|93:193|104:245,1,105,0|2,3:0|3:2,2:0:0:0:
296,349,259980,53,8,2:0:0:0:
332,282,260089,1,8,2:0:0:0:
405,286,260198,1,8,2:3:0:0:
417,298,260307,1,8,2:3:0:0:
425,320,260415,6,0,P|436:252|453:172,1,105,4|2,3:2|3:2,2:0:0:0:
289,4,260850,1,8,2:0:0:0:
471,61,261067,1,2,3:2:0:0:
464,79,261176,1,0,3:0:0:0:
459,93,261285,2,0,P|390:110|313:136,1,105,0|2,3:0|3:2,2:0:0:0:
229,280,261719,1,8,2:0:0:0:
109,216,261937,1,2,3:2:0:0:
215,34,262154,5,0,3:0:0:0:
225,63,262263,1,0,3:0:0:0:
234,97,262371,1,2,3:2:0:0:
68,10,262589,1,8,2:0:0:0:
18,248,262806,5,2,3:2:0:0:
52,214,262915,1,0,3:0:0:0:
104,206,263024,1,0,3:0:0:0:
219,311,263241,1,2,3:2:0:0:
371,95,263458,1,8,2:0:0:0:
211,182,263676,1,4,3:2:0:0:
474,301,263893,70,0,P|391:271|352:263,1,105,4|2,3:2|3:2,2:0:0:0:
270,384,264328,1,8,2:0:0:0:
99,193,264545,1,2,3:2:0:0:
128,239,264654,1,0,3:0:0:0:
140,295,264763,1,0,3:0:0:0:
297,131,264980,6,0,P|267:170|269:218,1,68.2499968757631,4|0,3:2|2:0,2:0:0:0:
350,253,265198,1,8,2:0:0:0:
341,37,265415,6,0,P|289:33|251:56,1,68.2499968757631,4|0,3:2|2:0,2:0:0:0:
22,84,265632,6,0,P|82:97|172:127,1,136.499993751526,4|0,3:2|3:0,2:0:0:0:
266,52,265958,1,0,3:0:0:0:
205,0,266067,2,0,P|186:59|167:152,1,136.499993751526,10|0,2:0|3:0,2:0:0:0:
236,237,266393,1,0,3:0:0:0:
288,176,266502,2,0,P|229:157|136:138,1,136.499993751526,2|0,3:2|3:0,2:0:0:0:
48,209,266828,1,0,3:0:0:0:
109,261,266937,1,10,2:0:0:0:
276,74,267154,69,0,3:0:0:0:
297,67,267263,1,0,3:0:0:0:
325,62,267371,6,0,B|368:104|368:104|344:142|339:209,1,136.499993751526,2|0,3:2|3:0,2:0:0:0:
205,226,267698,1,0,3:0:0:0:
181,153,267806,1,10,2:0:0:0:
362,276,268024,1,0,3:0:0:0:
338,326,268132,1,0,3:0:0:0:
322,375,268241,2,0,B|262:356|262:356|246:358|246:358|175:339,1,136.499993751526,2|0,3:2|3:0,2:0:0:0:
85,231,268567,1,0,3:0:0:0:
31,299,268676,6,0,P|40:331|47:365,1,68.2499968757631,10|0,2:0|2:0,2:0:0:0:
215,235,268893,2,0,P|222:201|231:168,1,68.2499968757631,4|0,3:2|2:0,2:0:0:0:
41,21,269111,5,4,3:2:0:0:
88,140,269328,1,0,3:0:0:0:
340,0,269545,1,10,2:0:0:0:
206,247,269763,1,0,3:0:0:0:
159,6,269980,70,0,P|148:46|182:89,1,84,2|0,3:2|2:0,2:0:0:0:
371,289,270198,2,0,P|381:246|357:210,1,84,2|0,3:2|2:0,2:0:0:0:
34,204,270415,53,8,2:3:0:0:
70,204,270487,1,8,2:0:0:0:
107,208,270560,1,8,2:0:0:0:
142,214,270632,1,8,2:0:0:0:
179,222,270705,1,8,2:0:0:0:
216,236,270777,1,8,2:0:0:0:
249,252,270850,1,4,3:2:0:0:
462,85,272589,53,2,3:2:0:0:
384,72,272698,1,8,2:0:0:0:
341,140,272806,1,8,2:0:0:0:
385,207,272915,2,0,P|428:193|484:180,1,84,8|8,2:0|2:3,2:0:0:0:
149,95,273132,5,8,2:3:0:0:
210,42,273241,2,0,P|253:56|309:69,1,84,8|8,2:0|2:3,2:0:0:0:
244,291,273458,5,8,2:3:0:0:
288,225,273567,2,0,P|260:186|145:189,1,168,8|8,2:0|2:0,2:0:0:0:
35,164,273893,21,8,2:0:0:0:
51,196,273966,1,8,2:0:0:0:
62,230,274038,1,8,2:0:0:0:
71,260,274111,1,8,2:0:0:0:
79,295,274183,2,0,P|69:343|66:387,1,56,8|8,2:3|2:3,2:0:0:0:
258,305,274328,54,0,B|374:353|344:190|495:276,1,220.499993270874,4|0,3:2|2:0,2:0:0:0:
511,192,274763,54,0,P|502:164|483:104,1,48.9999985046387,8|8,2:0|2:3,2:0:0:0:
422,105,274908,1,0,3:0:0:0:
425,90,274980,1,0,3:0:0:0:
430,70,275053,1,0,3:0:0:0:
434,54,275125,1,0,3:0:0:0:
438,38,275198,102,0,L|487:25,2,36.749998878479,8|8|8,2:3|2:3|2:3,3:0:0:0:
328,154,275415,2,0,L|377:167,2,36.749998878479,0|0|0,3:0|3:0|3:0,2:0:0:0:
163,0,275632,69,8,2:0:0:0:
268,37,275850,1,0,3:0:0:0:
149,317,276067,6,0,P|162:253|181:176,1,126,2|0,3:2|2:0,2:0:0:0:
164,174,276285,2,0,P|97:194|66:202,1,84,2|0,2:0|2:0,2:0:0:0:
344,342,276502,2,0,P|303:353|263:365,1,84,8|0,2:0|2:0,2:0:0:0:
414,151,276719,2,0,P|347:171|316:179,1,84,2|0,2:0|2:0,2:0:0:0:
268,249,276937,5,0,3:0:0:0:
70,3,277154,6,0,P|145:26|151:52,1,84,2|0,2:0|2:0,2:0:0:0:
60,228,277371,2,0,P|42:151|61:133,1,84,8|0,2:0|2:0,2:0:0:0:
269,110,277589,1,2,3:2:0:0:
239,164,277698,1,0,3:0:0:0:
177,155,277806,1,0,3:0:0:0:
428,369,278024,70,0,P|413:290|403:243,1,84,2|0,3:2|2:0,2:0:0:0:
250,181,278241,2,0,P|235:260|225:307,1,84,8|0,2:0|2:0,2:0:0:0:
436,101,278458,2,0,P|421:22|411:-25,1,84,2|0,2:0|2:0,2:0:0:0:
361,197,278676,5,0,3:0:0:0:
263,17,278893,6,0,P|183:57|183:109,1,84,2|0,3:2|2:0,2:0:0:0:
149,246,279111,2,0,P|154:156|108:131,1,84,8|0,2:0|2:0,2:0:0:0:
0,33,279328,1,2,3:2:0:0:
22,84,279437,1,0,3:0:0:0:
80,94,279545,1,0,3:0:0:0:
318,241,279763,6,0,P|284:249|252:260,1,68.2499968757631,4|0,3:2|2:0,2:0:0:0:
39,298,279980,2,0,P|145:275|284:232,1,204.749990627289,12|0,2:0|2:0,2:0:0:0:
255,155,280415,70,0,P|288:146|320:135,1,68.2499968757631,4|0,3:2|2:0,2:0:0:0:
474,13,280632,6,0,B|445:44|445:44|460:82,1,84,4|0,3:2|2:0,2:0:0:0:
338,16,280850,1,8,2:0:0:0:
377,296,281067,6,0,B|348:265|348:265|375:200,1,84,4|0,3:2|2:0,2:0:0:0:
494,200,281285,2,0,B|523:231|523:231|496:296,1,84,4|0,3:2|2:0,2:0:0:0:
308,384,281502,5,0,3:0:0:0:
252,370,281611,1,0,3:0:0:0:
195,355,281719,2,0,L|81:324,1,84,10|0,2:0|2:0,2:0:0:0:
14,198,281937,1,0,3:0:0:0:
70,184,282045,1,0,3:0:0:0:
127,169,282154,1,2,3:2:0:0:
287,2,282371,70,0,P|259:49|289:106,1,84,0|0,3:0|2:0,2:0:0:0:
436,198,282589,2,0,P|409:150|344:147,1,84,10|0,2:0|2:0,2:0:0:0:
184,238,282806,1,0,3:0:0:0:
238,246,282915,1,0,3:0:0:0:
271,201,283024,5,2,3:2:0:0:
255,183,283132,1,0,3:0:0:0:
229,171,283241,5,0,3:0:0:0:
222,226,283350,1,0,3:0:0:0:
213,281,283458,2,0,L|198:386,1,84,10|0,2:0|2:0,2:0:0:0:
403,251,283676,1,0,3:0:0:0:
393,197,283785,1,0,3:0:0:0:
384,141,283893,1,2,3:2:0:0:
129,16,284111,6,0,P|164:36|183:73,1,84,2|0,3:2|2:0,2:0:0:0:
34,233,284328,2,0,P|33:191|56:156,1,84,8|0,2:0|2:0,2:0:0:0:
300,218,284545,2,0,P|264:238|222:236,1,84,2|0,3:2|2:0,2:0:0:0:
158,161,284763,69,0,3:0:0:0:
401,19,284980,6,0,P|409:72|418:109,1,68.2499968757631,12|0,2:0|2:0,2:0:0:0:
398,303,285198,2,0,P|384:191|371:124,1,136.499993751526,12|0,2:0|3:0,2:0:0:0:
133,33,285632,6,0,P|173:42|212:48,1,68.2499968757631,12|0,2:0|2:0,2:0:0:0:
292,158,285850,2,0,P|252:149|213:143,1,68.2499968757631,0|0,3:0|2:0,2:0:0:0:
336,17,286067,5,12,2:0:0:0:
126,210,286285,70,0,B|97:178|97:178|123:114,1,84,12|0,2:0|2:0,2:0:0:0:
393,95,286502,70,0,P|401:134|413:173,4,67.2,4|0|0|0|0,3:2|2:0|2:0|2:0|2:0,2:0:0:0:
301,189,286937,5,8,3:2:0:0:
281,231,287024,1,0,2:0:0:0:
275,280,287111,1,0,2:0:0:0:
303,268,287198,1,0,2:0:0:0:
335,261,287285,1,0,2:0:0:0:
359,255,287372,102,0,P|344:306|339:354,4,67.2,2|0|0|0|0,3:2|2:0|2:0|2:0|2:0,2:0:0:0:
216,352,287807,5,8,3:2:0:0:
180,326,287894,1,0,2:0:0:0:
138,310,287981,1,0,2:0:0:0:
163,295,288068,1,0,2:0:0:0:
187,278,288155,1,0,2:0:0:0:
204,256,288242,102,0,P|198:219|190:164,4,67.2,2|0|0|0|0,3:2|2:0|2:0|2:0|2:0,2:0:0:0:
83,171,288676,5,8,3:2:0:0:
90,142,288763,1,0,2:0:0:0:
95,114,288850,1,0,2:0:0:0:
101,87,288937,1,0,2:0:0:0:
105,61,289024,1,0,2:0:0:0:
109,34,289111,101,2,3:2:0:0:
159,24,289198,1,0,2:0:0:0:
201,53,289285,1,0,2:0:0:0:
206,93,289372,1,0,2:0:0:0:
195,117,289459,1,0,2:0:0:0:
168,134,289546,2,0,P|136:137|98:152,5,56,8|0|0|0|0|0,3:2|2:0|2:0|3:0|2:0|2:0,2:0:0:0:
223,224,289981,5,2,3:2:0:0:
261,229,290068,1,0,2:0:0:0:
298,242,290155,1,0,2:0:0:0:
328,257,290242,1,0,2:0:0:0:
345,270,290329,1,0,2:0:0:0:
362,289,290415,2,0,P|349:320|341:349,5,56,8|0|0|0|0|0,3:2|2:0|2:0|3:0|2:0|2:0,2:0:0:0:
464,231,290850,101,2,3:2:0:0:
444,186,290937,1,0,2:0:0:0:
410,162,291024,1,0,2:0:0:0:
372,161,291111,1,0,2:0:0:0:
347,168,291198,1,0,2:0:0:0:
328,184,291285,38,0,P|317:140|304:113,1,56,8|8,2:0|2:0,2:0:0:0:
94,0,291502,2,0,P|125:128|126:158,1,112,8|8,2:3|2:3,2:0:0:0:
103,138,291720,6,0,P|171:120|235:107,1,115.50000352478,4|0,3:2|3:0,2:0:0:0:
282,7,292155,1,2,3:2:0:0:
468,143,292372,1,8,2:0:0:0:
387,31,292590,2,0,P|368:145|363:191,1,115.50000352478,2|0,2:0|3:0,2:0:0:0:
322,210,292916,1,0,3:0:0:0:
331,237,293025,1,2,3:2:0:0:
184,56,293242,1,8,2:0:0:0:
117,189,293459,6,0,P|185:171|249:158,1,115.50000352478,2|0,2:0|3:0,2:0:0:0:
285,104,293785,1,0,3:0:0:0:
307,114,293894,1,2,3:2:0:0:
474,296,294111,1,8,2:0:0:0:
205,335,294329,5,4,3:2:0:0:
233,210,294546,1,0,3:0:0:0:
344,357,294764,1,10,2:0:0:0:
368,235,294981,1,0,3:0:0:0:
95,92,295198,70,0,P|112:162|129:254,1,115.50000352478,4|0,3:2|3:0,2:0:0:0:
0,175,295633,1,2,3:2:0:0:
198,35,295851,1,8,2:0:0:0:
255,189,296068,5,2,2:0:0:0:
142,121,296285,1,0,3:0:0:0:
136,142,296394,1,0,3:0:0:0:
131,162,296503,2,0,P|114:232|97:324,1,115.50000352478,12|0,2:0|3:0,2:0:0:0:
420,384,296938,6,0,P|398:296|388:242,1,125.999996154785,4|0,3:2|3:0,2:0:0:0:
299,90,297372,2,0,B|297:120|297:120|284:151,1,62.9999980773926,2|0,3:2|2:0,2:0:0:0:
498,199,297590,2,0,B|500:166|500:166|513:138,1,62.9999980773926,8|0,2:0|2:0,2:0:0:0:
379,275,297807,6,0,P|318:289|258:308,1,125.999996154785,2|0,2:0|3:0,2:0:0:0:
197,378,298133,1,0,3:0:0:0:
162,362,298242,2,0,P|155:331|147:301,1,62.9999980773926,2|0,3:2|2:0,2:0:0:0:
296,135,298459,2,0,P|303:166|311:196,1,62.9999980773926,8|0,2:0|2:0,2:0:0:0:
184,193,298677,70,0,P|123:177|63:159,1,125.999996154785,2|0,2:0|3:0,2:0:0:0:
0,250,299003,1,0,3:0:0:0:
12,271,299111,2,0,P|72:257|102:252,1,62.9999980773926,2|0,3:2|2:0,2:0:0:0:
173,91,299329,2,0,P|204:85|234:77,1,62.9999980773926,8|0,2:0|2:0,2:0:0:0:
256,301,299546,6,0,P|262:264|277:202,1,94.499997116089,4|0,3:2|2:0,2:0:0:0:
293,204,299764,1,0,3:0:0:0:
45,150,299981,6,0,P|28:34|18:-10,1,126,10|0,2:0|2:0,2:0:0:0:
9,9,300198,1,0,3:0:0:0:
366,106,300416,6,0,B|305:97|305:97|299:93|299:93|208:78,1,125.999996154785,4|0,3:2|3:0,2:0:0:0:
163,126,300742,1,0,3:0:0:0:
178,165,300851,1,2,3:2:0:0:
426,22,301068,1,8,2:0:0:0:
279,0,301285,69,2,3:2:0:0:
421,294,301503,1,8,2:0:0:0:
285,208,301720,1,2,3:2:0:0:
467,20,301937,53,8,2:3:0:0:
459,38,302010,1,8,2:3:0:0:
454,57,302082,1,8,2:3:0:0:
452,75,302154,54,0,B|384:47|407:141|282:90,1,136.499993751526,4|0,3:2|3:0,2:0:0:0:
189,15,302589,1,4,3:2:0:0:
279,253,302806,1,8,2:0:0:0:
150,142,303024,1,4,2:0:0:0:
76,286,303241,1,0,3:0:0:0:
55,266,303350,1,0,3:0:0:0:
59,238,303458,1,4,3:2:0:0:
283,149,303676,1,8,2:0:0:0:
160,121,303893,6,0,P|134:183|201:237,1,136.499993751526,4|0,2:0|3:0,2:0:0:0:
250,260,304219,1,0,3:0:0:0:
259,233,304328,1,4,3:2:0:0:
332,19,304545,1,8,2:0:0:0:
488,266,304763,5,4,3:2:0:0:
450,134,304980,1,0,3:0:0:0:
351,286,305198,1,10,2:0:0:0:
319,155,305415,1,0,3:0:0:0:
69,319,305632,6,0,B|137:291|114:385|239:334,1,136.499993751526,4|0,3:2|3:0,2:0:0:0:
249,50,306067,69,12,2:0:0:0:
123,93,306285,1,0,3:0:0:0:
382,308,306502,5,12,2:0:0:0:
265,265,306719,1,0,3:0:0:0:
508,69,306937,5,12,2:0:0:0:
371,115,307154,2,0,B|401:101|401:101|411:104|411:104|442:93,1,68.2499968757631,8|8,2:3|2:3,2:0:0:0:
512,241,307371,21,2,3:2:0:0:
509,253,307444,1,0,3:0:0:0:
506,266,307516,1,0,3:0:0:0:
503,279,307589,1,0,3:0:0:0:
500,292,307661,1,0,3:0:0:0:
407,357,307806,37,10,3:2:0:0:
404,344,307879,1,0,3:0:0:0:
401,331,307951,1,0,3:0:0:0:
398,318,308024,1,0,3:0:0:0:
395,306,308096,1,0,3:0:0:0:
391,293,308169,1,0,3:0:0:0:
387,280,308241,2,0,P|295:302|208:359,2,168,2|0|10,3:2|3:0|2:0,2:0:0:0:
297,188,308821,69,0,3:0:0:0:
286,183,308893,1,0,3:0:0:0:
275,179,308966,1,0,3:0:0:0:
264,177,309038,1,0,3:0:0:0:
249,175,309111,2,0,P|295:283|318:371,2,168,2|0|10,3:2|3:0|2:0,2:0:0:0:
337,107,309690,37,0,3:0:0:0:
341,97,309763,1,0,3:0:0:0:
345,84,309835,1,0,3:0:0:0:
349,70,309908,1,0,3:0:0:0:
355,56,309980,6,0,P|485:27|553:5,1,168,4|0,3:2|3:0,2:0:0:0:
236,208,310415,2,0,P|155:185|72:168,1,168,12|0,2:0|3:0,2:0:0:0:
502,358,310850,5,4,3:2:0:0:
464,265,311067,1,0,3:0:0:0:
284,88,311285,5,8,2:0:0:0:
214,343,311502,1,0,3:0:0:0:
347,248,311719,1,12,2:0:0:0:
105,103,311937,5,8,2:3:0:0:
151,157,312045,1,8,2:3:0:0:
156,215,312154,1,8,2:3:0:0:
277,119,312371,1,8,2:3:0:0:
0,286,312589,69,4,3:2:0:0:
57,205,312806,1,0,3:0:0:0:
163,233,313024,1,2,3:2:0:0:
178,330,313241,1,0,3:0:0:0:
438,222,313458,5,10,2:0:0:0:
381,141,313676,1,0,3:0:0:0:
275,169,313893,1,2,3:2:0:0:
260,266,314111,1,0,3:0:0:0:
57,6,314328,5,4,3:2:0:0:
173,29,314545,1,0,3:0:0:0:
194,143,314763,1,2,3:2:0:0:
89,206,314980,1,0,3:0:0:0:
345,280,315198,6,0,P|357:218|373:157,1,125.999996154785,10|0,2:0|3:0,2:0:0:0:
155,28,315632,2,0,P|171:89|183:151,1,125.999996154785,10|0,2:0|3:0,2:0:0:0:
153,370,316067,69,4,3:2:0:0:
91,286,316285,1,0,3:0:0:0:
0,340,316502,1,2,3:2:0:0:
237,298,316719,1,8,2:0:0:0:
144,185,316937,5,2,2:0:0:0:
206,101,317154,1,0,3:0:0:0:
306,223,317371,6,0,P|298:193|292:162,1,62.9999980773926,10|0,2:0|2:0,2:0:0:0:
53,64,317589,2,0,P|61:94|67:125,1,62.9999980773926,4|0,3:2|2:0,2:0:0:0:
369,78,317806,5,4,3:2:0:0:
269,20,318024,1,0,3:0:0:0:
195,110,318241,1,2,3:2:0:0:
444,0,318458,1,8,2:0:0:0:
464,150,318676,69,2,2:0:0:0:
359,89,318893,1,0,3:0:0:0:
318,349,319111,53,8,2:0:0:0:
325,307,319183,1,8,2:0:0:0:
334,271,319256,1,8,2:3:0:0:
343,244,319328,1,8,2:3:0:0:
353,220,319400,1,8,2:3:0:0:
364,203,319473,1,8,2:3:0:0:
371,187,319545,54,0,B|238:144|289:309|119:230,1,236.250009012223,4|0,3:2|2:0,2:0:0:0:
60,172,319980,5,0,1:0:0:0:
143,106,320198,1,0,1:0:0:0:
282,153,320415,5,8,2:0:0:0:
320,316,320632,1,8,2:0:0:0:
80,182,320850,1,8,2:0:0:0:
376,21,321067,1,8,2:0:0:0:
180,295,321285,5,8,2:3:0:0:
212,215,321502,1,8,2:3:0:0:
122,139,321719,1,8,2:3:0:0:
15,223,321937,1,8,2:3:0:0:
87,374,322154,1,8,2:3:0:0:
255,336,322371,1,8,2:3:0:0:
302,154,322589,1,8,2:3:0:0:
111,42,322806,1,8,2:3:0:0:
348,277,323024,5,8,2:0:0:0:
382,260,323096,1,8,2:0:0:0:
417,247,323169,1,8,2:0:0:0:
451,236,323241,2,0,P|457:193|464:166,2,52.5000020027161,8|8|8,2:0|2:3|2:3,2:0:0:0:
355,125,323458,53,8,2:3:0:0:
360,151,323567,1,8,2:3:0:0:
345,168,323676,5,8,2:0:0:0:
268,148,323785,1,8,2:0:0:0:
194,123,323893,1,8,2:0:0:0:
144,193,324002,5,8,2:3:0:0:
157,245,324111,1,8,2:3:0:0:
209,262,324219,1,8,2:3:0:0:
255,235,324328,1,0,3:0:0:0:
396,40,324763,21,8,2:3:0:0:
392,53,324835,1,8,2:3:0:0:
298,72,324980,37,0,3:0:0:0:
292,61,325053,1,0,3:0:0:0:
291,48,325125,1,0,3:0:0:0:
293,35,325198,1,8,2:3:0:0:
301,24,325270,1,8,2:3:0:0:
363,132,325415,70,0,P|355:164|354:179,4,35,0|0|0|8|8,3:0|3:0|3:0|2:3|2:3,2:0:0:0:
268,247,325850,37,0,3:0:0:0:
265,229,325922,1,0,3:0:0:0:
259,213,325995,1,0,3:0:0:0:
249,195,326067,2,0,B|324:258|400:262|400:262|321:306|299:365|299:365|298:324|260:263,1,377.999988464356,8|0,2:0|2:0,2:0:0:0:
254,177,328347,5,4,3:2:0:0:
290,274,328564,2,0,P|268:169|264:152,1,84,0|0,3:0|2:0,2:0:0:0:
310,124,328890,1,0,0:0:0:0:
305,107,328999,1,2,0:0:0:0:
19,176,329216,5,8,2:0:0:0:
172,275,329434,1,2,2:0:0:0:
155,224,329543,1,2,2:0:0:0:
28,335,329760,1,2,2:0:0:0:
41,303,329869,1,2,2:0:0:0:
76,68,330086,5,0,3:0:0:0:
47,174,330303,1,2,3:2:0:0:
36,163,330412,2,0,P|152:126|194:122,1,126,0|2,0:0|3:2,2:0:0:0:
436,307,330955,5,8,2:0:0:0:
324,160,331173,1,2,2:0:0:0:
368,171,331281,1,2,2:0:0:0:
265,294,331499,1,2,2:0:0:0:
292,281,331607,1,2,2:0:0:0:
173,81,331825,69,0,3:0:0:0:
105,11,332042,1,2,3:2:0:0:
112,25,332150,1,0,2:0:0:0:
119,46,332259,1,0,2:0:0:0:
126,72,332368,1,2,2:0:0:0:
132,101,332476,1,2,3:2:0:0:
136,133,332585,1,0,2:0:0:0:
104,182,332694,5,8,2:0:0:0:
133,166,332802,1,0,2:0:0:0:
166,178,332911,1,2,2:0:0:0:
192,230,333020,5,8,2:0:0:0:
218,234,333129,1,0,2:0:0:0:
238,221,333237,1,8,2:3:0:0:
245,158,333346,5,8,2:0:0:0:
297,125,333455,1,8,2:0:0:0:
347,159,333563,69,4,3:2:0:0:
454,104,333781,2,0,P|423:193|419:220,1,84,0|0,3:0|2:2,2:0:0:0:
367,239,334107,1,0,0:0:0:0:
374,257,334216,1,2,3:2:0:0:
84,362,334433,5,8,2:0:0:0:
176,251,334650,1,2,2:0:0:0:
219,258,334759,1,2,2:0:0:0:
287,367,334976,1,2,2:0:0:0:
311,360,335085,1,2,2:0:0:0:
376,154,335302,5,0,3:0:0:0:
407,270,335520,1,2,3:2:0:0:
406,254,335629,2,0,P|326:216|257:220,1,126,0|2,0:2|3:2,2:0:0:0:
36,6,336172,5,8,2:0:0:0:
170,72,336389,1,2,2:0:0:0:
157,116,336498,1,2,2:0:0:0:
48,193,336716,1,2,2:0:0:0:
60,222,336824,1,2,3:2:0:0:
259,310,337042,69,0,3:0:0:0:
189,384,337259,1,2,3:2:0:0:
194,368,337368,1,0,2:0:0:0:
201,347,337476,1,0,2:0:0:0:
208,321,337585,1,2,2:0:0:0:
214,292,337694,1,2,2:0:0:0:
218,260,337802,1,0,2:0:0:0:
175,226,337911,5,8,2:0:0:0:
182,198,338020,1,0,2:0:0:0:
206,178,338129,1,2,1:2:0:0:
255,172,338237,1,0,1:0:0:0:
285,216,338346,1,8,2:0:0:0:
340,245,338455,1,8,2:3:0:0:
378,225,338563,5,8,2:3:0:0:
383,206,338672,1,8,2:3:0:0:
362,191,338781,1,4,3:2:0:0:
493,234,338998,2,0,B|386:196|419:341|277:287,1,210,0|2,3:0|2:0,2:0:0:0:
170,89,339650,6,0,P|192:170|202:239,1,105,8|2,2:0|2:0,2:0:0:0:
148,251,339976,1,2,2:0:0:0:
276,133,340194,1,2,2:0:0:0:
293,144,340302,2,0,P|303:189|286:215,1,52.5,2|2,3:2|2:0,2:0:0:0:
127,21,340520,69,0,3:0:0:0:
34,81,340737,2,0,B|137:63|137:63|142:60|142:60|274:37,1,210,2|2,3:2|3:2,2:0:0:0:
444,193,341389,5,8,2:0:0:0:
289,158,341607,6,0,P|305:200|306:237,1,52.5,2|2,2:0|2:0,2:0:0:0:
349,301,341824,2,0,P|377:266|408:246,1,52.5,0|2,2:0|2:0,2:0:0:0:
440,177,342042,2,0,P|395:169|363:152,1,52.5,2|2,3:2|2:0,2:0:0:0:
199,244,342259,5,0,3:0:0:0:
254,329,342476,1,2,3:2:0:0:
250,308,342585,1,0,2:0:0:0:
243,280,342694,1,0,2:0:0:0:
237,247,342802,1,2,2:0:0:0:
227,214,342911,1,2,3:2:0:0:
217,182,343020,1,0,2:0:0:0:
175,149,343129,69,8,2:0:0:0:
195,114,343237,1,0,2:0:0:0:
235,108,343346,1,2,3:2:0:0:
282,78,343455,5,8,2:0:0:0:
295,101,343563,1,0,2:0:0:0:
319,111,343672,1,8,2:3:0:0:
343,164,343781,5,8,2:0:0:0:
396,159,343889,1,8,2:3:0:0:
413,107,343998,2,0,L|398:33,1,52.5,4|0,3:2|2:0,2:0:0:0:
231,240,344216,5,2,3:2:0:0:
251,213,344324,1,0,2:0:0:0:
292,207,344433,1,0,2:0:0:0:
333,231,344542,1,2,2:0:0:0:
371,273,344650,1,2,2:0:0:0:
432,269,344759,1,0,2:0:0:0:
446,194,344868,69,8,2:0:0:0:
400,192,344976,1,0,2:0:0:0:
368,217,345085,1,2,2:0:0:0:
362,254,345194,1,2,2:0:0:0:
375,288,345302,2,0,P|425:302|452:312,1,52.5,0|2,2:0|2:0,2:0:0:0:
303,168,345520,2,0,P|253:154|226:144,1,52.5,2|0,2:0|2:0,2:0:0:0:
133,372,345737,53,0,3:0:0:0:
90,285,345882,1,0,2:0:0:0:
164,226,346027,1,0,2:0:0:0:
246,282,346172,2,0,P|230:343|226:392,1,105,0|2,2:0|3:2,2:0:0:0:
450,217,346607,37,8,2:0:0:0:
482,146,346752,1,0,2:0:0:0:
420,93,346897,1,0,2:0:0:0:
345,138,347042,2,0,P|361:199|364:242,1,84,0|2,2:0|3:2,2:0:0:0:
111,108,347476,5,0,3:0:0:0:
177,84,347585,1,0,2:0:0:0:
248,68,347694,2,0,P|252:36|258:15,2,45.4999979171754,2|0|0,3:2|2:0|2:0,2:0:0:0:
197,165,347911,5,0,2:0:0:0:
205,184,348020,1,2,2:0:0:0:
215,210,348129,1,2,3:2:0:0:
222,235,348237,1,0,2:0:0:0:
227,257,348346,6,0,P|265:237|302:232,1,68.2499968757631,8|2,2:0|3:2,2:0:0:0:
461,99,348563,1,8,2:0:0:0:
497,164,348672,1,8,2:0:0:0:
449,143,348781,1,8,2:3:0:0:
403,132,348889,1,8,2:3:0:0:
364,124,348998,1,8,2:3:0:0:
329,119,349107,1,8,2:3:0:0:
298,111,349216,6,0,B|300:146|322:177|322:177|304:234|278:274|278:274|283:274|283:274|313:338|424:294|377:211,1,346.500010574341,4|2,3:2|2:0,2:0:0:0:
189,176,350085,70,0,P|147:186|117:194,1,57.7500017623902,8|0,2:0|2:0,2:0:0:0:
97,319,350302,1,2,2:0:0:0:
112,336,350411,2,0,P|124:294|132:264,1,57.7500017623902,2|0,2:0|2:0,2:0:0:0:
18,212,350629,1,2,2:0:0:0:
0,221,350737,1,2,2:0:0:0:
22,243,350846,1,0,2:0:0:0:
40,261,350955,6,0,P|54:198|72:131,1,115.50000352478,0|2,3:0|3:2,2:0:0:0:
129,81,351281,1,0,2:0:0:0:
128,65,351389,2,0,P|82:46|47:65,1,57.7500017623902,0|0,2:0|2:0,2:0:0:0:
169,206,351607,2,0,P|215:187|250:206,1,57.7500017623902,2|0,3:2|2:0,2:0:0:0:
282,13,351824,5,8,2:0:0:0:
252,26,351933,1,0,2:0:0:0:
244,68,352042,1,2,2:0:0:0:
270,105,352150,1,2,2:0:0:0:
321,119,352259,1,0,2:0:0:0:
364,162,352368,1,2,2:0:0:0:
369,238,352476,1,2,2:0:0:0:
308,281,352585,1,0,2:0:0:0:
261,269,352694,5,0,3:0:0:0:
254,243,352802,1,0,2:0:0:0:
183,210,352911,69,2,3:2:0:0:
195,173,353020,1,0,2:0:0:0:
277,163,353129,54,0,P|313:150|331:147,2,38.5000011749268,0|0|0,2:0|2:0|2:0,2:0:0:0:
224,84,353346,2,0,P|205:78|187:70,2,38.5000011749268,2|0|0,3:2|2:0|2:0,2:0:0:0:
145,213,353563,53,8,2:0:0:0:
105,196,353672,2,0,P|150:181|197:173,1,73.4999977569581,0|2,2:0|2:0,2:0:0:0:
350,329,353889,6,0,P|262:311|246:255,1,146.999995513916,8|8,2:0|2:3,2:0:0:0:
289,180,354216,5,8,2:0:0:0:
362,160,354324,1,8,2:0:0:0:
435,142,354433,1,4,3:2:0:0:
365,27,354650,2,0,B|385:92|389:148|389:148|399:155|399:155|404:209|419:278,1,251.999992309571,0|2,3:0|3:2,2:0:0:0:
289,353,355302,5,8,2:0:0:0:
183,176,355520,1,2,2:0:0:0:
216,201,355629,2,0,L|299:222,1,62.9999980773926,2|0,2:0|2:0,2:0:0:0:
97,338,355846,1,2,2:0:0:0:
107,320,355955,2,0,L|199:298,1,62.9999980773926,2|0,2:0|2:0,2:0:0:0:
323,349,356172,69,0,3:0:0:0:
296,366,356281,2,0,P|286:331|307:309,1,62.9999980773926,0|2,2:0|3:2,2:0:0:0:
105,217,356498,6,0,P|112:186|119:150,1,62.9999980773926,0|0,2:0|2:0,2:0:0:0:
195,32,356716,1,2,2:0:0:0:
243,63,356824,2,0,P|250:94|257:130,1,62.9999980773926,2|0,3:2|2:0,2:0:0:0:
391,249,357042,5,8,2:0:0:0:
364,258,357150,1,0,2:0:0:0:
333,233,357259,1,2,2:0:0:0:
330,179,357368,1,2,2:0:0:0:
279,139,357476,1,0,2:0:0:0:
206,168,357585,1,2,2:0:0:0:
210,248,357694,1,2,3:2:0:0:
455,114,357911,5,0,3:0:0:0:
473,136,358020,2,0,P|333:114|141:45,1,341.249984378815,0|2,2:0|2:0,2:0:0:0:
35,299,358781,70,0,P|87:269|126:263,1,62.9999980773926,8|0,2:0|2:0,2:0:0:0:
158,203,358998,2,0,P|215:220|263:244,1,62.9999980773926,2|0,2:0|2:0,2:0:0:0:
0,25,359216,5,8,2:0:0:0:
15,55,359324,1,8,2:3:0:0:
26,84,359433,1,8,2:3:0:0:
35,116,359542,1,8,2:3:0:0:
3,187,359650,5,4,3:2:0:0:
75,199,359759,1,0,2:0:0:0:
136,154,359868,1,2,3:2:0:0:
148,97,359976,1,0,2:0:0:0:
125,45,360085,2,0,P|83:28|53:23,4,50.3999984619141,0|0|0|0|0,2:0|2:0|2:0|2:0|2:0,2:0:0:0:
244,41,360520,21,8,2:0:0:0:
237,64,360592,1,0,2:0:0:0:
231,87,360665,1,0,2:0:0:0:
226,109,360737,1,2,2:0:0:0:
223,131,360810,1,0,2:0:0:0:
221,152,360882,1,0,2:0:0:0:
220,172,360955,2,0,P|242:163|282:156,5,41.9999987182618,0|0|0|2|0|0,2:0|2:0|2:0|3:2|2:0|2:0,2:0:0:0:
342,100,361389,37,0,3:0:0:0:
363,100,361462,1,0,0:0:0:0:
386,114,361535,1,0,0:0:0:0:
400,141,361607,2,0,P|399:188|369:216,1,62.9999980773926,2|0,3:2|2:0,2:0:0:0:
207,261,361824,69,0,2:0:0:0:
194,279,361897,1,0,2:0:0:0:
191,308,361969,1,0,2:0:0:0:
206,337,362042,1,2,3:2:0:0:
238,351,362114,1,0,2:0:0:0:
277,348,362187,1,0,2:0:0:0:
308,318,362260,54,0,P|312:280|290:243,1,62.9999980773926,8|0,2:0|2:0,2:0:0:0:
302,140,362476,2,0,P|271:118|228:118,1,62.9999980773926,2|2,2:0|2:0,2:0:0:0:
93,277,362694,5,0,2:0:0:0:
110,218,362802,1,2,2:0:0:0:
121,156,362911,1,2,3:2:0:0:
122,90,363020,1,0,2:0:0:0:
66,40,363129,5,0,3:0:0:0:
49,66,363237,1,2,2:0:0:0:
43,95,363347,2,0,P|64:156|65:169,2,41.9999987182618,2|0|0,3:2|0:0|0:0,0:0:0:0:
138,167,363564,2,0,P|128:194|122:233,4,50.3999984619141,0|0|0|0|0,2:0|2:0|2:0|2:0|2:0,2:0:0:0:
130,308,363998,5,8,2:0:0:0:
174,342,364107,1,0,2:0:0:0:
227,326,364216,1,2,2:0:0:0:
250,250,364324,2,0,P|232:188|218:137,1,78.7500030040742,8|0,2:0|2:0,2:0:0:0:
373,39,364542,1,8,2:3:0:0:
382,119,364650,2,0,P|343:109|305:101,1,78.7500030040742,8|8,2:0|2:3,2:0:0:0:
389,314,364868,70,0,P|429:300|462:295,1,62.9999980773926,4|0,3:2|2:0,2:0:0:0:
510,227,365085,2,0,B|496:253|496:253|309:303|309:303|293:327,1,251.999992309571,2|2,3:2|2:0,2:0:0:0:
230,84,365737,6,0,P|270:98|303:103,1,62.9999980773926,8|0,2:0|2:0,2:0:0:0:
350,172,365955,2,0,B|336:146|336:146|149:96|149:96|133:72,1,251.999992309571,2|2,2:0|2:0,2:0:0:0:
159,30,366498,1,0,2:0:0:0:
206,25,366607,5,0,3:0:0:0:
217,37,366716,2,0,B|179:199|179:199|183:203|183:203|149:350|149:350|55:253|55:253|123:202,1,511.875001952648,0|2,2:0|3:2,2:0:0:0:
318,66,367476,6,0,B|308:107|308:107|303:107|303:107|308:112|308:112|294:179,1,81.375000620842,8|0,2:0|2:0,2:0:0:0:
78,136,367694,2,0,B|165:116|165:116|168:112|168:112|214:203|214:203|214:208|214:208|359:258,1,325.500002483368,2|2,3:2|3:2,2:0:0:0:
470,25,368346,69,0,3:0:0:0:
445,0,368455,2,0,B|380:59|380:59|408:161|408:161|483:193|483:193|469:200|469:200|423:357,1,406.87500310421,0|2,2:0|3:2,2:0:0:0:
113,196,369216,6,0,P|160:183|230:164,1,78.7500030040742,8|2,2:0|3:2,2:0:0:0:
287,362,369433,1,8,2:0:0:0:
358,335,369542,1,8,2:0:0:0:
309,314,369650,1,8,2:3:0:0:
264,302,369759,1,8,2:3:0:0:
225,292,369868,1,8,2:3:0:0:
190,286,369976,1,8,2:3:0:0:
154,284,370085,5,4,3:2:0:0:
119,378,370302,2,0,P|104:295|84:214,1,168,0|2,3:0|2:0,2:0:0:0:
193,5,370955,5,8,2:0:0:0:
89,82,371172,1,2,2:0:0:0:
75,93,371281,2,0,P|157:106|207:120,1,105,2|2,2:0|2:0,2:0:0:0:
268,71,371607,5,2,2:0:0:0:
274,94,371679,1,0,2:0:0:0:
279,113,371752,1,0,2:0:0:0:
284,132,371824,1,0,3:0:0:0:
128,270,372042,37,2,3:2:0:0:
130,258,372115,1,0,2:0:0:0:
132,247,372187,1,0,0:0:0:0:
136,232,372260,2,0,L|143:195,2,35,0|0|0,2:0|2:0|2:0,2:0:0:0:
209,283,372476,1,2,3:2:0:0:
375,185,372694,5,8,2:0:0:0:
229,102,372911,1,2,2:0:0:0:
246,82,373020,2,0,P|265:180|272:222,1,105,2|2,2:0|2:0,2:0:0:0:
211,252,373346,53,2,2:0:0:0:
186,231,373418,1,0,2:0:0:0:
161,238,373491,1,0,2:0:0:0:
130,218,373563,1,0,3:0:0:0:
276,355,373781,37,2,3:2:0:0:
297,337,373853,1,0,2:0:0:0:
319,343,373926,1,0,2:0:0:0:
342,329,373998,2,0,P|343:312|349:287,1,35,0|0,2:0|2:0,2:0:0:0:
476,178,374216,69,2,3:2:0:0:
476,194,374288,1,0,2:0:0:0:
470,209,374360,1,0,2:0:0:0:
458,216,374433,2,0,P|434:206|414:203,2,35,8|0|0,2:0|2:0|2:0,2:0:0:0:
340,151,374650,53,2,2:0:0:0:
393,99,374759,2,0,P|303:130|259:143,1,105,8|8,2:0|2:3,2:0:0:0:
230,83,375085,1,8,2:0:0:0:
171,133,375194,1,8,2:0:0:0:
210,199,375302,1,4,3:2:0:0:
46,298,375520,53,0,3:0:0:0:
54,274,375592,1,0,2:0:0:0:
60,254,375665,1,0,2:0:0:0:
69,234,375737,102,0,P|56:211|-10:209,1,68.2499968757631,0|2,2:0|2:0,2:0:0:0:
142,381,375955,2,0,P|162:335|150:311,1,68.2499968757631,2|0,3:2|2:0,2:0:0:0:
117,123,376172,5,8,2:0:0:0:
154,117,376245,1,0,2:0:0:0:
176,145,376317,1,0,2:0:0:0:
196,147,376389,2,0,P|180:193|167:224,1,52.5,2|2,2:0|2:0,2:0:0:0:
408,330,376716,101,2,2:0:0:0:
421,314,376824,2,0,P|406:259|386:182,1,105,2|0,2:0|3:0,2:0:0:0:
314,190,377150,85,2,2:0:0:0:
329,147,377259,1,2,3:2:0:0:
338,101,377368,1,0,2:0:0:0:
275,49,377476,5,0,2:0:0:0:
224,70,377585,1,2,2:0:0:0:
236,110,377694,1,2,3:2:0:0:
231,133,377802,1,0,2:0:0:0:
160,160,377911,5,8,2:0:0:0:
145,213,378020,1,0,2:0:0:0:
180,257,378129,1,2,2:0:0:0:
232,263,378237,117,2,2:0:0:0:
247,219,378346,1,0,2:0:0:0:
277,200,378455,1,2,2:0:0:0:
310,201,378563,1,2,3:2:0:0:
329,209,378672,1,0,2:0:0:0:
339,223,378781,85,0,3:0:0:0:
390,144,378998,2,0,B|373:222|373:222|375:226|375:226|357:318,1,157.5,2|2,3:2|2:0,2:0:0:0:
292,344,379433,2,0,B|271:329|283:329|287:334,1,26.25,2|0,2:0|2:0,2:0:0:0:
486,235,379650,5,8,2:0:0:0:
271,119,379868,1,10,2:3:0:0:
277,141,379976,1,8,2:3:0:0:
282,160,380085,5,8,2:0:0:0:
233,193,380194,1,8,2:3:0:0:
181,170,380302,1,8,2:3:0:0:
167,119,380411,1,8,2:3:0:0:
223,65,380520,118,0,B|254:72|254:72|258:71|258:71|306:84,1,57.7500017623902,4|0,3:2|2:0,2:0:0:0:
322,0,380737,2,0,B|302:83|302:83|305:89|305:89|273:218,1,173.250005287171,0|2,3:0|2:0,2:0:0:0:
327,233,381172,1,2,3:2:0:0:
127,122,381389,86,0,P|137:152|140:171,1,42,8|0,2:0|2:0,2:0:0:0:
130,181,381607,1,2,2:0:0:0:
365,74,381824,6,0,P|345:35|294:44,1,89.2500017023087,0|2,2:0|2:0,2:0:0:0:
128,278,382042,2,0,P|203:253|192:203,1,89.2500017023087,2|2,3:2|2:0,2:0:0:0:
163,62,382259,2,0,B|178:55|178:21|145:9|92:58|107:139|172:160|223:134|223:134|278:109|344:165|329:216|278:271,1,388.49999851799,0|0,3:0|2:0,2:0:0:0:
390,269,382766,21,0,2:0:0:0:
401,280,382839,1,0,2:0:0:0:
401,297,382911,2,0,P|372:325|310:304,1,76.1250023231507,2|0,3:2|2:0,2:0:0:0:
156,384,383129,102,0,P|178:311|206:240,1,152.250004646301,8|2,2:0|2:0,2:0:0:0:
181,164,383455,1,2,2:0:0:0:
105,165,383563,1,0,2:0:0:0:
75,204,383672,1,2,2:0:0:0:
75,238,383781,1,2,3:2:0:0:
87,257,383889,1,2,2:0:0:0:
163,271,383998,86,0,B|237:279|285:237|285:237|289:241|289:241|337:196|435:211,1,252,0|0,3:0|2:0,2:0:0:0:
495,195,384433,2,0,B|435:206|387:161|387:161|383:165|383:165|335:123|261:131,1,252,0|0,2:0|2:0,2:0:0:0:
189,49,384868,6,0,P|262:32|296:19,1,84,8|0,2:0|2:0,2:0:0:0:
186,204,385085,1,2,3:2:0:0:
135,154,385194,2,0,P|147:194|155:235,1,84,8|0,2:0|2:0,2:0:0:0:
378,223,385411,5,8,2:3:0:0:
341,160,385520,2,0,P|293:142|252:127,1,84,8|8,2:0|2:3,2:0:0:0:
177,345,385737,117,4,3:2:0:0:
44,341,385955,2,0,P|155:312|298:283,1,251.999992309571,0|2,3:0|3:2,2:0:0:0:
363,334,386462,5,0,2:0:0:0:
361,346,386534,1,0,2:0:0:0:
356,356,386607,102,0,P|313:369|279:382,1,52.5,8|0,2:0|2:0,2:0:0:0:
383,234,386824,2,0,P|350:203|322:180,1,52.5,2|2,2:0|2:0,2:0:0:0:
500,253,387042,2,0,P|510:209|516:173,1,52.5,0|2,2:0|2:0,2:0:0:0:
343,63,387259,5,2,2:0:0:0:
351,45,387331,1,0,2:0:0:0:
375,31,387404,1,0,2:0:0:0:
416,38,387476,2,0,P|421:84|431:121,1,68.2499968757631,0|0,3:0|2:0,2:0:0:0:
254,192,387694,102,0,P|264:167|272:157,1,34.1249984378815,2|0,3:2|2:0,2:0:0:0:
224,186,387802,2,0,P|234:161|237:146,1,34.1249984378815,0|0,2:0|2:0,2:0:0:0:
198,166,387911,2,0,P|208:141|216:131,1,34.1249984378815,0|0,2:0|2:0,2:0:0:0:
162,199,388020,86,0,P|125:211|111:219,1,34.1249984378815,2|0,2:0|2:0,2:0:0:0:
161,217,388129,2,0,P|127:235|114:246,1,34.1249984378815,2|0,3:2|2:0,2:0:0:0:
169,226,388237,2,0,P|138:250|128:262,1,34.1249984378815,0|0,2:0|2:0,2:0:0:0:
201,260,388346,6,0,P|207:289|209:306,1,34.1249984378815,8|0,2:0|2:0,2:0:0:0:
234,264,388455,2,0,P|230:293|226:310,1,34.1249984378815,0|0,2:0|2:0,2:0:0:0:
265,282,388563,2,0,P|251:308|242:322,1,34.1249984378815,2|0,3:2|2:0,2:0:0:0:
288,304,388672,2,0,P|266:324|252:334,1,34.1249984378815,2|0,2:0|2:0,2:0:0:0:
334,300,388781,6,0,P|352:327|373:350,1,34.1249984378815,0|0,2:0|2:0,2:0:0:0:
354,255,388889,2,0,P|388:246|407:222,1,34.1249984378815,2|0,2:0|2:0,2:0:0:0:
333,207,388998,2,0,P|344:172|339:154,1,34.1249984378815,2|0,3:2|2:0,2:0:0:0:
282,206,389107,2,0,P|273:180|249:159,1,34.1249984378815,0|0,2:0|2:0,2:0:0:0:
205,226,389216,70,0,P|196:253|181:282,1,42,0|0,3:0|2:0,2:0:0:0:
137,189,389324,2,0,P|107:189|75:184,1,42,0|0,2:0|2:0,2:0:0:0:
157,115,389433,2,0,P|147:87|142:55,1,42,2|0,3:2|2:0,2:0:0:0:
232,108,389542,2,0,P|255:90|284:75,1,42,0|0,2:0|2:0,2:0:0:0:
269,174,389650,2,0,P|310:190|327:205,4,42,0|0|2|0|2,2:0|2:0|2:0|2:0|3:2,2:0:0:0:
22,301,390085,6,0,P|62:287|102:276,1,84,8|2,2:0|3:2,2:0:0:0:
276,340,390302,1,8,2:0:0:0:
212,381,390411,1,8,2:0:0:0:
218,329,390520,1,8,2:3:0:0:
226,287,390629,1,8,2:3:0:0:
233,256,390737,1,8,2:3:0:0:
242,225,390846,1,8,2:3:0:0:
251,202,390955,6,0,P|235:183|193:173,1,68.2499968757631,4|0,3:2|2:0,2:0:0:0:
48,92,391172,2,0,P|81:87|105:63,1,68.2499968757631,0|0,3:0|2:0,2:0:0:0:
338,10,391389,21,0,2:0:0:0:
315,1,391462,1,0,2:0:0:0:
275,10,391534,1,0,2:0:0:0:
252,44,391607,2,0,P|264:91|266:110,2,50.7500015487671,2|0|0,2:0|2:0|2:0,2:0:0:0:
371,140,391824,37,8,2:0:0:0:
363,160,391897,1,0,2:0:0:0:
357,181,391969,1,0,2:0:0:0:
352,200,392042,1,2,2:0:0:0:
348,223,392114,1,0,2:0:0:0:
344,242,392187,1,0,2:0:0:0:
341,264,392259,70,0,P|372:252|410:244,2,50.7500015487671,0|0|0,2:0|2:0|2:0,2:0:0:0:
447,174,392476,2,0,P|465:187|486:209,2,50.7500015487671,2|0|0,2:0|2:0|2:0,2:0:0:0:
385,70,392694,37,0,3:0:0:0:
356,79,392766,1,0,2:0:0:0:
340,98,392839,1,0,2:0:0:0:
336,114,392911,2,0,P|346:152|352:187,2,50.7500015487671,2|0|0,3:2|2:0|2:0,2:0:0:0:
258,220,393129,69,0,2:0:0:0:
239,228,393201,1,0,2:0:0:0:
196,214,393274,1,0,2:0:0:0:
183,169,393346,2,0,P|194:133|200:100,2,50.7500015487671,2|0|0,3:2|2:0|2:0,2:0:0:0:
72,198,393563,37,8,2:0:0:0:
96,222,393636,1,0,2:0:0:0:
99,246,393708,1,0,2:0:0:0:
92,263,393781,2,0,P|38:277|17:298,2,50.7500015487671,2|0|0,2:0|2:0|2:0,2:0:0:0:
171,337,393998,70,0,B|172:359|172:359|185:385,2,50.7500015487671,0|0|0,2:0|2:0|2:0,2:0:0:0:
269,260,394216,2,0,B|256:283|256:283|255:307,2,50.7500015487671,2|0|0,2:0|2:0|2:0,2:0:0:0:
183,196,394433,37,0,3:0:0:0:
154,161,394505,1,0,2:0:0:0:
167,120,394578,1,0,2:0:0:0:
199,107,394650,1,2,3:2:0:0:
226,109,394723,1,0,2:0:0:0:
242,124,394795,1,0,2:0:0:0:
248,144,394868,70,0,P|299:157|312:164,2,50.7500015487671,0|0|0,2:0|2:0|2:0,2:0:0:0:
353,51,395085,2,0,P|329:59|304:63,2,50.7500015487671,2|0|0,3:2|2:0|2:0,2:0:0:0:
414,141,395303,54,0,P|393:224|394:272,1,81.375000620842,8|0,2:0|2:0,2:0:0:0:
501,359,395520,1,2,2:0:0:0:
511,284,395629,2,0,B|428:260|445:363|338:338,1,162.750001241684,8|8,2:0|2:3,2:0:0:0:
277,327,395955,5,8,2:0:0:0:
247,251,396064,1,8,2:0:0:0:
312,196,396173,2,0,P|352:206|392:219,1,84,4|0,3:2|2:0,2:0:0:0:
385,357,396390,2,0,B|368:286|361:213|361:213|354:202|354:202|351:133|318:-26,1,336,0|2,3:0|3:2,2:0:0:0:
306,14,396933,1,0,2:0:0:0:
227,38,397042,5,8,2:0:0:0:
211,112,397151,1,0,2:0:0:0:
253,156,397259,1,2,2:0:0:0:
308,158,397368,1,2,2:0:0:0:
349,132,397477,2,0,P|358:80|364:52,1,62.9999980773926,0|2,2:0|2:0,2:0:0:0:
246,45,397694,2,0,P|237:97|231:125,1,62.9999980773926,2|2,2:0|2:0,2:0:0:0:
443,238,397911,21,0,3:0:0:0:
420,229,397984,1,0,2:0:0:0:
396,230,398056,1,0,2:0:0:0:
379,240,398129,1,2,3:2:0:0:
368,256,398201,1,0,2:0:0:0:
366,269,398274,1,0,2:0:0:0:
366,288,398346,54,0,P|401:299|441:330,1,52.5,0|2,2:0|2:0,2:0:0:0:
435,384,398564,1,2,3:2:0:0:
512,161,398781,53,8,2:0:0:0:
507,130,398853,1,0,2:0:0:0:
501,102,398926,1,0,2:0:0:0:
495,78,398998,1,2,2:0:0:0:
490,58,399071,1,0,2:0:0:0:
485,43,399143,1,0,2:0:0:0:
477,30,399216,54,0,P|433:18|393:4,1,52.5,0|2,2:0|2:0,2:0:0:0:
366,72,399433,1,2,3:2:0:0:
487,276,399651,5,0,3:0:0:0:
512,236,399759,2,0,P|389:254|141:308,1,367.49998878479,0|2,2:0|2:0,2:0:0:0:
72,262,400375,37,0,2:0:0:0:
71,250,400448,1,0,2:0:0:0:
71,238,400520,54,0,P|114:212|154:224,1,73.4999977569581,8|0,2:0|2:0,2:0:0:0:
220,46,400738,2,0,P|177:20|137:32,1,73.4999977569581,2|0,2:0|2:0,2:0:0:0:
8,80,400955,5,8,2:0:0:0:
68,97,401064,1,8,2:3:0:0:
114,110,401173,1,8,2:3:0:0:
157,125,401281,1,8,2:3:0:0:
193,140,401390,6,0,B|225:151|225:151|230:151|230:151|262:164,1,62.9999980773926,4|0,3:2|2:0,2:0:0:0:
329,69,401607,2,0,B|304:77|304:77|249:265|249:265|198:287,1,251.999992309571,0|2,3:0|3:2,2:0:0:0:
152,229,402114,21,0,2:0:0:0:
147,211,402187,1,0,2:0:0:0:
143,190,402259,54,0,B|185:167|185:167|285:196|285:196|276:202|276:202|389:240|389:240|438:188|438:188|408:127,1,420,8|2,2:0|2:0,2:0:0:0:
347,73,402911,2,0,B|285:95|285:95|296:149,1,84,2|2,3:2|2:0,2:0:0:0:
100,298,403129,5,0,3:0:0:0:
150,299,403238,1,2,2:0:0:0:
189,262,403346,1,2,3:2:0:0:
243,285,403455,1,0,2:0:0:0:
287,260,403564,6,0,P|295:231|276:189,1,78.7500030040742,0|2,2:0|2:0,2:0:0:0:
116,78,403781,1,2,3:2:0:0:
98,126,403890,2,0,P|119:147|165:152,1,78.7500030040742,0|8,2:0|2:0,2:0:0:0:
347,73,404107,1,0,2:0:0:0:
314,33,404216,2,0,P|285:41|258:78,1,78.7500030040742,2|2,2:0|2:0,2:0:0:0:
476,233,404433,6,0,P|484:195|495:162,1,52.5,0|2,2:0|2:0,2:0:0:0:
401,158,404651,2,0,P|393:196|382:229,1,52.5,2|2,3:2|2:0,2:0:0:0:
276,357,404868,69,0,3:0:0:0:
319,384,404977,2,0,B|293:294|293:294|245:267|245:267|252:180|252:180|289:151|289:151|270:79|270:79|202:56,1,388.49999851799,2|2,2:0|2:0,2:0:0:0:
169,127,405520,53,2,3:2:0:0:
158,118,405593,1,0,2:0:0:0:
135,111,405665,1,0,2:0:0:0:
110,93,405738,54,0,B|77:100|77:100|65:98|65:98|14:110,1,84,8|0,2:0|2:0,2:0:0:0:
163,274,405955,1,2,3:2:0:0:
224,228,406064,2,0,B|191:221|191:221|179:223|179:223|128:211,1,84,8|0,2:0|2:0,2:0:0:0:
114,8,406281,5,8,2:3:0:0:
188,33,406390,2,0,P|207:113|213:141,1,84,8|8,2:0|2:3,2:0:0:0:
353,299,406607,6,0,P|333:226|324:189,1,84,4|0,3:2|2:0,2:0:0:0:
502,187,406824,2,0,B|455:178|455:178|411:210|411:210|325:188|325:188|228:253,1,293.999991027832,0|2,3:0|3:2,2:0:0:0:
160,210,407368,1,0,2:0:0:0:
124,240,407477,22,0,B|117:255|117:255|132:295,2,59.5000011348725,8|0|0,2:0|2:0|2:0,2:0:0:0:
62,180,407694,37,2,2:0:0:0:
68,156,407766,1,0,2:0:0:0:
75,127,407839,1,0,2:0:0:0:
78,102,407911,2,0,B|48:107|48:107|42:113|42:113|0:122,2,59.5000011348725,0|0|0,2:0|2:0|2:0,2:0:0:0:
159,29,408129,2,0,B|129:24|129:24|123:18|123:18|81:9,2,59.5000011348725,2|0|0,2:0|2:0|2:0,2:0:0:0:
191,128,408346,69,0,3:0:0:0:
28,325,408564,37,2,3:2:0:0:
76,325,408636,1,0,2:0:0:0:
100,295,408709,1,0,2:0:0:0:
98,263,408781,2,0,B|87:245|87:245|89:229|89:229|78:181,2,59.5000011348725,0|0|0,2:0|2:0|2:0,2:0:0:0:
191,315,408998,2,0,B|180:333|180:333|182:349|182:349|171:397,2,59.5000011348725,2|0|0,3:2|2:0|2:0,2:0:0:0:
301,257,409216,69,8,2:0:0:0:
280,226,409288,1,0,2:0:0:0:
287,194,409361,1,0,2:0:0:0:
277,177,409433,1,2,3:2:0:0:
256,172,409506,1,0,2:0:0:0:
242,181,409578,1,0,2:0:0:0:
238,198,409651,2,0,B|212:207|212:207|209:210|209:210|165:226,2,59.5000011348725,0|0|0,2:0|2:0|2:0,2:0:0:0:
308,275,409868,53,2,3:2:0:0:
427,312,410085,1,0,3:0:0:0:
409,34,410303,53,2,3:2:0:0:
420,72,410375,1,0,2:0:0:0:
412,101,410448,1,0,2:0:0:0:
388,122,410520,1,0,2:0:0:0:
382,135,410593,1,0,2:0:0:0:
388,151,410665,1,0,2:0:0:0:
403,163,410738,2,0,B|401:176|395:193|395:193|390:249,2,59.5000011348725,2|0|0,3:2|2:0|2:0,2:0:0:0:
312,96,410955,54,0,P|243:112|191:127,1,89.2500017023087,8|2,2:0|3:2,2:0:0:0:
145,285,411172,1,8,2:0:0:0:
209,238,411281,1,8,2:0:0:0:
160,210,411390,1,2,2:0:0:0:
111,192,411498,1,8,2:3:0:0:
57,183,411607,6,0,P|85:268|103:373,1,168,12|0,2:0|0:0,0:0:0:0:
