osu file format v14

[General]
AudioFilename: The Flashbulb - Resent And The April Sunshine Shed - 08 You Take The World's Weight Away.mp3
AudioLeadIn: 0
PreviewTime: 10667
Countdown: 0
SampleSet: Soft
StackLeniency: 0.7
Mode: 0
LetterboxInBreaks: 0
WidescreenStoryboard: 0

[Editor]
DistanceSpacing: 1.2
BeatDivisor: 4
GridSize: 4
TimelineZoom: 1

[Metadata]
Title:You Take The World's Weight Away
TitleUnicode:You Take The World's Weight Away
Artist:The Flashbulb
ArtistUnicode:The Flashbulb
Creator:MoodyRPG
Version:Normal
Source:
Tags:downtempo piano benn jordan resent and the april sunshine shed ‎
BeatmapID:832694
BeatmapSetID:380568

[Difficulty]
HPDrainRate:4
CircleSize:4
OverallDifficulty:4
ApproachRate:5
SliderMultiplier:1.2
SliderTickRate:1

[Events]
//Background and Video events
0,0,"City.jpg",0,0
//Break Periods
//Storyboard Layer 0 (Background)
//Storyboard Layer 1 (Fail)
//Storyboard Layer 2 (Pass)
//Storyboard Layer 3 (Foreground)
//Storyboard Sound Samples

[TimingPoints]
21334,666.666666666667,4,2,1,40,1,0
84000,-100,4,2,1,30,0,0
85334,-100,4,2,1,20,0,0
86667,-100,4,2,1,15,0,0
88000,-100,4,2,1,10,0,0

[Colours]
Combo1 : 255,192,0
Combo2 : 255,128,128
Combo3 : 0,196,196
Combo4 : 0,128,192

[HitObjects]
391,48,21334,6,0,P|377:73|372:104,1,60,0|2,0:0|0:0,0:0:0:0:
304,128,22000,2,0,P|246:133|183:121,1,120,8|0,0:0|0:0,0:0:0:0:
127,79,23000,1,2,0:0:0:0:
79,134,23334,2,0,L|88:205,1,60,8|0,0:0|0:0,0:0:0:0:
54,258,24000,5,0,0:0:0:0:
206,347,24667,1,8,0:0:0:0:
296,235,25334,2,0,P|302:205|301:170,1,60,0|2,0:0|0:0,0:0:0:0:
245,130,26000,2,0,P|297:102|359:128,1,120,8|0,0:0|0:0,0:0:0:0:
417,91,27000,5,2,0:0:0:0:
472,136,27334,2,0,L|481:196,1,60,8|0,0:0|0:0,0:0:0:0:
436,252,28000,1,0,0:0:0:0:
409,318,28334,2,0,P|376:326|341:326,1,60,2|8,0:0|0:0,0:0:0:0:
293,282,29000,1,0,0:0:0:0:
234,324,29333,6,0,L|113:332,1,120,0|8,0:0|0:0,0:0:0:0:
5,236,30667,2,0,L|142:227,1,120,0|8,0:0|0:0,0:0:0:0:
268,237,32000,6,0,P|265:203|248:173,1,60,0|2,0:0|0:0,0:0:0:0:
186,156,32667,1,0,1:0:0:0:
122,187,33000,1,2,0:0:0:0:
122,187,33334,2,0,P|62:187|21:130,1,120,0|0,0:0|1:0,0:0:0:0:
10,74,34334,1,2,0:0:0:0:
75,44,34667,6,0,L|200:55,1,120,0|0,0:0|1:0,0:0:0:0:
249,100,35667,1,2,0:0:0:0:
315,73,36000,2,0,P|348:67|382:74,1,60,0|2,0:0|0:0,0:0:0:0:
432,113,36667,2,0,P|447:143|449:174,1,60,0|2,1:0|0:0,0:0:0:0:
403,224,37334,6,0,P|422:278|398:349,1,120,0|0,0:0|1:0,0:0:0:0:
337,358,38334,1,2,0:0:0:0:
277,316,38667,2,0,B|214:316|214:316|154:284,1,120,0|0,0:0|1:0,0:0:0:0:
95,313,39667,1,2,0:0:0:0:
45,260,40000,6,0,L|32:130,1,120,0|0,0:0|1:0,0:0:0:0:
85,91,41000,1,2,0:0:0:0:
148,125,41334,2,0,P|187:126|215:120,1,60,0|2,0:0|0:0,0:0:0:0:
273,92,42000,2,0,P|307:85|337:86,1,60,0|2,1:0|0:0,0:0:0:0:
375,27,42667,6,0,L|389:161,1,120,4|0,0:0|1:0,0:0:0:0:
440,194,43667,1,2,0:0:0:0:
413,260,44000,2,0,P|423:292|423:323,2,60,0|2|0,0:0|0:0|1:0,0:0:0:0:
345,234,45000,1,2,0:0:0:0:
317,167,45334,6,0,P|268:143|194:168,1,120,0|0,0:0|1:0,0:0:0:0:
143,121,46334,1,2,0:0:0:0:
102,180,46667,2,0,P|121:206|126:242,1,60,0|2,0:0|0:0,0:0:0:0:
95,297,47334,2,0,P|76:323|71:359,2,60,0|2|0,1:0|0:0|0:0,0:0:0:0:
167,297,48334,5,2,0:0:0:0:
226,336,48667,1,0,1:0:0:0:
331,224,49334,2,0,L|352:102,1,120,0|0,0:0|1:0,0:0:0:0:
313,44,50334,1,2,0:0:0:0:
383,29,50667,6,0,P|418:31|456:41,1,60,0|2,0:0|0:0,0:0:0:0:
489,91,51334,2,0,P|498:126|498:155,1,60,0|2,1:0|0:0,0:0:0:0:
441,193,52000,2,0,P|403:238|413:305,1,120,0|0,0:0|1:0,0:0:0:0:
442,358,53000,1,2,0:0:0:0:
370,355,53334,6,0,L|246:342,1,120,4|0,0:0|1:0,0:0:0:0:
199,291,54334,1,2,0:0:0:0:
254,245,54667,2,0,L|386:258,1,120,0|0,0:0|1:0,0:0:0:0:
407,193,55667,1,2,0:0:0:0:
372,129,56000,6,0,B|341:128|341:128|311:115,1,60,0|2,0:0|0:0,0:0:0:0:
253,78,56667,2,0,B|226:64|226:64|193:64,1,60,0|2,1:0|0:0,0:0:0:0:
136,103,57334,2,0,B|68:103|29:152,1,120,0|0,0:0|1:0,0:0:0:0:
52,219,58334,1,2,0:0:0:0:
106,266,58667,5,0,0:0:0:0:
130,334,59000,1,2,0:0:0:0:
130,334,59334,2,0,P|166:333|201:323,1,60,0|2,1:0|0:0,0:0:0:0:
243,279,60000,2,0,P|275:272|309:275,2,60,0|2|0,0:0|0:0|1:0,0:0:0:0:
176,251,61000,1,2,0:0:0:0:
188,180,61334,6,0,P|179:120|185:48,2,120,0|0|0,0:0|1:0|0:0,0:0:0:0:
253,150,63000,2,0,P|248:116|250:84,2,60,2|0|2,0:0|1:0|0:0,0:0:0:0:
324,160,64000,6,0,P|383:147|435:176,1,120,4|8,0:0|0:0,0:0:0:0:
474,233,65000,1,2,0:0:0:0:
419,280,65334,2,0,P|360:293|308:264,1,120,0|8,0:0|0:0,0:0:0:0:
274,328,66334,1,2,0:0:0:0:
225,274,66667,5,0,0:0:0:0:
178,329,67000,2,0,L|109:318,1,60,2|8,0:0|0:0,0:0:0:0:
59,360,67667,1,2,0:0:0:0:
50,288,68000,2,0,L|39:226,1,60,0|2,0:0|0:0,0:0:0:0:
105,200,68667,2,0,L|125:139,1,60,8|2,0:0|0:0,0:0:0:0:
195,132,69334,6,0,P|171:85|107:72,2,120,0|8|0,0:0|0:0|0:0,0:0:0:0:
255,170,71000,2,0,L|255:234,2,60,2|8|2,0:0|0:0|0:0,0:0:0:0:
317,132,72000,2,0,P|341:85|405:72,2,120,0|8|0,0:0|0:0|0:0,0:0:0:0:
388,141,73667,1,2,0:0:0:0:
436,194,74000,2,0,L|463:253,1,60,8|2,0:0|0:0,0:0:0:0:
424,310,74667,6,0,B|369:308|334:340|334:340|300:351,1,120,0|8,0:0|0:0,0:0:0:0:
256,300,75667,1,2,0:0:0:0:
202,347,76000,2,0,B|181:341|181:341|146:309|91:311,1,120,0|8,0:0|0:0,0:0:0:0:
69,241,77000,1,2,0:0:0:0:
129,201,77334,6,0,P|158:182|176:158,1,60,0|2,0:0|0:0,0:0:0:0:
227,114,78000,2,0,B|256:107|256:107|286:115,1,60,8|2,0:0|0:0,0:0:0:0:
334,166,78667,2,0,P|353:188|378:204,2,60,0|2|8,0:0|0:0|0:0,0:0:0:0:
387,117,79667,1,2,0:0:0:0:
363,48,80000,6,0,P|310:16|253:27,1,120,0|8,0:0|0:0,0:0:0:0:
203,75,81000,1,2,0:0:0:0:
142,35,81334,2,0,P|122:59|112:88,1,60,0|2,0:0|0:0,0:0:0:0:
143,150,82000,2,0,P|163:174|173:203,1,60,8|2,0:0|0:0,0:0:0:0:
220,254,82667,5,0,0:0:0:0:
291,254,83000,1,2,0:0:0:0:
256,317,83334,2,0,L|256:393,1,60,8|2,0:0|0:0,0:0:0:0:
256,192,84000,12,0,88000,0:0:0:0:
