osu file format v14

[General]
AudioFilename: The Flashbulb - Resent And The April Sunshine Shed - 08 You Take The World's Weight Away.mp3
AudioLeadIn: 0
PreviewTime: 10667
Countdown: 0
SampleSet: Soft
StackLeniency: 0.7
Mode: 0
LetterboxInBreaks: 0
WidescreenStoryboard: 0

[Editor]
DistanceSpacing: 1
BeatDivisor: 4
GridSize: 4
TimelineZoom: 1

[Metadata]
Title:You Take The World's Weight Away
TitleUnicode:You Take The World's Weight Away
Artist:The Flashbulb
ArtistUnicode:The Flashbulb
Creator:MoodyRPG
Version:Easy
Source:
Tags:downtempo piano benn jordan resent and the april sunshine shed ‎
BeatmapID:832693
BeatmapSetID:380568

[Difficulty]
HPDrainRate:2
CircleSize:3
OverallDifficulty:2
ApproachRate:2
SliderMultiplier:0.8
SliderTickRate:1

[Events]
//Background and Video events
0,0,"City.jpg",0,0
//Break Periods
//Storyboard Layer 0 (Background)
//Storyboard Layer 1 (Fail)
//Storyboard Layer 2 (Pass)
//Storyboard Layer 3 (Foreground)
//Storyboard Sound Samples

[TimingPoints]
21334,666.666666666667,4,2,1,40,1,0
40667,-100,4,2,1,30,0,0
40833,-100,4,2,1,40,0,0
43333,-100,4,2,1,30,0,0
43500,-100,4,2,1,40,0,0
48667,-100,4,2,1,30,0,0
48833,-100,4,2,1,40,0,0
56667,-100,4,2,1,30,0,0
56834,-100,4,2,1,40,0,0
84000,-100,4,2,1,30,0,0
85334,-100,4,2,1,20,0,0
86667,-100,4,2,1,15,0,0
88000,-100,4,2,1,10,0,0

[Colours]
Combo1 : 255,192,0
Combo2 : 255,128,128
Combo3 : 0,196,196
Combo4 : 0,128,192

[HitObjects]
310,327,21333,5,0,0:0:0:0:
233,348,22000,1,8,0:0:0:0:
166,302,22667,2,0,P|129:286|86:290,1,80,0|8,0:0|0:0,0:0:0:0:
64,210,24000,2,0,L|51:121,1,80,0|8,0:0|0:0,0:0:0:0:
110,75,25333,1,0,0:0:0:0:
188,89,26000,1,8,0:0:0:0:
242,147,26667,6,0,L|268:222,1,80,0|8,0:0|0:0,0:0:0:0:
337,263,28000,2,0,L|325:310,2,40,0|2|8,0:0|0:0|0:0,0:0:0:0:
399,213,29333,2,0,P|436:211|488:234,2,80,0|8|0,0:0|0:0|0:0,0:0:0:0:
365,140,31333,1,8,0:0:0:0:
316,76,32000,6,0,L|233:84,1,80,0|0,0:0|1:0,0:0:0:0:
169,39,33334,2,0,L|76:45,1,80,0|0,0:0|1:0,0:0:0:0:
42,108,34667,1,0,0:0:0:0:
24,186,35334,1,0,1:0:0:0:
55,259,36000,2,0,L|89:343,1,80,0|0,0:0|1:0,0:0:0:0:
160,306,37334,6,0,P|197:292|239:295,1,80,0|0,0:0|1:0,0:0:0:0:
311,317,38667,2,0,P|348:331|387:328,1,80,0|0,0:0|1:0,0:0:0:0:
360,252,40000,2,0,L|380:78,1,160
330,25,42000,1,0,1:0:0:0:
265,71,42667,6,0,P|187:86|89:82,1,160,4|0,0:0|0:0,0:0:0:0:
39,41,44667,1,0,1:0:0:0:
21,119,45334,2,0,P|17:158|25:205,1,80,0|0,0:0|1:0,0:0:0:0:
97,227,46667,1,0,0:0:0:0:
156,280,47334,1,0,1:0:0:0:
200,346,48000,6,0,B|276:346|276:346|320:346|360:307,1,160
327,238,50000,1,0,1:0:0:0:
381,179,50667,2,0,L|459:195,2,80,0|0|0,0:0|1:0|0:0,0:0:0:0:
350,104,52667,1,0,1:0:0:0:
305,37,53334,6,0,P|267:29|222:34,1,80,4|0,0:0|1:0,0:0:0:0:
158,76,54667,2,0,P|141:111|136:154,1,80,0|0,0:0|1:0,0:0:0:0:
208,184,56000,2,0,B|286:184|286:184|371:210,1,160
410,273,58000,1,0,1:0:0:0:
347,323,58667,6,0,B|309:343|309:343|268:343,1,80,0|0,0:0|1:0,0:0:0:0:
209,292,60000,2,0,L|159:301,2,40,0|2|0,0:0|0:0|1:0,0:0:0:0:
257,228,61334,2,0,P|263:186|258:144,2,80,0|0|0,0:0|1:0|0:0,0:0:0:0:
209,292,63334,1,0,1:0:0:0:
139,251,64000,6,0,L|48:226,1,80,4|8,0:0|0:0,0:0:0:0:
26,158,65334,1,0,0:0:0:0:
63,87,66000,1,8,0:0:0:0:
136,54,66667,6,0,P|176:66|220:61,1,80,0|8,0:0|0:0,0:0:0:0:
263,125,68000,2,0,P|302:122|340:133,1,80,0|8,0:0|0:0,0:0:0:0:
416,109,69334,5,0,0:0:0:0:
474,163,70000,1,8,0:0:0:0:
444,237,70667,2,0,L|479:273,2,40,0|2|8,0:0|0:0|0:0,0:0:0:0:
371,271,72000,2,0,P|362:310|368:350,2,80,0|8|0,0:0|0:0|0:0,0:0:0:0:
297,238,74000,1,8,0:0:0:0:
218,253,74667,6,0,P|181:267|129:265,2,80,0|8|0,0:0|0:0|0:0,0:0:0:0:
297,238,76667,1,8,0:0:0:0:
303,158,77334,2,0,P|290:117|292:78,1,80,0|8,0:0|0:0,0:0:0:0:
215,55,78667,2,0,L|220:4,2,40,0|2|8,0:0|0:0|0:0,0:0:0:0:
141,86,80000,6,0,P|98:87|58:107,1,80,0|8,0:0|0:0,0:0:0:0:
25,171,81334,2,0,P|17:212|26:253,1,80,0|8,0:0|0:0,0:0:0:0:
82,304,82667,2,0,L|78:352,2,40,0|2|8,0:0|0:0|0:0,0:0:0:0:
256,192,84000,12,0,88000,0:0:0:0:
