osu file format v14

[General]
AudioFilename: audio.mp3
AudioLeadIn: 0
PreviewTime: 18649
Countdown: 0
SampleSet: Drum
StackLeniency: 0.7
Mode: 3
LetterboxInBreaks: 0
SpecialStyle: 0
WidescreenStoryboard: 1

[Editor]
DistanceSpacing: 0.8
BeatDivisor: 16
GridSize: 32
TimelineZoom: 1.5

[Metadata]
Title:Undiscovered Colors (Cut Ver.)
TitleUnicode:Undiscovered Colors (Cut Ver.)
Artist:The Flashbulb
ArtistUnicode:The Flashbulb
Creator:Mipha-
Version:Hard
Source:
Tags:visd aeoliancarp halogen- tc_halogen ffr flashflashrevolution miphather arboreal benn jordan ambient glitch idm orchestral breakcore piano electronic instrumental
BeatmapID:3142806
BeatmapSetID:1537104

[Difficulty]
HPDrainRate:8
CircleSize:4
OverallDifficulty:8
ApproachRate:5
SliderMultiplier:1.4
SliderTickRate:1

[Events]
//Background and Video events
0,0,"bg.jpg",0,0
//Break Periods
//Storyboard Layer 0 (Background)
//Storyboard Layer 1 (Fail)
//Storyboard Layer 2 (Pass)
//Storyboard Layer 3 (Foreground)
//Storyboard Layer 4 (Overlay)
//Storyboard Sound Samples

[TimingPoints]
-154,428.571429,4,3,1,40,1,0
4988,-100,4,3,1,45,0,0
18703,-100,4,3,1,55,0,0
73560,-100,4,3,1,45,0,0
79988,421.315769147046,4,3,1,50,1,0
79988,-101.729399796541,4,3,1,50,0,0
80409,428.571428571429,4,3,1,50,1,0

[HitObjects]
64,192,4988,5,0,0:0:0:0:
448,192,4988,1,0,0:0:0:0:
192,192,5846,1,0,0:0:0:0:
64,192,6703,1,0,0:0:0:0:
320,192,7560,1,0,0:0:0:0:
64,192,8417,1,0,0:0:0:0:
192,192,9274,1,0,0:0:0:0:
64,192,10131,1,0,0:0:0:0:
448,192,10988,1,0,0:0:0:0:
64,192,11846,1,0,0:0:0:0:
448,192,11846,1,0,0:0:0:0:
192,192,12703,1,0,0:0:0:0:
64,192,13560,1,0,0:0:0:0:
320,192,14417,1,0,0:0:0:0:
64,192,15274,1,0,0:0:0:0:
448,192,16131,1,0,0:0:0:0:
320,192,16988,1,0,0:0:0:0:
192,192,17846,1,0,0:0:0:0:
320,192,18703,1,0,0:0:0:0:
448,192,18703,1,0,0:0:0:0:
192,192,19024,1,0,0:0:0:0:
320,192,19131,1,0,0:0:0:0:
192,192,19238,1,0,0:0:0:0:
64,192,19346,1,0,0:0:0:0:
192,192,19560,1,0,0:0:0:0:
448,192,19560,1,0,0:0:0:0:
320,192,19703,1,0,0:0:0:0:
64,192,19988,1,0,0:0:0:0:
64,192,20203,1,0,0:0:0:0:
320,192,20417,1,0,0:0:0:0:
448,192,20417,1,0,0:0:0:0:
192,192,20631,1,0,0:0:0:0:
320,192,20738,1,0,0:0:0:0:
448,192,20738,1,0,0:0:0:0:
64,192,20846,1,0,0:0:0:0:
192,192,20953,1,0,0:0:0:0:
320,192,21060,1,0,0:0:0:0:
448,192,21060,1,0,0:0:0:0:
192,192,21167,1,0,0:0:0:0:
64,192,21274,1,0,0:0:0:0:
448,192,21274,1,0,0:0:0:0:
320,192,21488,1,0,0:0:0:0:
192,192,21703,1,0,0:0:0:0:
320,192,21810,1,0,0:0:0:0:
64,192,22131,1,0,0:0:0:0:
192,192,22131,1,0,0:0:0:0:
320,192,22453,1,0,0:0:0:0:
64,192,22560,1,0,0:0:0:0:
448,192,22667,1,0,0:0:0:0:
192,192,22774,1,0,0:0:0:0:
448,192,22881,1,0,0:0:0:0:
64,192,22988,1,0,0:0:0:0:
320,192,22988,1,0,0:0:0:0:
320,192,23203,1,0,0:0:0:0:
192,192,23417,1,0,0:0:0:0:
448,192,23631,1,0,0:0:0:0:
64,192,23846,1,0,0:0:0:0:
192,192,23846,1,0,0:0:0:0:
320,192,24060,1,0,0:0:0:0:
64,192,24167,1,0,0:0:0:0:
192,192,24167,1,0,0:0:0:0:
448,192,24274,1,0,0:0:0:0:
320,192,24381,1,0,0:0:0:0:
64,192,24488,1,0,0:0:0:0:
192,192,24488,1,0,0:0:0:0:
64,192,24703,1,0,0:0:0:0:
320,192,24703,1,0,0:0:0:0:
192,192,24917,1,0,0:0:0:0:
448,192,25024,1,0,0:0:0:0:
64,192,25131,1,0,0:0:0:0:
320,192,25238,1,0,0:0:0:0:
192,192,25560,1,0,0:0:0:0:
320,192,25560,1,0,0:0:0:0:
64,192,25774,1,0,0:0:0:0:
320,192,25881,1,0,0:0:0:0:
192,192,25988,1,0,0:0:0:0:
64,192,26096,1,0,0:0:0:0:
320,192,26096,1,0,0:0:0:0:
448,192,26203,1,0,0:0:0:0:
64,192,26417,1,0,0:0:0:0:
448,192,26417,1,0,0:0:0:0:
192,192,26560,1,0,0:0:0:0:
320,192,26846,1,0,0:0:0:0:
192,192,27060,1,0,0:0:0:0:
64,192,27167,1,0,0:0:0:0:
320,192,27274,1,0,0:0:0:0:
448,192,27274,1,0,0:0:0:0:
192,192,27488,1,0,0:0:0:0:
320,192,27596,1,0,0:0:0:0:
448,192,27596,1,0,0:0:0:0:
64,192,27703,1,0,0:0:0:0:
192,192,27810,1,0,0:0:0:0:
320,192,27917,1,0,0:0:0:0:
448,192,27917,1,0,0:0:0:0:
192,192,28024,1,0,0:0:0:0:
64,192,28131,1,0,0:0:0:0:
320,192,28131,1,0,0:0:0:0:
64,192,28346,1,0,0:0:0:0:
448,192,28560,1,0,0:0:0:0:
320,192,28667,1,0,0:0:0:0:
448,192,28774,1,0,0:0:0:0:
320,192,28881,1,0,0:0:0:0:
64,192,28988,1,0,0:0:0:0:
192,192,28988,1,0,0:0:0:0:
448,192,29203,1,0,0:0:0:0:
192,192,29417,1,0,0:0:0:0:
320,192,29631,1,0,0:0:0:0:
448,192,29631,1,0,0:0:0:0:
192,192,29738,1,0,0:0:0:0:
64,192,29846,1,0,0:0:0:0:
320,192,29846,1,0,0:0:0:0:
320,192,30274,1,0,0:0:0:0:
64,192,30488,1,0,0:0:0:0:
320,192,30703,1,0,0:0:0:0:
192,192,30703,1,0,0:0:0:0:
320,192,30917,1,0,0:0:0:0:
64,192,31024,1,0,0:0:0:0:
448,192,31131,1,0,0:0:0:0:
320,192,31238,1,0,0:0:0:0:
448,192,31346,1,0,0:0:0:0:
192,192,31453,1,0,0:0:0:0:
64,192,31560,1,0,0:0:0:0:
320,192,31560,1,0,0:0:0:0:
448,192,31774,1,0,0:0:0:0:
64,192,31988,1,0,0:0:0:0:
320,192,32096,1,0,0:0:0:0:
64,192,32203,1,0,0:0:0:0:
320,192,32310,1,0,0:0:0:0:
64,192,32417,1,0,0:0:0:0:
192,192,32417,1,0,0:0:0:0:
320,192,32738,1,0,0:0:0:0:
192,192,32846,1,0,0:0:0:0:
448,192,32917,1,0,0:0:0:0:
64,192,32988,1,0,0:0:0:0:
320,192,33060,1,0,0:0:0:0:
192,192,33167,1,0,0:0:0:0:
64,192,33274,1,0,0:0:0:0:
448,192,33274,1,0,0:0:0:0:
192,192,33381,1,0,0:0:0:0:
320,192,33453,1,0,0:0:0:0:
448,192,33524,1,0,0:0:0:0:
64,192,33596,1,0,0:0:0:0:
320,192,33703,1,0,0:0:0:0:
192,192,33810,1,0,0:0:0:0:
64,192,33917,1,0,0:0:0:0:
320,192,34131,1,0,0:0:0:0:
448,192,34131,1,0,0:0:0:0:
64,192,34238,1,0,0:0:0:0:
192,192,34346,1,0,0:0:0:0:
320,192,34453,1,0,0:0:0:0:
448,192,34453,1,0,0:0:0:0:
192,192,34560,1,0,0:0:0:0:
320,192,34667,1,0,0:0:0:0:
64,192,34774,1,0,0:0:0:0:
192,192,34774,1,0,0:0:0:0:
64,192,34988,1,0,0:0:0:0:
448,192,34988,1,0,0:0:0:0:
320,192,35176,1,0,0:0:0:0:
64,192,35417,1,0,0:0:0:0:
192,192,35524,1,0,0:0:0:0:
64,192,35631,1,0,0:0:0:0:
448,192,35738,1,0,0:0:0:0:
192,192,35846,1,0,0:0:0:0:
320,192,35846,1,0,0:0:0:0:
64,192,35953,1,0,0:0:0:0:
448,192,36167,1,0,0:0:0:0:
192,192,36274,1,0,0:0:0:0:
448,192,36381,1,0,0:0:0:0:
320,192,36488,1,0,0:0:0:0:
64,192,36596,1,0,0:0:0:0:
192,192,36703,1,0,0:0:0:0:
448,192,36703,1,0,0:0:0:0:
448,192,36917,1,0,0:0:0:0:
64,192,37131,1,0,0:0:0:0:
192,192,37346,1,0,0:0:0:0:
320,192,37453,1,0,0:0:0:0:
64,192,37560,1,0,0:0:0:0:
192,192,37560,1,0,0:0:0:0:
320,192,37774,1,0,0:0:0:0:
64,192,37881,1,0,0:0:0:0:
192,192,37881,1,0,0:0:0:0:
320,192,37988,1,0,0:0:0:0:
448,192,38096,1,0,0:0:0:0:
64,192,38203,1,0,0:0:0:0:
192,192,38203,1,0,0:0:0:0:
320,192,38310,1,0,0:0:0:0:
192,192,38417,1,0,0:0:0:0:
448,192,38417,1,0,0:0:0:0:
64,192,38524,1,0,0:0:0:0:
192,192,38631,1,0,0:0:0:0:
448,192,38631,1,0,0:0:0:0:
64,192,38846,1,0,0:0:0:0:
448,192,38953,1,0,0:0:0:0:
320,192,39060,1,0,0:0:0:0:
64,192,39167,1,0,0:0:0:0:
192,192,39274,1,0,0:0:0:0:
320,192,39274,1,0,0:0:0:0:
320,192,39488,1,0,0:0:0:0:
192,192,39596,1,0,0:0:0:0:
448,192,39703,1,0,0:0:0:0:
320,192,39774,1,0,0:0:0:0:
192,192,39846,1,0,0:0:0:0:
448,192,39917,1,0,0:0:0:0:
64,192,39988,1,0,0:0:0:0:
320,192,40060,1,0,0:0:0:0:
192,192,40131,1,0,0:0:0:0:
448,192,40131,1,0,0:0:0:0:
64,192,40346,1,0,0:0:0:0:
320,192,40560,1,0,0:0:0:0:
448,192,40667,1,0,0:0:0:0:
320,192,40774,1,0,0:0:0:0:
64,192,40881,1,0,0:0:0:0:
320,192,40988,1,0,0:0:0:0:
448,192,40988,1,0,0:0:0:0:
192,192,41203,1,0,0:0:0:0:
320,192,41310,1,0,0:0:0:0:
448,192,41310,1,0,0:0:0:0:
64,192,41417,1,0,0:0:0:0:
320,192,41524,1,0,0:0:0:0:
64,192,41631,1,0,0:0:0:0:
192,192,41631,1,0,0:0:0:0:
448,192,41738,1,0,0:0:0:0:
64,192,41846,1,0,0:0:0:0:
320,192,41846,1,0,0:0:0:0:
448,192,42060,1,0,0:0:0:0:
192,192,42167,1,0,0:0:0:0:
320,192,42274,1,0,0:0:0:0:
64,192,42381,1,0,0:0:0:0:
320,192,42488,1,0,0:0:0:0:
64,192,42703,1,0,0:0:0:0:
192,192,42703,1,0,0:0:0:0:
448,192,42810,1,0,0:0:0:0:
192,192,43024,1,0,0:0:0:0:
64,192,43131,1,0,0:0:0:0:
192,192,43238,1,0,0:0:0:0:
320,192,43346,1,0,0:0:0:0:
64,192,43453,1,0,0:0:0:0:
192,192,43560,1,0,0:0:0:0:
448,192,43560,1,0,0:0:0:0:
192,192,43774,1,0,0:0:0:0:
64,192,43988,1,0,0:0:0:0:
320,192,44203,1,0,0:0:0:0:
192,192,44310,1,0,0:0:0:0:
320,192,44417,1,0,0:0:0:0:
448,192,44417,1,0,0:0:0:0:
64,192,44524,1,0,0:0:0:0:
192,192,44631,1,0,0:0:0:0:
320,192,44738,1,0,0:0:0:0:
448,192,44738,1,0,0:0:0:0:
192,192,44846,1,0,0:0:0:0:
64,192,44953,1,0,0:0:0:0:
320,192,45060,1,0,0:0:0:0:
448,192,45060,1,0,0:0:0:0:
192,192,45167,1,0,0:0:0:0:
64,192,45274,1,0,0:0:0:0:
320,192,45274,1,0,0:0:0:0:
448,192,45488,1,0,0:0:0:0:
192,192,45596,1,0,0:0:0:0:
320,192,45703,1,0,0:0:0:0:
448,192,45774,1,0,0:0:0:0:
64,192,45846,1,0,0:0:0:0:
192,192,45917,1,0,0:0:0:0:
64,192,46131,1,0,0:0:0:0:
192,192,46131,1,0,0:0:0:0:
192,192,46453,1,0,0:0:0:0:
64,192,46560,1,0,0:0:0:0:
448,192,46667,1,0,0:0:0:0:
192,192,46774,1,0,0:0:0:0:
320,192,46881,1,0,0:0:0:0:
192,192,46988,1,0,0:0:0:0:
448,192,46988,1,0,0:0:0:0:
64,192,47131,1,0,0:0:0:0:
320,192,47310,1,0,0:0:0:0:
192,192,47417,1,0,0:0:0:0:
448,192,47524,1,0,0:0:0:0:
320,192,47631,1,0,0:0:0:0:
192,192,47703,1,0,0:0:0:0:
64,192,47774,1,0,0:0:0:0:
320,192,47846,1,0,0:0:0:0:
448,192,47846,1,0,0:0:0:0:
320,192,48060,1,0,0:0:0:0:
64,192,48167,1,0,0:0:0:0:
192,192,48167,1,0,0:0:0:0:
448,192,48274,1,0,0:0:0:0:
192,192,48381,1,0,0:0:0:0:
320,192,48488,1,0,0:0:0:0:
448,192,48488,1,0,0:0:0:0:
64,192,48703,1,0,0:0:0:0:
320,192,48703,1,0,0:0:0:0:
448,192,48810,1,0,0:0:0:0:
64,192,48917,1,0,0:0:0:0:
320,192,49131,1,0,0:0:0:0:
192,192,49346,1,0,0:0:0:0:
192,192,49560,1,0,0:0:0:0:
320,192,49560,1,0,0:0:0:0:
64,192,49667,1,0,0:0:0:0:
448,192,49881,1,0,0:0:0:0:
192,192,49988,1,0,0:0:0:0:
320,192,50096,1,0,0:0:0:0:
64,192,50203,1,0,0:0:0:0:
320,192,50310,1,0,0:0:0:0:
192,192,50417,1,0,0:0:0:0:
448,192,50417,1,0,0:0:0:0:
192,192,50631,1,0,0:0:0:0:
64,192,50846,1,0,0:0:0:0:
320,192,51060,1,0,0:0:0:0:
64,192,51274,1,0,0:0:0:0:
192,192,51274,1,0,0:0:0:0:
448,192,51488,1,0,0:0:0:0:
64,192,51596,1,0,0:0:0:0:
192,192,51596,1,0,0:0:0:0:
448,192,51703,1,0,0:0:0:0:
320,192,51810,1,0,0:0:0:0:
64,192,51917,1,0,0:0:0:0:
192,192,51917,1,0,0:0:0:0:
64,192,52131,1,0,0:0:0:0:
448,192,52131,1,0,0:0:0:0:
320,192,52346,1,0,0:0:0:0:
192,192,52453,1,0,0:0:0:0:
448,192,52560,1,0,0:0:0:0:
320,192,52667,1,0,0:0:0:0:
448,192,52774,1,0,0:0:0:0:
64,192,52881,1,0,0:0:0:0:
320,192,52988,1,0,0:0:0:0:
448,192,52988,1,0,0:0:0:0:
192,192,53310,1,0,0:0:0:0:
64,192,53417,1,0,0:0:0:0:
448,192,53524,1,0,0:0:0:0:
192,192,53631,1,0,0:0:0:0:
448,192,53738,1,0,0:0:0:0:
64,192,53846,1,0,0:0:0:0:
320,192,53846,1,0,0:0:0:0:
192,192,53988,1,0,0:0:0:0:
64,192,54060,1,0,0:0:0:0:
448,192,54274,1,0,0:0:0:0:
192,192,54488,1,0,0:0:0:0:
320,192,54703,1,0,0:0:0:0:
448,192,54703,1,0,0:0:0:0:
192,192,54917,1,0,0:0:0:0:
320,192,55024,1,0,0:0:0:0:
448,192,55024,1,0,0:0:0:0:
192,192,55131,1,0,0:0:0:0:
64,192,55238,1,0,0:0:0:0:
320,192,55346,1,0,0:0:0:0:
448,192,55346,1,0,0:0:0:0:
192,192,55453,1,0,0:0:0:0:
64,192,55560,1,0,0:0:0:0:
448,192,55560,1,0,0:0:0:0:
320,192,55667,1,0,0:0:0:0:
64,192,55988,1,0,0:0:0:0:
192,192,56096,1,0,0:0:0:0:
64,192,56203,1,0,0:0:0:0:
192,192,56417,1,0,0:0:0:0:
320,192,56417,1,0,0:0:0:0:
448,192,56524,1,0,0:0:0:0:
320,192,56631,1,0,0:0:0:0:
64,192,56846,1,0,0:0:0:0:
192,192,57060,1,0,0:0:0:0:
320,192,57060,1,0,0:0:0:0:
64,192,57274,1,0,0:0:0:0:
320,192,57274,1,0,0:0:0:0:
192,192,57488,1,0,0:0:0:0:
320,192,57596,1,0,0:0:0:0:
64,192,57703,1,0,0:0:0:0:
448,192,57810,1,0,0:0:0:0:
320,192,57917,1,0,0:0:0:0:
192,192,58131,1,0,0:0:0:0:
64,192,58131,1,0,0:0:0:0:
448,192,58346,1,0,0:0:0:0:
320,192,58560,1,0,0:0:0:0:
64,192,58667,1,0,0:0:0:0:
320,192,58774,1,0,0:0:0:0:
192,192,58881,1,0,0:0:0:0:
64,192,58988,1,0,0:0:0:0:
320,192,58988,1,0,0:0:0:0:
320,192,59417,1,0,0:0:0:0:
192,192,59524,1,0,0:0:0:0:
448,192,59631,1,0,0:0:0:0:
64,192,59846,1,0,0:0:0:0:
192,192,59846,1,0,0:0:0:0:
320,192,60060,1,0,0:0:0:0:
192,192,60167,1,0,0:0:0:0:
448,192,60274,1,0,0:0:0:0:
64,192,60381,1,0,0:0:0:0:
320,192,60488,1,0,0:0:0:0:
64,192,60596,1,0,0:0:0:0:
192,192,60703,1,0,0:0:0:0:
448,192,60703,1,0,0:0:0:0:
320,192,60810,1,0,0:0:0:0:
192,192,60917,1,0,0:0:0:0:
64,192,61024,1,0,0:0:0:0:
320,192,61024,1,0,0:0:0:0:
448,192,61131,1,0,0:0:0:0:
192,192,61238,1,0,0:0:0:0:
320,192,61346,1,0,0:0:0:0:
64,192,61560,1,0,0:0:0:0:
192,192,61560,1,0,0:0:0:0:
448,192,61667,1,0,0:0:0:0:
320,192,61774,1,0,0:0:0:0:
64,192,61881,1,0,0:0:0:0:
192,192,61881,1,0,0:0:0:0:
448,192,61988,1,0,0:0:0:0:
192,192,62096,1,0,0:0:0:0:
320,192,62203,1,0,0:0:0:0:
448,192,62203,1,0,0:0:0:0:
64,192,62417,1,0,0:0:0:0:
320,192,62417,1,0,0:0:0:0:
448,192,62631,1,0,0:0:0:0:
192,192,62738,1,0,0:0:0:0:
320,192,62846,1,0,0:0:0:0:
448,192,62917,1,0,0:0:0:0:
64,192,62988,1,0,0:0:0:0:
192,192,63060,1,0,0:0:0:0:
192,192,63274,1,0,0:0:0:0:
320,192,63274,1,0,0:0:0:0:
192,192,63596,1,0,0:0:0:0:
448,192,63703,1,0,0:0:0:0:
320,192,63917,1,0,0:0:0:0:
192,192,64024,1,0,0:0:0:0:
64,192,64131,1,0,0:0:0:0:
320,192,64131,1,0,0:0:0:0:
192,192,64346,1,0,0:0:0:0:
320,192,64560,1,0,0:0:0:0:
192,192,64631,1,0,0:0:0:0:
64,192,64703,1,0,0:0:0:0:
448,192,64774,1,0,0:0:0:0:
320,192,64881,1,0,0:0:0:0:
64,192,64988,1,0,0:0:0:0:
192,192,64988,1,0,0:0:0:0:
448,192,65203,1,0,0:0:0:0:
64,192,65310,1,0,0:0:0:0:
320,192,65417,1,0,0:0:0:0:
448,192,65524,1,0,0:0:0:0:
64,192,65631,1,0,0:0:0:0:
192,192,65631,1,0,0:0:0:0:
320,192,65738,1,0,0:0:0:0:
64,192,65846,1,0,0:0:0:0:
448,192,65846,1,0,0:0:0:0:
192,192,65953,1,0,0:0:0:0:
448,192,66060,1,0,0:0:0:0:
320,192,66167,1,0,0:0:0:0:
64,192,66274,1,0,0:0:0:0:
448,192,66381,1,0,0:0:0:0:
64,192,66488,1,0,0:0:0:0:
448,192,66596,1,0,0:0:0:0:
192,192,66703,1,0,0:0:0:0:
320,192,66703,1,0,0:0:0:0:
192,192,67024,1,0,0:0:0:0:
448,192,67131,1,0,0:0:0:0:
448,192,67238,1,0,0:0:0:0:
192,192,67346,1,0,0:0:0:0:
320,192,67346,1,0,0:0:0:0:
192,192,67560,1,0,0:0:0:0:
448,192,67560,1,0,0:0:0:0:
320,192,67774,1,0,0:0:0:0:
64,192,67988,1,0,0:0:0:0:
320,192,68096,1,0,0:0:0:0:
192,192,68203,1,0,0:0:0:0:
64,192,68310,1,0,0:0:0:0:
320,192,68417,1,0,0:0:0:0:
448,192,68417,1,0,0:0:0:0:
64,192,68631,1,0,0:0:0:0:
320,192,68738,1,0,0:0:0:0:
448,192,68738,1,0,0:0:0:0:
192,192,68846,1,0,0:0:0:0:
64,192,68953,1,0,0:0:0:0:
320,192,69060,1,0,0:0:0:0:
448,192,69060,1,0,0:0:0:0:
64,192,69167,1,0,0:0:0:0:
192,192,69274,1,0,0:0:0:0:
448,192,69274,1,0,0:0:0:0:
320,192,69488,1,0,0:0:0:0:
192,192,69596,1,0,0:0:0:0:
64,192,69667,1,0,0:0:0:0:
448,192,69738,1,0,0:0:0:0:
320,192,69810,1,0,0:0:0:0:
192,192,69917,1,0,0:0:0:0:
320,192,70131,1,0,0:0:0:0:
448,192,70131,1,0,0:0:0:0:
64,192,70238,1,0,0:0:0:0:
320,192,70346,1,0,0:0:0:0:
192,192,70453,1,0,0:0:0:0:
64,192,70479,1,0,0:0:0:0:
448,192,70560,1,0,0:0:0:0:
320,192,70667,1,0,0:0:0:0:
192,192,70774,1,0,0:0:0:0:
448,192,70881,1,0,0:0:0:0:
64,192,70988,1,0,0:0:0:0:
320,192,70988,1,0,0:0:0:0:
448,192,71203,1,0,0:0:0:0:
192,192,71274,1,0,0:0:0:0:
64,192,71346,1,0,0:0:0:0:
448,192,71417,1,0,0:0:0:0:
320,192,71524,1,0,0:0:0:0:
192,192,71631,1,0,0:0:0:0:
64,192,71846,1,0,0:0:0:0:
192,192,71846,1,0,0:0:0:0:
64,192,72060,1,0,0:0:0:0:
192,192,72167,1,0,0:0:0:0:
448,192,72167,1,0,0:0:0:0:
320,192,72274,1,0,0:0:0:0:
64,192,72381,5,0,0:0:0:0:
192,192,72488,1,0,0:0:0:0:
320,192,72488,1,0,0:0:0:0:
448,192,72596,1,0,0:0:0:0:
64,192,72703,1,0,0:0:0:0:
320,192,72703,1,0,0:0:0:0:
192,192,72810,1,0,0:0:0:0:
448,192,72917,1,0,0:0:0:0:
192,192,73131,1,0,0:0:0:0:
448,192,73238,1,0,0:0:0:0:
320,192,73346,1,0,0:0:0:0:
64,192,73560,5,0,0:0:0:0:
448,192,73988,1,0,0:0:0:0:
64,192,74417,1,0,0:0:0:0:
448,192,74846,1,0,0:0:0:0:
64,192,75274,1,0,0:0:0:0:
448,192,75703,1,0,0:0:0:0:
64,192,76131,1,0,0:0:0:0:
448,192,76560,1,0,0:0:0:0:
64,192,76988,1,0,0:0:0:0:
448,192,77417,1,0,0:0:0:0:
64,192,77846,1,0,0:0:0:0:
448,192,78274,1,0,0:0:0:0:
64,192,78703,1,0,0:0:0:0:
448,192,79131,1,0,0:0:0:0:
64,192,79560,1,0,0:0:0:0:
448,192,79988,1,0,0:0:0:0:
64,192,80409,1,0,0:0:0:0:
192,192,80409,1,0,0:0:0:0:
448,192,80730,1,0,0:0:0:0:
192,192,80837,1,0,0:0:0:0:
320,192,80944,1,0,0:0:0:0:
64,192,81051,1,0,0:0:0:0:
192,192,81266,1,0,0:0:0:0:
448,192,81266,1,0,0:0:0:0:
320,192,81409,1,0,0:0:0:0:
64,192,81694,1,0,0:0:0:0:
320,192,81801,1,0,0:0:0:0:
64,192,81909,1,0,0:0:0:0:
192,192,82123,1,0,0:0:0:0:
320,192,82123,1,0,0:0:0:0:
448,192,82337,1,0,0:0:0:0:
192,192,82444,1,0,0:0:0:0:
320,192,82444,1,0,0:0:0:0:
448,192,82551,1,0,0:0:0:0:
64,192,82659,1,0,0:0:0:0:
192,192,82766,1,0,0:0:0:0:
320,192,82766,1,0,0:0:0:0:
64,192,82980,1,0,0:0:0:0:
192,192,82980,1,0,0:0:0:0:
448,192,83194,1,0,0:0:0:0:
192,192,83301,1,0,0:0:0:0:
448,192,83409,1,0,0:0:0:0:
192,192,83516,1,0,0:0:0:0:
64,192,83623,1,0,0:0:0:0:
320,192,83837,1,0,0:0:0:0:
448,192,83837,1,0,0:0:0:0:
192,192,83944,1,0,0:0:0:0:
320,192,84159,1,0,0:0:0:0:
64,192,84266,1,0,0:0:0:0:
448,192,84373,1,0,0:0:0:0:
64,192,84480,1,0,0:0:0:0:
320,192,84587,1,0,0:0:0:0:
192,192,84694,1,0,0:0:0:0:
448,192,84721,1,0,0:0:0:0:
320,192,84909,1,0,0:0:0:0:
64,192,85123,1,0,0:0:0:0:
448,192,85337,1,0,0:0:0:0:
64,192,85551,1,0,0:0:0:0:
192,192,85551,1,0,0:0:0:0:
320,192,85766,1,0,0:0:0:0:
64,192,85873,1,0,0:0:0:0:
192,192,85873,1,0,0:0:0:0:
320,192,85980,1,0,0:0:0:0:
448,192,86087,1,0,0:0:0:0:
64,192,86194,1,0,0:0:0:0:
192,192,86194,1,0,0:0:0:0:
320,192,86301,1,0,0:0:0:0:
64,192,86409,1,0,0:0:0:0:
448,192,86409,1,0,0:0:0:0:
192,192,86623,1,0,0:0:0:0:
320,192,86659,1,0,0:0:0:0:
64,192,86837,1,0,0:0:0:0:
448,192,86980,1,0,0:0:0:0:
64,192,87123,1,0,0:0:0:0:
192,192,87194,1,0,0:0:0:0:
448,192,87266,1,0,0:0:0:0:
320,192,87266,1,0,0:0:0:0:
64,192,87480,1,0,0:0:0:0:
320,192,87587,1,0,0:0:0:0:
192,192,87694,1,0,0:0:0:0:
64,192,87801,1,0,0:0:0:0:
448,192,87801,1,0,0:0:0:0:
320,192,87909,1,0,0:0:0:0:
192,192,87909,1,0,0:0:0:0:
64,192,88123,1,0,0:0:0:0:
320,192,88123,1,0,0:0:0:0:
192,192,88194,1,0,0:0:0:0:
448,192,88266,1,0,0:0:0:0:
192,192,88409,1,0,0:0:0:0:
64,192,88551,1,0,0:0:0:0:
320,192,88659,1,0,0:0:0:0:
192,192,88766,1,0,0:0:0:0:
192,192,88980,1,0,0:0:0:0:
320,192,88980,1,0,0:0:0:0:
448,192,89194,1,0,0:0:0:0:
192,192,89301,1,0,0:0:0:0:
320,192,89301,1,0,0:0:0:0:
448,192,89409,1,0,0:0:0:0:
64,192,89516,1,0,0:0:0:0:
192,192,89623,1,0,0:0:0:0:
320,192,89623,1,0,0:0:0:0:
448,192,89730,1,0,0:0:0:0:
64,192,89837,1,0,0:0:0:0:
320,192,89837,1,0,0:0:0:0:
192,192,89944,1,0,0:0:0:0:
448,192,90051,1,0,0:0:0:0:
64,192,90159,1,0,0:0:0:0:
448,192,90266,1,0,0:0:0:0:
192,192,90373,1,0,0:0:0:0:
320,192,90480,1,0,0:0:0:0:
448,192,90587,1,0,0:0:0:0:
64,192,90694,1,0,0:0:0:0:
192,192,90694,1,0,0:0:0:0:
320,192,90801,1,0,0:0:0:0:
448,192,90855,1,0,0:0:0:0:
192,192,90909,1,0,0:0:0:0:
448,192,91123,1,0,0:0:0:0:
448,192,91337,1,0,0:0:0:0:
320,192,91337,1,0,0:0:0:0:
192,192,91444,1,0,0:0:0:0:
64,192,91551,1,0,0:0:0:0:
448,192,91551,1,0,0:0:0:0:
64,192,91712,1,0,0:0:0:0:
64,192,91926,1,0,0:0:0:0:
64,192,92087,1,0,0:0:0:0:
320,192,92194,1,0,0:0:0:0:
448,192,92194,1,0,0:0:0:0:
192,192,92266,1,0,0:0:0:0:
64,192,92337,1,0,0:0:0:0:
320,192,92409,1,0,0:0:0:0:
448,192,92409,1,0,0:0:0:0:
64,192,92623,1,0,0:0:0:0:
192,192,92650,1,0,0:0:0:0:
320,192,92837,1,0,0:0:0:0:
64,192,92944,1,0,0:0:0:0:
192,192,93051,1,0,0:0:0:0:
320,192,93051,1,0,0:0:0:0:
448,192,93159,1,0,0:0:0:0:
64,192,93266,1,0,0:0:0:0:
320,192,93266,1,0,0:0:0:0:
448,192,93480,1,0,0:0:0:0:
192,192,93551,1,0,0:0:0:0:
448,192,93623,1,0,0:0:0:0:
320,192,93694,1,0,0:0:0:0:
64,192,93801,1,0,0:0:0:0:
448,192,93909,1,0,0:0:0:0:
64,192,94016,1,0,0:0:0:0:
192,192,94123,1,0,0:0:0:0:
320,192,94123,1,0,0:0:0:0:
192,192,94444,1,0,0:0:0:0:
320,192,94498,1,0,0:0:0:0:
448,192,94551,1,0,0:0:0:0:
64,192,94623,1,0,0:0:0:0:
320,192,94694,1,0,0:0:0:0:
192,192,94766,1,0,0:0:0:0:
448,192,94873,1,0,0:0:0:0:
64,192,94980,1,0,0:0:0:0:
320,192,94980,1,0,0:0:0:0:
192,192,95087,1,0,0:0:0:0:
320,192,95194,1,0,0:0:0:0:
192,192,95301,1,0,0:0:0:0:
448,192,95301,1,0,0:0:0:0:
64,192,95409,1,0,0:0:0:0:
448,192,95516,1,0,0:0:0:0:
64,192,95623,1,0,0:0:0:0:
320,192,95837,1,0,0:0:0:0:
192,192,95837,1,0,0:0:0:0:
448,192,96051,1,0,0:0:0:0:
192,192,96159,1,0,0:0:0:0:
320,192,96159,1,0,0:0:0:0:
64,192,96266,1,0,0:0:0:0:
448,192,96373,1,0,0:0:0:0:
192,192,96480,1,0,0:0:0:0:
64,192,96507,1,0,0:0:0:0:
192,192,96694,1,0,0:0:0:0:
448,192,96694,1,0,0:0:0:0:
64,192,97123,1,0,0:0:0:0:
448,192,97230,1,0,0:0:0:0:
192,192,97337,1,0,0:0:0:0:
320,192,97551,1,0,0:0:0:0:
448,192,97551,1,0,0:0:0:0:
192,192,97659,1,0,0:0:0:0:
448,192,97873,1,0,0:0:0:0:
320,192,97980,1,0,0:0:0:0:
64,192,98087,1,0,0:0:0:0:
448,192,98194,1,0,0:0:0:0:
320,192,98248,1,0,0:0:0:0:
192,192,98301,1,0,0:0:0:0:
64,192,98409,1,0,0:0:0:0:
448,192,98409,1,0,0:0:0:0:
64,192,98623,1,0,0:0:0:0:
320,192,98837,1,0,0:0:0:0:
192,192,98944,1,0,0:0:0:0:
448,192,99051,1,0,0:0:0:0:
192,192,99266,1,0,0:0:0:0:
320,192,99266,1,0,0:0:0:0:
64,192,99480,1,0,0:0:0:0:
192,192,99587,1,0,0:0:0:0:
320,192,99587,1,0,0:0:0:0:
64,192,99694,1,0,0:0:0:0:
448,192,99801,1,0,0:0:0:0:
192,192,99909,1,0,0:0:0:0:
320,192,99909,1,0,0:0:0:0:
448,192,100016,1,0,0:0:0:0:
64,192,100123,1,0,0:0:0:0:
320,192,100123,1,0,0:0:0:0:
192,192,100230,1,0,0:0:0:0:
64,192,100337,1,0,0:0:0:0:
320,192,100337,1,0,0:0:0:0:
448,192,100444,1,0,0:0:0:0:
64,192,100551,1,0,0:0:0:0:
192,192,100551,1,0,0:0:0:0:
320,192,100659,1,0,0:0:0:0:
320,192,100766,1,0,0:0:0:0:
192,192,100873,1,0,0:0:0:0:
64,192,100980,1,0,0:0:0:0:
448,192,100980,1,0,0:0:0:0:
320,192,101194,1,0,0:0:0:0:
64,192,101301,1,0,0:0:0:0:
448,192,101409,1,0,0:0:0:0:
320,192,101480,1,0,0:0:0:0:
192,192,101551,1,0,0:0:0:0:
64,192,101623,1,0,0:0:0:0:
320,192,101730,1,0,0:0:0:0:
192,192,101837,1,0,0:0:0:0:
448,192,101837,1,0,0:0:0:0:
320,192,102051,1,0,0:0:0:0:
64,192,102266,1,0,0:0:0:0:
320,192,102373,1,0,0:0:0:0:
192,192,102480,1,0,0:0:0:0:
64,192,102551,1,0,0:0:0:0:
448,192,102623,1,0,0:0:0:0:
192,192,102694,1,0,0:0:0:0:
320,192,102694,1,0,0:0:0:0:
64,192,102801,1,0,0:0:0:0:
320,192,102909,1,0,0:0:0:0:
64,192,103016,1,0,0:0:0:0:
192,192,103016,1,0,0:0:0:0:
448,192,103123,1,0,0:0:0:0:
192,192,103230,1,0,0:0:0:0:
320,192,103337,1,0,0:0:0:0:
448,192,103337,1,0,0:0:0:0:
192,192,103444,1,0,0:0:0:0:
64,192,103551,1,0,0:0:0:0:
448,192,103551,1,0,0:0:0:0:
320,192,103766,1,0,0:0:0:0:
192,192,103873,1,0,0:0:0:0:
448,192,103980,1,0,0:0:0:0:
64,192,104087,1,0,0:0:0:0:
320,192,104194,1,0,0:0:0:0:
64,192,104409,1,0,0:0:0:0:
192,192,104409,1,0,0:0:0:0:
320,192,104516,1,0,0:0:0:0:
448,192,104569,1,0,0:0:0:0:
64,192,104623,1,0,0:0:0:0:
320,192,104730,1,0,0:0:0:0:
192,192,104837,1,0,0:0:0:0:
448,192,105051,1,0,0:0:0:0:
192,192,105159,1,0,0:0:0:0:
64,192,105266,1,0,0:0:0:0:
320,192,105266,1,0,0:0:0:0:
448,192,105480,1,0,0:0:0:0:
64,192,105694,1,0,0:0:0:0:
448,192,105801,1,0,0:0:0:0:
192,192,105909,1,0,0:0:0:0:
320,192,106016,1,0,0:0:0:0:
64,192,106123,1,0,0:0:0:0:
192,192,106123,1,0,0:0:0:0:
448,192,106230,1,0,0:0:0:0:
64,192,106337,1,0,0:0:0:0:
320,192,106444,1,0,0:0:0:0:
448,192,106444,1,0,0:0:0:0:
192,192,106551,1,0,0:0:0:0:
64,192,106578,1,0,0:0:0:0:
192,192,106909,1,0,0:0:0:0:
320,192,106980,1,0,0:0:0:0:
448,192,107007,1,0,0:0:0:0:
320,192,107409,1,0,0:0:0:0:
64,192,107837,5,0,0:0:0:0:
448,192,107837,1,0,0:0:0:0:
192,192,108159,1,0,0:0:0:0:
448,192,108266,1,0,0:0:0:0:
64,192,108373,1,0,0:0:0:0:
320,192,108480,1,0,0:0:0:0:
64,192,108587,1,0,0:0:0:0:
192,192,108694,1,0,0:0:0:0:
448,192,108694,1,0,0:0:0:0:
320,192,108801,1,0,0:0:0:0:
64,192,108909,1,0,0:0:0:0:
448,192,109016,1,0,0:0:0:0:
64,192,109123,1,0,0:0:0:0:
320,192,109230,1,0,0:0:0:0:
192,192,109337,1,0,0:0:0:0:
448,192,109444,1,0,0:0:0:0:
192,192,109551,1,0,0:0:0:0:
320,192,109551,1,0,0:0:0:0:
448,192,109766,1,0,0:0:0:0:
64,192,109873,1,0,0:0:0:0:
192,192,109873,1,0,0:0:0:0:
320,192,109980,1,0,0:0:0:0:
64,192,110087,1,0,0:0:0:0:
320,192,110194,1,0,0:0:0:0:
448,192,110194,1,0,0:0:0:0:
192,192,110301,1,0,0:0:0:0:
64,192,110409,1,0,0:0:0:0:
448,192,110409,1,0,0:0:0:0:
192,192,110516,1,0,0:0:0:0:
448,192,110623,1,0,0:0:0:0:
320,192,110730,1,0,0:0:0:0:
64,192,110837,1,0,0:0:0:0:
448,192,111051,1,0,0:0:0:0:
320,192,111266,1,0,0:0:0:0:
448,192,111266,1,0,0:0:0:0:
64,192,111373,1,0,0:0:0:0:
320,192,111587,1,0,0:0:0:0:
64,192,111694,1,0,0:0:0:0:
448,192,111801,1,0,0:0:0:0:
192,192,111909,1,0,0:0:0:0:
320,192,111980,1,0,0:0:0:0:
64,192,112051,1,0,0:0:0:0:
192,192,112123,1,0,0:0:0:0:
448,192,112123,1,0,0:0:0:0:
320,192,112337,1,0,0:0:0:0:
64,192,112551,1,0,0:0:0:0:
448,192,112659,1,0,0:0:0:0:
64,192,112766,1,0,0:0:0:0:
64,192,112980,1,0,0:0:0:0:
192,192,112980,1,0,0:0:0:0:
192,192,113194,1,0,0:0:0:0:
320,192,113301,1,0,0:0:0:0:
448,192,113301,1,0,0:0:0:0:
64,192,113409,1,0,0:0:0:0:
320,192,113516,1,0,0:0:0:0:
64,192,113623,1,0,0:0:0:0:
192,192,113623,1,0,0:0:0:0:
64,192,113837,1,0,0:0:0:0:
320,192,113837,1,0,0:0:0:0:
448,192,114051,1,0,0:0:0:0:
192,192,114159,1,0,0:0:0:0:
448,192,114266,1,0,0:0:0:0:
320,192,114480,1,0,0:0:0:0:
192,192,114587,1,0,0:0:0:0:
64,192,114694,1,0,0:0:0:0:
448,192,114694,1,0,0:0:0:0:
320,192,115016,1,0,0:0:0:0:
448,192,115123,1,0,0:0:0:0:
192,192,115230,1,0,0:0:0:0:
320,192,115337,1,0,0:0:0:0:
192,192,115444,1,0,0:0:0:0:
64,192,115551,1,0,0:0:0:0:
448,192,115551,1,0,0:0:0:0:
320,192,115766,1,0,0:0:0:0:
64,192,115980,1,0,0:0:0:0:
320,192,116194,1,0,0:0:0:0:
64,192,116301,1,0,0:0:0:0:
448,192,116409,1,0,0:0:0:0:
192,192,116409,1,0,0:0:0:0:
192,192,116623,1,0,0:0:0:0:
320,192,116730,1,0,0:0:0:0:
448,192,116730,1,0,0:0:0:0:
64,192,116837,1,0,0:0:0:0:
192,192,116944,1,0,0:0:0:0:
320,192,117051,1,0,0:0:0:0:
448,192,117051,1,0,0:0:0:0:
192,192,117159,1,0,0:0:0:0:
64,192,117266,1,0,0:0:0:0:
320,192,117266,1,0,0:0:0:0:
448,192,117373,1,0,0:0:0:0:
192,192,117480,1,0,0:0:0:0:
64,192,117694,1,0,0:0:0:0:
448,192,117801,1,0,0:0:0:0:
320,192,117909,1,0,0:0:0:0:
192,192,117935,1,0,0:0:0:0:
64,192,118123,1,0,0:0:0:0:
448,192,118123,1,0,0:0:0:0:
320,192,118230,1,0,0:0:0:0:
448,192,118337,1,0,0:0:0:0:
64,192,118551,1,0,0:0:0:0:
192,192,118766,1,0,0:0:0:0:
320,192,118766,1,0,0:0:0:0:
192,192,118980,1,0,0:0:0:0:
448,192,118980,1,0,0:0:0:0:
320,192,119194,1,0,0:0:0:0:
64,192,119409,1,0,0:0:0:0:
320,192,119516,1,0,0:0:0:0:
64,192,119623,1,0,0:0:0:0:
192,192,119623,1,0,0:0:0:0:
64,192,119837,1,0,0:0:0:0:
192,192,119837,1,0,0:0:0:0:
448,192,120051,1,0,0:0:0:0:
64,192,120266,1,0,0:0:0:0:
320,192,120373,1,0,0:0:0:0:
64,192,120480,1,0,0:0:0:0:
320,192,120587,1,0,0:0:0:0:
192,192,120694,1,0,0:0:0:0:
448,192,120694,1,0,0:0:0:0:
64,192,121016,1,0,0:0:0:0:
448,192,121123,1,0,0:0:0:0:
448,192,121230,1,0,0:0:0:0:
192,192,121337,1,0,0:0:0:0:
320,192,121551,1,0,0:0:0:0:
448,192,121551,1,0,0:0:0:0:
192,192,121873,1,0,0:0:0:0:
448,192,121980,1,0,0:0:0:0:
64,192,122087,1,0,0:0:0:0:
320,192,122194,1,0,0:0:0:0:
192,192,122301,1,0,0:0:0:0:
64,192,122409,1,0,0:0:0:0:
320,192,122409,1,0,0:0:0:0:
448,192,122516,1,0,0:0:0:0:
64,192,122623,1,0,0:0:0:0:
192,192,122730,1,0,0:0:0:0:
448,192,122730,1,0,0:0:0:0:
320,192,122837,1,0,0:0:0:0:
192,192,122944,1,0,0:0:0:0:
64,192,123051,1,0,0:0:0:0:
192,192,123266,1,0,0:0:0:0:
320,192,123266,1,0,0:0:0:0:
64,192,123373,1,0,0:0:0:0:
192,192,123480,1,0,0:0:0:0:
320,192,123587,1,0,0:0:0:0:
448,192,123587,1,0,0:0:0:0:
64,192,123694,1,0,0:0:0:0:
448,192,123801,1,0,0:0:0:0:
192,192,123909,1,0,0:0:0:0:
320,192,123909,1,0,0:0:0:0:
64,192,124123,1,0,0:0:0:0:
320,192,124123,1,0,0:0:0:0:
320,192,124337,1,0,0:0:0:0:
192,192,124444,1,0,0:0:0:0:
448,192,124551,1,0,0:0:0:0:
192,192,124659,1,0,0:0:0:0:
320,192,124766,1,0,0:0:0:0:
64,192,124980,1,0,0:0:0:0:
448,192,124980,1,0,0:0:0:0:
192,192,125194,1,0,0:0:0:0:
64,192,125301,1,0,0:0:0:0:
320,192,125409,1,0,0:0:0:0:
192,192,125623,1,0,0:0:0:0:
320,192,125730,1,0,0:0:0:0:
192,192,125837,1,0,0:0:0:0:
448,192,125837,1,0,0:0:0:0:
64,192,126051,1,0,0:0:0:0:
448,192,126266,1,0,0:0:0:0:
192,192,126337,1,0,0:0:0:0:
64,192,126409,1,0,0:0:0:0:
448,192,126480,1,0,0:0:0:0:
64,192,126694,1,0,0:0:0:0:
192,192,126694,1,0,0:0:0:0:
448,192,126909,1,0,0:0:0:0:
64,192,127016,1,0,0:0:0:0:
320,192,127123,1,0,0:0:0:0:
448,192,127230,1,0,0:0:0:0:
64,192,127337,1,0,0:0:0:0:
192,192,127337,1,0,0:0:0:0:
448,192,127444,1,0,0:0:0:0:
64,192,127551,1,0,0:0:0:0:
320,192,127551,1,0,0:0:0:0:
192,192,127659,1,0,0:0:0:0:
448,192,127766,1,0,0:0:0:0:
64,192,127873,1,0,0:0:0:0:
320,192,127980,1,0,0:0:0:0:
64,192,128194,1,0,0:0:0:0:
448,192,128409,1,0,0:0:0:0:
64,192,128623,1,0,0:0:0:0:
192,192,128730,1,0,0:0:0:0:
448,192,128837,1,0,0:0:0:0:
448,192,128944,1,0,0:0:0:0:
64,192,129051,1,0,0:0:0:0:
192,192,129051,1,0,0:0:0:0:
192,192,129266,1,0,0:0:0:0:
448,192,129266,1,0,0:0:0:0:
64,192,129480,1,0,0:0:0:0:
448,192,129694,1,0,0:0:0:0:
64,192,129801,1,0,0:0:0:0:
320,192,129909,1,0,0:0:0:0:
448,192,130016,1,0,0:0:0:0:
64,192,130123,1,0,0:0:0:0:
192,192,130123,1,0,0:0:0:0:
320,192,130230,1,0,0:0:0:0:
64,192,130337,1,0,0:0:0:0:
320,192,130444,1,0,0:0:0:0:
448,192,130444,1,0,0:0:0:0:
192,192,130551,1,0,0:0:0:0:
448,192,130659,1,0,0:0:0:0:
64,192,130766,1,0,0:0:0:0:
192,192,130766,1,0,0:0:0:0:
320,192,130873,1,0,0:0:0:0:
64,192,130980,1,0,0:0:0:0:
448,192,130980,1,0,0:0:0:0:
192,192,131194,1,0,0:0:0:0:
64,192,131301,1,0,0:0:0:0:
448,192,131409,1,0,0:0:0:0:
192,192,131516,1,0,0:0:0:0:
448,192,131623,1,0,0:0:0:0:
64,192,131837,1,0,0:0:0:0:
320,192,131837,1,0,0:0:0:0:
448,192,131944,1,0,0:0:0:0:
320,192,132051,1,0,0:0:0:0:
64,192,132159,1,0,0:0:0:0:
192,192,132266,1,0,0:0:0:0:
448,192,132373,1,0,0:0:0:0:
192,192,132480,1,0,0:0:0:0:
320,192,132587,1,0,0:0:0:0:
64,192,132694,1,0,0:0:0:0:
448,192,132694,1,0,0:0:0:0:
320,192,132909,1,0,0:0:0:0:
192,192,133016,1,0,0:0:0:0:
448,192,133123,1,0,0:0:0:0:
64,192,133230,1,0,0:0:0:0:
320,192,133337,1,0,0:0:0:0:
64,192,133444,1,0,0:0:0:0:
192,192,133551,1,0,0:0:0:0:
320,192,133551,1,0,0:0:0:0:
64,192,133766,1,0,0:0:0:0:
192,192,133873,1,0,0:0:0:0:
448,192,133873,1,0,0:0:0:0:
320,192,133980,1,0,0:0:0:0:
64,192,134087,1,0,0:0:0:0:
320,192,134194,1,0,0:0:0:0:
448,192,134194,1,0,0:0:0:0:
192,192,134301,1,0,0:0:0:0:
64,192,134409,1,0,0:0:0:0:
448,192,134409,1,0,0:0:0:0:
320,192,134516,1,0,0:0:0:0:
192,192,134730,1,0,0:0:0:0:
64,192,134837,1,0,0:0:0:0:
448,192,134837,1,0,0:0:0:0:
320,192,135051,1,0,0:0:0:0:
448,192,135051,1,0,0:0:0:0:
192,192,135159,1,0,0:0:0:0:
64,192,135159,1,0,0:0:0:0:
320,192,135266,1,0,0:0:0:0:
448,192,135266,1,0,0:0:0:0:
448,192,135587,1,0,0:0:0:0:
192,192,135801,1,0,0:0:0:0:
320,192,135909,1,0,0:0:0:0:
448,192,135909,1,0,0:0:0:0:
192,192,136016,1,0,0:0:0:0:
448,192,136123,1,0,0:0:0:0:
64,192,136123,1,0,0:0:0:0:
448,192,136551,1,0,0:0:0:0:
64,192,136980,1,0,0:0:0:0:
448,192,137409,1,0,0:0:0:0:
64,192,137837,1,0,0:0:0:0:
448,192,138266,1,0,0:0:0:0:
64,192,138694,1,0,0:0:0:0:
