osu file format v14

[General]
AudioFilename: audio.mp3
AudioLeadIn: 0
PreviewTime: 114
Countdown: 1
SampleSet: Normal
StackLeniency: 0.7
Mode: 1
LetterboxInBreaks: 0
WidescreenStoryboard: 1

[Editor]
Bookmarks: 285,22103,43921,65739,76648,98466,109375,120285,131194,142103,163921,174830,185739,196648,207557,218466,229375
DistanceSpacing: 5.7
BeatDivisor: 4
GridSize: 32
TimelineZoom: 2.4

[Metadata]
Title:Time Ache Finale
TitleUnicode:Time Ache Finale
Artist:The Flashbulb
ArtistUnicode:The Flashbulb
Creator:coed
Version:Muzukashii
Source:
Tags:osu!taiko featured artist cup #1 o!tfac#1 10 shown tobacco fa electronic instrumental breakcore that missing week benn jordan
BeatmapID:3686187
BeatmapSetID:1726133

[Difficulty]
HPDrainRate:6.5
CircleSize:5
OverallDifficulty:5
ApproachRate:5
SliderMultiplier:1.4
SliderTickRate:1

[Events]
//Background and Video events
0,0,"wallpaperflare.com_wallpaper.jpg",0,0
//Break Periods
//Storyboard Layer 0 (Background)
//Storyboard Layer 1 (Fail)
//Storyboard Layer 2 (Pass)
//Storyboard Layer 3 (Foreground)
//Storyboard Layer 4 (Overlay)
//Storyboard Sound Samples

[TimingPoints]
285,340.909090909091,4,1,0,70,1,0
285,-105.263157894737,4,1,0,70,0,0
11194,-100,4,1,0,70,0,0
22444,-111.111111111111,4,1,0,60,0,0
43921,-100,4,1,0,80,0,0
54830,-95.2380952380952,4,1,0,80,0,1
57216,-96.1538461538461,4,1,0,80,0,1
57387,-98.0392156862745,4,1,0,80,0,1
57557,-100,4,1,0,80,0,0
59517,-99.009900990099,4,1,0,80,0,0
59773,-98.0392156862745,4,1,0,80,0,0
59944,-97.0873786407767,4,1,0,80,0,0
60114,-96.1538461538461,4,1,0,80,0,0
60285,-95.2380952380952,4,1,0,80,0,1
65739,-100,4,1,0,80,0,0
66080,-105.263157894737,4,1,0,60,0,0
76648,-100,4,1,0,70,0,0
120625,-105.263157894737,4,1,0,70,0,0
131194,-100,4,1,0,80,0,1
142103,-100,4,1,0,80,0,0
207557,-100,4,1,0,70,0,1
218466,-100,4,1,0,50,0,0
219148,-105.263157894737,4,1,0,50,0,0
229375,-100,4,1,0,50,0,0

[HitObjects]
256,192,285,5,0,0:0:0:0:
256,192,625,1,8,0:0:0:0:
256,192,796,1,0,0:0:0:0:
256,192,966,1,0,0:0:0:0:
256,192,1307,1,8,0:0:0:0:
256,192,1478,1,8,0:0:0:0:
256,192,1648,1,0,0:0:0:0:
256,192,1989,1,8,0:0:0:0:
256,192,2160,1,0,0:0:0:0:
256,192,2330,1,0,0:0:0:0:
256,192,2500,1,8,0:0:0:0:
256,192,2671,1,8,0:0:0:0:
256,192,3012,1,0,0:0:0:0:
256,192,3353,1,8,0:0:0:0:
256,192,3523,1,0,0:0:0:0:
256,192,3694,1,0,0:0:0:0:
256,192,3949,1,8,0:0:0:0:
256,192,4035,1,8,0:0:0:0:
256,192,4205,1,8,0:0:0:0:
256,192,4375,1,0,0:0:0:0:
256,192,4716,1,8,0:0:0:0:
256,192,4887,1,0,0:0:0:0:
256,192,5057,1,0,0:0:0:0:
256,192,5142,1,0,0:0:0:0:
256,192,5228,1,0,0:0:0:0:
256,192,5398,1,8,0:0:0:0:
256,192,5569,1,8,0:0:0:0:
256,192,6080,1,8,0:0:0:0:
256,192,6250,1,0,0:0:0:0:
256,192,6421,1,0,0:0:0:0:
256,192,6762,1,8,0:0:0:0:
256,192,6932,1,8,0:0:0:0:
256,192,7103,1,0,0:0:0:0:
256,192,7444,1,8,0:0:0:0:
256,192,7614,1,0,0:0:0:0:
256,192,7785,1,0,0:0:0:0:
256,192,7955,1,8,0:0:0:0:
256,192,8125,1,8,0:0:0:0:
256,192,8466,1,0,0:0:0:0:
256,192,8807,1,8,0:0:0:0:
256,192,8978,1,0,0:0:0:0:
256,192,9148,1,0,0:0:0:0:
256,192,9319,1,8,0:0:0:0:
256,192,9404,1,8,0:0:0:0:
256,192,9489,1,8,0:0:0:0:
256,192,9660,1,8,0:0:0:0:
256,192,9830,1,0,0:0:0:0:
256,192,10171,1,8,0:0:0:0:
256,192,10341,1,0,0:0:0:0:
256,192,10512,1,0,0:0:0:0:
256,192,10682,1,8,0:0:0:0:
256,192,10853,1,8,0:0:0:0:
256,192,11023,1,8,0:0:0:0:
256,192,11535,1,8,0:0:0:0:
256,192,11705,1,0,0:0:0:0:
256,192,11875,1,0,0:0:0:0:
256,192,12046,1,8,0:0:0:0:
256,192,12387,1,8,0:0:0:0:
256,192,12557,1,0,0:0:0:0:
256,192,12898,1,8,0:0:0:0:
256,192,13069,1,0,0:0:0:0:
256,192,13239,1,0,0:0:0:0:
256,192,13495,1,0,0:0:0:0:
256,192,13750,1,8,0:0:0:0:
256,192,13921,1,0,0:0:0:0:
256,192,14262,1,8,0:0:0:0:
256,192,14347,1,8,0:0:0:0:
256,192,14432,1,8,0:0:0:0:
256,192,14603,1,0,0:0:0:0:
256,192,14773,1,8,0:0:0:0:
256,192,15114,1,8,0:0:0:0:
256,192,15285,1,0,0:0:0:0:
256,192,15625,1,8,0:0:0:0:
256,192,15796,1,0,0:0:0:0:
256,192,15966,1,0,0:0:0:0:
256,192,16052,1,0,0:0:0:0:
256,192,16137,1,0,0:0:0:0:
256,192,16307,1,8,0:0:0:0:
256,192,16478,1,8,0:0:0:0:
256,192,16989,1,8,0:0:0:0:
256,192,17160,1,0,0:0:0:0:
256,192,17330,1,0,0:0:0:0:
256,192,17671,1,8,0:0:0:0:
256,192,17756,1,8,0:0:0:0:
256,192,17841,1,8,0:0:0:0:
256,192,18012,1,0,0:0:0:0:
256,192,18353,1,8,0:0:0:0:
256,192,18523,1,0,0:0:0:0:
256,192,18694,1,0,0:0:0:0:
256,192,18864,1,8,0:0:0:0:
256,192,19205,1,8,0:0:0:0:
256,192,19375,1,0,0:0:0:0:
256,192,19716,1,8,0:0:0:0:
256,192,19887,1,0,0:0:0:0:
256,192,20057,1,0,0:0:0:0:
256,192,20398,1,8,0:0:0:0:
256,192,20569,1,8,0:0:0:0:
256,192,20739,1,0,0:0:0:0:
256,192,21080,1,8,0:0:0:0:
256,192,21250,1,0,0:0:0:0:
256,192,21421,1,0,0:0:0:0:
256,192,21591,1,8,0:0:0:0:
256,192,21932,1,8,0:0:0:0:
256,192,22103,1,0,0:0:0:0:
256,192,22614,1,0,0:0:0:0:
256,192,22785,1,8,0:0:0:0:
256,192,23466,1,0,0:0:0:0:
256,192,23637,1,0,0:0:0:0:
256,192,23978,1,0,0:0:0:0:
256,192,24148,1,8,0:0:0:0:
256,192,24830,1,0,0:0:0:0:
256,192,25171,1,0,0:0:0:0:
256,192,25341,1,0,0:0:0:0:
256,192,25512,1,8,0:0:0:0:
256,192,25682,1,0,0:0:0:0:
256,192,26194,1,0,0:0:0:0:
256,192,26364,1,0,0:0:0:0:
256,192,26705,1,0,0:0:0:0:
256,192,26875,1,8,0:0:0:0:
256,192,27046,1,0,0:0:0:0:
256,192,27216,1,8,0:0:0:0:
256,192,27387,1,8,0:0:0:0:
256,192,27557,1,0,0:0:0:0:
256,192,28069,1,0,0:0:0:0:
256,192,28239,1,8,0:0:0:0:
256,192,28580,1,8,0:0:0:0:
256,192,28665,1,8,0:0:0:0:
256,192,28750,1,8,0:0:0:0:
256,192,28921,1,0,0:0:0:0:
256,192,29262,1,8,0:0:0:0:
256,192,29432,1,0,0:0:0:0:
256,192,29603,1,8,0:0:0:0:
256,192,29944,1,0,0:0:0:0:
256,192,30114,1,8,0:0:0:0:
256,192,30285,1,0,0:0:0:0:
256,192,30796,1,0,0:0:0:0:
256,192,30966,1,8,0:0:0:0:
256,192,31137,1,8,0:0:0:0:
256,192,31307,1,0,0:0:0:0:
256,192,31478,1,8,0:0:0:0:
256,192,31563,1,8,0:0:0:0:
256,192,31648,1,8,0:0:0:0:
256,192,31819,1,0,0:0:0:0:
256,192,31989,1,8,0:0:0:0:
256,192,32330,1,0,0:0:0:0:
256,192,32500,1,8,0:0:0:0:
256,192,32671,1,0,0:0:0:0:
256,192,32841,1,8,0:0:0:0:
256,192,33012,1,0,0:0:0:0:
256,192,33694,1,8,0:0:0:0:
256,192,34205,1,8,0:0:0:0:
256,192,34375,1,0,0:0:0:0:
256,192,34887,1,0,0:0:0:0:
256,192,35057,1,8,0:0:0:0:
256,192,35398,1,0,0:0:0:0:
256,192,35569,1,8,0:0:0:0:
256,192,35739,1,0,0:0:0:0:
256,192,36080,1,0,0:0:0:0:
256,192,36165,1,0,0:0:0:0:
256,192,36250,1,0,0:0:0:0:
256,192,36421,1,8,0:0:0:0:
256,192,37103,1,0,0:0:0:0:
256,192,37273,1,0,0:0:0:0:
256,192,37614,1,0,0:0:0:0:
256,192,37785,1,8,0:0:0:0:
256,192,37955,1,0,0:0:0:0:
256,192,38125,1,8,0:0:0:0:
256,192,38296,1,8,0:0:0:0:
256,192,38466,1,0,0:0:0:0:
256,192,38807,1,0,0:0:0:0:
256,192,38978,1,8,0:0:0:0:
256,192,39063,1,8,0:0:0:0:
256,192,39148,1,8,0:0:0:0:
256,192,39489,1,8,0:0:0:0:
256,192,39574,1,8,0:0:0:0:
256,192,39660,1,8,0:0:0:0:
256,192,39830,1,8,0:0:0:0:
256,192,40000,1,0,0:0:0:0:
256,192,40341,1,0,0:0:0:0:
256,192,40512,1,8,0:0:0:0:
256,192,40853,1,8,0:0:0:0:
256,192,41023,1,8,0:0:0:0:
256,192,41194,1,0,0:0:0:0:
256,192,41364,1,8,0:0:0:0:
256,192,41535,1,0,0:0:0:0:
256,192,41875,1,8,0:0:0:0:
256,192,42046,1,0,0:0:0:0:
256,192,42131,1,0,0:0:0:0:
256,192,42216,1,0,0:0:0:0:
256,192,42387,1,8,0:0:0:0:
256,192,42557,1,0,0:0:0:0:
256,192,42898,1,8,0:0:0:0:
256,192,43069,1,8,0:0:0:0:
256,192,43239,1,0,0:0:0:0:
256,192,43921,1,0,0:0:0:0:
256,192,44091,1,0,0:0:0:0:
256,192,44262,1,8,0:0:0:0:
256,192,44432,1,0,0:0:0:0:
256,192,44517,1,0,0:0:0:0:
256,192,44603,1,0,0:0:0:0:
256,192,44944,1,8,0:0:0:0:
256,192,45114,1,8,0:0:0:0:
256,192,45285,1,0,0:0:0:0:
256,192,45455,1,0,0:0:0:0:
256,192,45625,1,8,0:0:0:0:
256,192,45796,1,0,0:0:0:0:
256,192,45881,1,0,0:0:0:0:
256,192,45966,1,0,0:0:0:0:
256,192,46307,1,8,0:0:0:0:
256,192,46648,1,0,0:0:0:0:
256,192,46819,1,0,0:0:0:0:
256,192,46989,1,8,0:0:0:0:
256,192,47415,1,8,0:0:0:0:
256,192,47671,1,8,0:0:0:0:
256,192,47841,1,8,0:0:0:0:
256,192,48012,1,0,0:0:0:0:
256,192,48182,1,0,0:0:0:0:
256,192,48353,1,8,0:0:0:0:
256,192,48608,1,8,0:0:0:0:
256,192,49035,1,8,0:0:0:0:
256,192,49205,1,8,0:0:0:0:
256,192,49375,1,0,0:0:0:0:
256,192,49546,1,0,0:0:0:0:
256,192,49716,1,8,0:0:0:0:
256,192,49887,1,0,0:0:0:0:
256,192,49972,1,0,0:0:0:0:
256,192,50057,1,0,0:0:0:0:
256,192,50398,1,8,0:0:0:0:
256,192,50569,1,8,0:0:0:0:
256,192,50739,1,0,0:0:0:0:
256,192,50910,1,0,0:0:0:0:
256,192,51080,1,8,0:0:0:0:
256,192,51250,1,0,0:0:0:0:
256,192,51336,1,0,0:0:0:0:
256,192,51421,1,0,0:0:0:0:
256,192,51591,1,0,0:0:0:0:
256,192,51762,1,8,0:0:0:0:
256,192,52103,1,0,0:0:0:0:
256,192,52273,1,0,0:0:0:0:
256,192,52444,1,8,0:0:0:0:
256,192,52870,1,8,0:0:0:0:
256,192,53125,1,8,0:0:0:0:
256,192,53296,1,0,0:0:0:0:
256,192,53381,1,0,0:0:0:0:
256,192,53466,1,0,0:0:0:0:
256,192,53637,1,0,0:0:0:0:
256,192,53807,1,8,0:0:0:0:
256,192,54063,1,8,0:0:0:0:
256,192,54830,1,0,0:0:0:0:
256,192,55000,1,0,0:0:0:0:
256,192,55171,1,8,0:0:0:0:
256,192,55341,1,0,0:0:0:0:
256,192,55512,1,0,0:0:0:0:
256,192,55597,1,0,0:0:0:0:
256,192,55682,1,0,0:0:0:0:
256,192,55853,1,8,0:0:0:0:
256,192,56194,1,0,0:0:0:0:
256,192,56364,1,0,0:0:0:0:
256,192,56535,1,8,0:0:0:0:
256,192,56705,1,0,0:0:0:0:
256,192,56790,1,0,0:0:0:0:
256,192,56875,1,0,0:0:0:0:
256,192,57046,1,0,0:0:0:0:
256,192,57216,1,8,0:0:0:0:
256,192,57387,1,0,0:0:0:0:
256,192,57557,1,8,0:0:0:0:
256,192,57898,1,8,0:0:0:0:
256,192,58069,1,0,0:0:0:0:
256,192,58239,1,0,0:0:0:0:
256,192,58324,1,0,0:0:0:0:
256,192,58410,1,0,0:0:0:0:
256,192,58580,1,8,0:0:0:0:
256,192,58750,1,8,0:0:0:0:
256,192,58921,1,0,0:0:0:0:
256,192,59262,1,8,0:0:0:0:
256,192,59517,1,8,0:0:0:0:
256,192,59773,1,0,0:0:0:0:
256,192,59944,1,8,0:0:0:0:
256,192,60114,1,8,0:0:0:0:
256,192,60285,1,0,0:0:0:0:
256,192,60455,1,0,0:0:0:0:
256,192,60625,1,8,0:0:0:0:
256,192,60796,1,0,0:0:0:0:
256,192,61307,1,8,0:0:0:0:
256,192,61478,1,8,0:0:0:0:
256,192,61648,1,0,0:0:0:0:
256,192,61819,1,0,0:0:0:0:
256,192,61989,1,8,0:0:0:0:
256,192,62160,1,0,0:0:0:0:
256,192,62330,1,8,0:0:0:0:
256,192,62415,1,8,0:0:0:0:
256,192,62500,1,8,0:0:0:0:
256,192,62671,1,8,0:0:0:0:
256,192,63012,1,0,0:0:0:0:
256,192,63182,1,0,0:0:0:0:
256,192,63353,1,8,0:0:0:0:
256,192,63779,1,8,0:0:0:0:
256,192,64035,1,8,0:0:0:0:
256,192,64205,1,8,0:0:0:0:
256,192,64375,1,0,0:0:0:0:
256,192,64546,1,8,0:0:0:0:
256,192,64716,1,8,0:0:0:0:
256,192,64887,1,8,0:0:0:0:
256,192,64972,1,8,0:0:0:0:
256,192,65057,1,8,0:0:0:0:
256,192,65228,1,0,0:0:0:0:
256,192,65313,1,0,0:0:0:0:
256,192,65398,1,0,0:0:0:0:
256,192,65569,1,8,0:0:0:0:
256,192,65739,1,0,0:0:0:0:
256,192,66250,1,0,0:0:0:0:
256,192,66421,1,8,0:0:0:0:
256,192,66762,1,0,0:0:0:0:
256,192,67103,1,0,0:0:0:0:
256,192,67614,1,0,0:0:0:0:
256,192,67785,1,8,0:0:0:0:
256,192,68466,1,0,0:0:0:0:
256,192,68807,1,0,0:0:0:0:
256,192,68978,1,0,0:0:0:0:
256,192,69148,1,8,0:0:0:0:
256,192,69489,1,8,0:0:0:0:
256,192,69830,1,0,0:0:0:0:
256,192,70000,1,0,0:0:0:0:
256,192,70341,1,0,0:0:0:0:
256,192,70512,1,8,0:0:0:0:
256,192,70853,1,8,0:0:0:0:
256,192,71194,1,0,0:0:0:0:
256,192,71705,1,0,0:0:0:0:
256,192,71875,1,8,0:0:0:0:
256,192,72216,1,8,0:0:0:0:
256,192,72302,1,8,0:0:0:0:
256,192,72387,1,8,0:0:0:0:
256,192,72557,1,0,0:0:0:0:
256,192,73069,1,0,0:0:0:0:
256,192,73239,1,8,0:0:0:0:
256,192,73580,1,8,0:0:0:0:
256,192,73921,1,0,0:0:0:0:
256,192,74091,1,8,0:0:0:0:
256,192,74347,1,8,0:0:0:0:
256,192,74603,1,8,0:0:0:0:
256,192,75114,1,8,0:0:0:0:
256,192,75285,1,0,0:0:0:0:
256,192,75625,1,8,0:0:0:0:
256,192,75796,1,8,0:0:0:0:
256,192,75966,1,0,0:0:0:0:
256,192,76648,1,0,0:0:0:0:
256,192,76989,1,0,0:0:0:0:
256,192,77160,1,0,0:0:0:0:
256,192,77330,1,8,0:0:0:0:
256,192,77500,1,8,0:0:0:0:
256,192,77586,1,8,0:0:0:0:
256,192,77671,1,8,0:0:0:0:
256,192,77841,1,8,0:0:0:0:
256,192,78012,1,0,0:0:0:0:
256,192,78353,1,8,0:0:0:0:
256,192,78523,1,8,0:0:0:0:
256,192,78694,1,8,0:0:0:0:
256,192,78779,1,8,0:0:0:0:
256,192,78864,1,8,0:0:0:0:
256,192,79035,1,8,0:0:0:0:
256,192,79205,1,8,0:0:0:0:
256,192,79375,1,0,0:0:0:0:
256,192,79716,1,8,0:0:0:0:
256,192,79887,1,0,0:0:0:0:
256,192,80057,1,8,0:0:0:0:
256,192,80398,1,8,0:0:0:0:
256,192,80483,1,8,0:0:0:0:
256,192,80569,1,8,0:0:0:0:
256,192,80739,1,0,0:0:0:0:
256,192,81080,1,8,0:0:0:0:
256,192,81250,1,0,0:0:0:0:
256,192,81421,1,8,0:0:0:0:
256,192,81506,1,8,0:0:0:0:
256,192,81591,1,8,0:0:0:0:
256,192,81762,1,8,0:0:0:0:
256,192,81932,1,8,0:0:0:0:
256,192,82444,1,8,0:0:0:0:
256,192,82699,1,8,0:0:0:0:
256,192,82785,1,8,0:0:0:0:
256,192,82870,1,8,0:0:0:0:
256,192,83125,1,8,0:0:0:0:
256,192,83296,1,0,0:0:0:0:
256,192,83466,1,0,0:0:0:0:
256,192,83552,1,0,0:0:0:0:
256,192,83637,1,0,0:0:0:0:
256,192,83807,1,8,0:0:0:0:
256,192,83978,1,8,0:0:0:0:
256,192,84233,1,8,0:0:0:0:
256,192,84489,1,8,0:0:0:0:
256,192,84830,1,0,0:0:0:0:
256,192,85341,1,8,0:0:0:0:
256,192,85512,1,0,0:0:0:0:
256,192,85682,1,0,0:0:0:0:
256,192,85853,1,8,0:0:0:0:
256,192,85938,1,8,0:0:0:0:
256,192,86023,1,8,0:0:0:0:
256,192,86194,1,0,0:0:0:0:
256,192,86535,1,8,0:0:0:0:
256,192,86705,1,8,0:0:0:0:
256,192,86961,1,8,0:0:0:0:
256,192,87216,1,8,0:0:0:0:
256,192,87387,1,8,0:0:0:0:
256,192,87557,1,0,0:0:0:0:
256,192,88069,1,0,0:0:0:0:
256,192,88239,1,8,0:0:0:0:
256,192,88410,1,8,0:0:0:0:
256,192,88580,1,0,0:0:0:0:
256,192,88750,1,8,0:0:0:0:
256,192,88921,1,0,0:0:0:0:
256,192,89262,1,8,0:0:0:0:
256,192,89432,1,8,0:0:0:0:
256,192,89688,1,8,0:0:0:0:
256,192,89944,1,8,0:0:0:0:
256,192,90114,1,8,0:0:0:0:
256,192,90285,1,0,0:0:0:0:
256,192,90625,1,0,0:0:0:0:
256,192,90796,1,0,0:0:0:0:
256,192,90966,1,8,0:0:0:0:
256,192,91307,1,8,0:0:0:0:
256,192,91392,1,8,0:0:0:0:
256,192,91478,1,8,0:0:0:0:
256,192,91648,1,0,0:0:0:0:
256,192,91989,1,8,0:0:0:0:
256,192,92160,1,0,0:0:0:0:
256,192,92415,1,8,0:0:0:0:
256,192,92671,1,8,0:0:0:0:
256,192,92841,1,8,0:0:0:0:
256,192,93012,1,0,0:0:0:0:
256,192,93523,1,0,0:0:0:0:
256,192,93694,1,8,0:0:0:0:
256,192,93864,1,0,0:0:0:0:
256,192,94035,1,8,0:0:0:0:
256,192,94120,1,8,0:0:0:0:
256,192,94205,1,8,0:0:0:0:
256,192,94375,1,0,0:0:0:0:
256,192,94546,1,8,0:0:0:0:
256,192,94716,1,0,0:0:0:0:
256,192,94887,1,0,0:0:0:0:
256,192,95057,1,8,0:0:0:0:
256,192,95313,1,8,0:0:0:0:
256,192,95569,1,8,0:0:0:0:
256,192,96080,1,8,0:0:0:0:
256,192,96250,1,8,0:0:0:0:
256,192,96421,1,0,0:0:0:0:
256,192,96591,1,8,0:0:0:0:
256,192,96762,1,8,0:0:0:0:
256,192,96847,1,8,0:0:0:0:
256,192,96932,1,8,0:0:0:0:
256,192,97103,1,0,0:0:0:0:
256,192,97358,1,8,0:0:0:0:
256,192,97444,1,8,0:0:0:0:
256,192,97614,1,8,0:0:0:0:
256,192,97870,1,8,0:0:0:0:
256,192,98125,1,8,0:0:0:0:
256,192,98211,1,8,0:0:0:0:
256,192,98296,1,8,0:0:0:0:
256,192,98466,1,0,0:0:0:0:
256,192,98807,1,8,0:0:0:0:
256,192,99148,1,0,0:0:0:0:
256,192,99489,1,8,0:0:0:0:
256,192,99660,1,8,0:0:0:0:
256,192,99830,1,0,0:0:0:0:
256,192,100171,1,8,0:0:0:0:
256,192,100512,1,0,0:0:0:0:
256,192,100682,1,0,0:0:0:0:
256,192,100853,1,8,0:0:0:0:
256,192,101194,1,0,0:0:0:0:
256,192,101535,1,8,0:0:0:0:
256,192,101875,1,0,0:0:0:0:
256,192,102216,1,8,0:0:0:0:
256,192,102557,1,0,0:0:0:0:
256,192,102728,1,0,0:0:0:0:
256,192,102898,1,8,0:0:0:0:
256,192,103239,1,0,0:0:0:0:
256,192,103410,1,0,0:0:0:0:
256,192,103580,1,8,0:0:0:0:
256,192,103750,1,8,0:0:0:0:
256,192,103921,1,0,0:0:0:0:
256,192,104262,1,8,0:0:0:0:
256,192,104603,1,0,0:0:0:0:
256,192,104944,1,8,0:0:0:0:
256,192,105285,1,0,0:0:0:0:
256,192,105625,1,8,0:0:0:0:
256,192,105966,1,0,0:0:0:0:
256,192,106137,1,0,0:0:0:0:
256,192,106307,1,8,0:0:0:0:
256,192,106648,1,0,0:0:0:0:
256,192,106989,1,8,0:0:0:0:
256,192,107330,1,0,0:0:0:0:
256,192,107671,1,8,0:0:0:0:
256,192,108012,1,0,0:0:0:0:
256,192,108182,1,8,0:0:0:0:
256,192,108353,1,8,0:0:0:0:
256,192,108694,1,8,0:0:0:0:
256,192,109375,1,0,0:0:0:0:
256,192,109546,1,0,0:0:0:0:
256,192,109716,1,8,0:0:0:0:
256,192,110057,1,0,0:0:0:0:
256,192,110142,1,0,0:0:0:0:
256,192,110228,1,0,0:0:0:0:
256,192,110398,1,8,0:0:0:0:
256,192,110569,1,8,0:0:0:0:
256,192,110739,1,0,0:0:0:0:
256,192,110910,1,0,0:0:0:0:
256,192,111080,1,8,0:0:0:0:
256,192,111421,1,0,0:0:0:0:
256,192,111506,1,0,0:0:0:0:
256,192,111591,1,0,0:0:0:0:
256,192,111762,1,8,0:0:0:0:
256,192,112103,1,0,0:0:0:0:
256,192,112273,1,0,0:0:0:0:
256,192,112444,1,8,0:0:0:0:
256,192,112614,1,0,0:0:0:0:
256,192,112870,1,8,0:0:0:0:
256,192,113125,1,8,0:0:0:0:
256,192,113296,1,8,0:0:0:0:
256,192,113466,1,0,0:0:0:0:
256,192,113807,1,8,0:0:0:0:
256,192,113978,1,8,0:0:0:0:
256,192,114063,1,8,0:0:0:0:
256,192,114148,1,8,0:0:0:0:
256,192,114319,1,0,0:0:0:0:
256,192,114489,1,8,0:0:0:0:
256,192,114660,1,8,0:0:0:0:
256,192,115171,1,8,0:0:0:0:
256,192,115341,1,8,0:0:0:0:
256,192,115512,1,0,0:0:0:0:
256,192,115597,1,0,0:0:0:0:
256,192,115682,1,0,0:0:0:0:
256,192,115853,1,8,0:0:0:0:
256,192,116023,1,8,0:0:0:0:
256,192,116194,1,0,0:0:0:0:
256,192,116535,1,8,0:0:0:0:
256,192,116705,1,8,0:0:0:0:
256,192,116875,1,0,0:0:0:0:
256,192,117046,1,8,0:0:0:0:
256,192,117216,1,8,0:0:0:0:
256,192,117557,1,0,0:0:0:0:
256,192,117728,1,0,0:0:0:0:
256,192,117898,1,8,0:0:0:0:
256,192,118154,1,0,0:0:0:0:
256,192,118324,1,8,0:0:0:0:
256,192,118580,1,8,0:0:0:0:
256,192,118750,1,8,0:0:0:0:
256,192,118921,1,0,0:0:0:0:
256,192,119091,1,8,0:0:0:0:
256,192,119262,1,8,0:0:0:0:
256,192,119347,1,8,0:0:0:0:
256,192,119432,1,8,0:0:0:0:
256,192,119603,1,8,0:0:0:0:
256,192,120285,1,0,0:0:0:0:
256,192,120625,1,0,0:0:0:0:
256,192,120966,1,8,0:0:0:0:
256,192,121137,1,8,0:0:0:0:
256,192,121307,1,8,0:0:0:0:
256,192,121392,1,8,0:0:0:0:
256,192,121478,1,8,0:0:0:0:
256,192,121648,1,0,0:0:0:0:
256,192,121989,1,8,0:0:0:0:
256,192,122160,1,8,0:0:0:0:
256,192,122330,1,8,0:0:0:0:
256,192,122415,1,8,0:0:0:0:
256,192,122671,1,8,0:0:0:0:
256,192,122841,1,8,0:0:0:0:
256,192,123012,1,0,0:0:0:0:
256,192,123353,1,8,0:0:0:0:
256,192,123694,1,8,0:0:0:0:
256,192,123864,1,0,0:0:0:0:
256,192,124035,1,8,0:0:0:0:
256,192,124375,1,8,0:0:0:0:
256,192,124546,1,0,0:0:0:0:
256,192,124716,1,8,0:0:0:0:
256,192,125057,1,8,0:0:0:0:
256,192,125142,1,8,0:0:0:0:
256,192,125228,1,8,0:0:0:0:
256,192,125398,1,8,0:0:0:0:
256,192,125739,1,0,0:0:0:0:
256,192,125910,1,0,0:0:0:0:
256,192,126080,1,8,0:0:0:0:
256,192,126762,1,8,0:0:0:0:
256,192,126847,1,8,0:0:0:0:
256,192,126932,1,8,0:0:0:0:
256,192,127103,1,0,0:0:0:0:
256,192,127444,1,8,0:0:0:0:
256,192,127529,1,8,0:0:0:0:
256,192,127614,1,8,0:0:0:0:
256,192,127870,1,8,0:0:0:0:
256,192,128125,1,8,0:0:0:0:
256,192,128466,1,0,0:0:0:0:
256,192,128978,1,8,0:0:0:0:
256,192,129148,1,8,0:0:0:0:
256,192,129319,1,0,0:0:0:0:
256,192,129489,1,8,0:0:0:0:
256,192,129574,1,8,0:0:0:0:
256,192,129660,1,8,0:0:0:0:
256,192,129830,1,0,0:0:0:0:
256,192,130171,1,8,0:0:0:0:
256,192,130341,1,8,0:0:0:0:
256,192,130512,1,8,0:0:0:0:
256,192,130597,1,8,0:0:0:0:
256,192,130682,1,8,0:0:0:0:
256,192,131194,1,0,0:0:0:0:
256,192,131364,1,0,0:0:0:0:
256,192,131535,1,8,0:0:0:0:
256,192,131705,1,0,0:0:0:0:
256,192,131790,1,0,0:0:0:0:
256,192,131875,1,0,0:0:0:0:
256,192,132046,1,0,0:0:0:0:
256,192,132216,1,8,0:0:0:0:
256,192,132557,1,0,0:0:0:0:
256,192,132728,1,0,0:0:0:0:
256,192,132898,1,8,0:0:0:0:
256,192,133069,1,8,0:0:0:0:
256,192,133239,1,0,0:0:0:0:
256,192,133324,1,0,0:0:0:0:
256,192,133410,1,0,0:0:0:0:
256,192,133580,1,8,0:0:0:0:
256,192,133921,1,0,0:0:0:0:
256,192,134091,1,0,0:0:0:0:
256,192,134262,1,8,0:0:0:0:
256,192,134603,1,8,0:0:0:0:
256,192,134688,1,8,0:0:0:0:
256,192,134773,1,8,0:0:0:0:
256,192,134944,1,8,0:0:0:0:
256,192,135114,1,8,0:0:0:0:
256,192,135285,1,0,0:0:0:0:
256,192,135625,1,8,0:0:0:0:
256,192,135796,1,8,0:0:0:0:
256,192,135881,1,8,0:0:0:0:
256,192,135966,1,8,0:0:0:0:
256,192,136137,1,0,0:0:0:0:
256,192,136307,1,8,0:0:0:0:
256,192,136478,1,8,0:0:0:0:
256,192,136989,1,8,0:0:0:0:
256,192,137160,1,0,0:0:0:0:
256,192,137245,1,0,0:0:0:0:
256,192,137330,1,0,0:0:0:0:
256,192,137500,1,0,0:0:0:0:
256,192,137671,1,8,0:0:0:0:
256,192,137841,1,8,0:0:0:0:
256,192,138012,1,0,0:0:0:0:
256,192,138353,1,8,0:0:0:0:
256,192,138523,1,8,0:0:0:0:
256,192,138694,1,0,0:0:0:0:
256,192,138779,1,0,0:0:0:0:
256,192,138864,1,0,0:0:0:0:
256,192,139035,1,8,0:0:0:0:
256,192,139205,1,8,0:0:0:0:
256,192,139375,1,0,0:0:0:0:
256,192,139716,1,8,0:0:0:0:
256,192,139887,1,0,0:0:0:0:
256,192,140142,1,8,0:0:0:0:
256,192,140398,1,8,0:0:0:0:
256,192,140569,1,8,0:0:0:0:
256,192,140739,1,0,0:0:0:0:
256,192,140910,1,0,0:0:0:0:
256,192,141080,1,8,0:0:0:0:
256,192,141165,1,8,0:0:0:0:
256,192,141250,1,8,0:0:0:0:
256,192,141421,1,8,0:0:0:0:
256,192,142103,1,0,0:0:0:0:
256,192,142273,1,0,0:0:0:0:
256,192,142444,1,8,0:0:0:0:
256,192,142785,1,0,0:0:0:0:
256,192,142870,1,0,0:0:0:0:
256,192,142955,1,0,0:0:0:0:
256,192,143125,1,8,0:0:0:0:
256,192,143296,1,8,0:0:0:0:
256,192,143466,1,0,0:0:0:0:
256,192,143637,1,0,0:0:0:0:
256,192,143807,1,8,0:0:0:0:
256,192,144148,1,0,0:0:0:0:
256,192,144233,1,0,0:0:0:0:
256,192,144319,1,0,0:0:0:0:
256,192,144489,1,8,0:0:0:0:
256,192,144830,1,0,0:0:0:0:
256,192,145000,1,0,0:0:0:0:
256,192,145171,1,8,0:0:0:0:
256,192,145427,1,0,0:0:0:0:
256,192,145597,1,8,0:0:0:0:
256,192,145853,1,8,0:0:0:0:
256,192,146023,1,8,0:0:0:0:
256,192,146194,1,0,0:0:0:0:
256,192,146364,1,0,0:0:0:0:
256,192,146535,1,8,0:0:0:0:
256,192,146705,1,8,0:0:0:0:
256,192,146790,1,8,0:0:0:0:
256,192,146875,1,8,0:0:0:0:
256,192,147046,1,0,0:0:0:0:
256,192,147557,1,0,0:0:0:0:
256,192,147728,1,0,0:0:0:0:
256,192,147898,1,8,0:0:0:0:
256,192,148239,1,0,0:0:0:0:
256,192,148324,1,0,0:0:0:0:
256,192,148410,1,0,0:0:0:0:
256,192,148580,1,8,0:0:0:0:
256,192,148750,1,8,0:0:0:0:
256,192,148921,1,0,0:0:0:0:
256,192,149091,1,0,0:0:0:0:
256,192,149262,1,8,0:0:0:0:
256,192,149603,1,0,0:0:0:0:
256,192,149688,1,0,0:0:0:0:
256,192,149773,1,0,0:0:0:0:
256,192,149944,1,8,0:0:0:0:
256,192,150285,1,0,0:0:0:0:
256,192,150455,1,0,0:0:0:0:
256,192,150625,1,8,0:0:0:0:
256,192,150881,1,0,0:0:0:0:
256,192,151052,1,8,0:0:0:0:
256,192,151307,1,8,0:0:0:0:
256,192,151392,1,8,0:0:0:0:
256,192,151478,1,8,0:0:0:0:
256,192,151648,1,0,0:0:0:0:
256,192,151819,1,8,0:0:0:0:
256,192,151989,1,8,0:0:0:0:
256,192,152074,1,8,0:0:0:0:
256,192,152160,1,8,0:0:0:0:
256,192,152330,1,8,0:0:0:0:
256,192,153012,1,0,0:0:0:0:
256,192,153182,1,0,0:0:0:0:
256,192,153353,1,8,0:0:0:0:
256,192,153694,1,0,0:0:0:0:
256,192,153779,1,0,0:0:0:0:
256,192,153864,1,0,0:0:0:0:
256,192,154035,1,8,0:0:0:0:
256,192,154205,1,8,0:0:0:0:
256,192,154375,1,0,0:0:0:0:
256,192,154546,1,0,0:0:0:0:
256,192,154716,1,8,0:0:0:0:
256,192,155057,1,0,0:0:0:0:
256,192,155142,1,0,0:0:0:0:
256,192,155228,1,0,0:0:0:0:
256,192,155398,1,8,0:0:0:0:
256,192,155739,1,0,0:0:0:0:
256,192,155910,1,0,0:0:0:0:
256,192,156080,1,8,0:0:0:0:
256,192,156336,1,0,0:0:0:0:
256,192,156506,1,8,0:0:0:0:
256,192,156762,1,8,0:0:0:0:
256,192,156932,1,8,0:0:0:0:
256,192,157103,1,0,0:0:0:0:
256,192,157273,1,0,0:0:0:0:
256,192,157444,1,8,0:0:0:0:
256,192,157699,1,8,0:0:0:0:
256,192,158125,1,8,0:0:0:0:
256,192,158296,1,8,0:0:0:0:
256,192,158466,1,0,0:0:0:0:
256,192,158637,1,0,0:0:0:0:
256,192,158807,1,8,0:0:0:0:
256,192,159148,1,0,0:0:0:0:
256,192,159319,1,0,0:0:0:0:
256,192,159489,1,8,0:0:0:0:
256,192,159660,1,8,0:0:0:0:
256,192,159830,1,0,0:0:0:0:
256,192,160000,1,0,0:0:0:0:
256,192,160171,1,8,0:0:0:0:
256,192,160512,1,0,0:0:0:0:
256,192,160597,1,0,0:0:0:0:
256,192,160682,1,0,0:0:0:0:
256,192,160853,1,8,0:0:0:0:
256,192,161194,1,0,0:0:0:0:
256,192,161364,1,0,0:0:0:0:
256,192,161535,1,8,0:0:0:0:
256,192,161790,1,0,0:0:0:0:
256,192,161961,1,8,0:0:0:0:
256,192,162216,1,8,0:0:0:0:
256,192,162302,1,8,0:0:0:0:
256,192,162387,1,8,0:0:0:0:
256,192,162557,1,0,0:0:0:0:
256,192,162728,1,8,0:0:0:0:
256,192,162898,1,8,0:0:0:0:
256,192,162983,1,8,0:0:0:0:
256,192,163069,1,8,0:0:0:0:
256,192,163239,1,8,0:0:0:0:
256,192,163921,1,0,0:0:0:0:
256,192,164262,1,0,0:0:0:0:
256,192,164603,1,8,0:0:0:0:
256,192,164773,1,0,0:0:0:0:
256,192,164944,1,8,0:0:0:0:
256,192,165285,1,0,0:0:0:0:
256,192,165625,1,8,0:0:0:0:
256,192,165796,1,8,0:0:0:0:
256,192,165966,1,8,0:0:0:0:
256,192,166307,1,8,0:0:0:0:
256,192,166648,1,0,0:0:0:0:
256,192,167160,1,0,0:0:0:0:
256,192,167330,1,8,0:0:0:0:
256,192,167500,1,8,0:0:0:0:
256,192,167586,1,8,0:0:0:0:
256,192,167671,1,8,0:0:0:0:
256,192,168012,1,0,0:0:0:0:
256,192,168182,1,0,0:0:0:0:
256,192,168353,1,8,0:0:0:0:
256,192,168694,1,8,0:0:0:0:
256,192,168779,1,8,0:0:0:0:
256,192,168864,1,8,0:0:0:0:
256,192,169035,1,8,0:0:0:0:
256,192,169205,1,8,0:0:0:0:
256,192,169375,1,0,0:0:0:0:
256,192,169887,1,0,0:0:0:0:
256,192,170057,1,8,0:0:0:0:
256,192,170228,1,8,0:0:0:0:
256,192,170313,1,8,0:0:0:0:
256,192,170398,1,8,0:0:0:0:
256,192,170739,1,0,0:0:0:0:
256,192,170910,1,8,0:0:0:0:
256,192,171080,1,8,0:0:0:0:
256,192,171421,1,8,0:0:0:0:
256,192,171506,1,8,0:0:0:0:
256,192,171591,1,8,0:0:0:0:
256,192,171762,1,8,0:0:0:0:
256,192,171932,1,8,0:0:0:0:
256,192,172444,1,8,0:0:0:0:
256,192,172614,1,8,0:0:0:0:
256,192,172785,1,0,0:0:0:0:
256,192,172955,1,8,0:0:0:0:
256,192,173125,1,8,0:0:0:0:
256,192,173466,1,0,0:0:0:0:
256,192,173637,1,8,0:0:0:0:
256,192,173722,1,8,0:0:0:0:
256,192,173807,1,8,0:0:0:0:
256,192,173978,1,8,0:0:0:0:
256,192,174148,1,8,0:0:0:0:
256,192,174830,1,0,0:0:0:0:
256,192,175171,1,8,0:0:0:0:
256,192,175512,1,0,0:0:0:0:
256,192,175853,1,8,0:0:0:0:
256,192,176023,1,0,0:0:0:0:
256,192,176194,1,0,0:0:0:0:
256,192,176535,1,8,0:0:0:0:
256,192,176875,1,0,0:0:0:0:
256,192,177046,1,0,0:0:0:0:
256,192,177216,1,8,0:0:0:0:
256,192,177557,1,0,0:0:0:0:
256,192,177898,1,8,0:0:0:0:
256,192,178239,1,0,0:0:0:0:
256,192,178580,1,8,0:0:0:0:
256,192,178750,1,0,0:0:0:0:
256,192,178921,1,0,0:0:0:0:
256,192,179091,1,8,0:0:0:0:
256,192,179262,1,8,0:0:0:0:
256,192,179603,1,8,0:0:0:0:
256,192,179773,1,0,0:0:0:0:
256,192,179944,1,8,0:0:0:0:
256,192,180114,1,8,0:0:0:0:
256,192,180285,1,0,0:0:0:0:
256,192,180625,1,8,0:0:0:0:
256,192,180966,1,0,0:0:0:0:
256,192,181307,1,8,0:0:0:0:
256,192,181478,1,0,0:0:0:0:
256,192,181648,1,0,0:0:0:0:
256,192,181989,1,8,0:0:0:0:
256,192,182330,1,0,0:0:0:0:
256,192,182500,1,0,0:0:0:0:
256,192,182671,1,8,0:0:0:0:
256,192,183012,1,0,0:0:0:0:
256,192,183353,1,8,0:0:0:0:
256,192,183694,1,0,0:0:0:0:
256,192,183864,1,0,0:0:0:0:
256,192,184035,1,8,0:0:0:0:
256,192,184375,1,0,0:0:0:0:
256,192,184546,1,8,0:0:0:0:
256,192,184716,1,8,0:0:0:0:
256,192,184802,1,8,0:0:0:0:
256,192,185057,1,8,0:0:0:0:
256,192,185228,1,8,0:0:0:0:
256,192,185313,1,8,0:0:0:0:
256,192,185398,1,8,0:0:0:0:
256,192,185739,1,0,0:0:0:0:
256,192,186080,1,8,0:0:0:0:
256,192,186421,1,0,0:0:0:0:
256,192,186591,1,0,0:0:0:0:
256,192,186762,1,8,0:0:0:0:
256,192,186932,1,0,0:0:0:0:
256,192,187017,1,0,0:0:0:0:
256,192,187103,1,0,0:0:0:0:
256,192,187444,1,8,0:0:0:0:
256,192,187784,1,0,0:0:0:0:
256,192,187955,1,0,0:0:0:0:
256,192,188125,1,8,0:0:0:0:
256,192,188466,1,0,0:0:0:0:
256,192,188807,1,8,0:0:0:0:
256,192,189148,1,0,0:0:0:0:
256,192,189319,1,0,0:0:0:0:
256,192,189489,1,8,0:0:0:0:
256,192,189660,1,0,0:0:0:0:
256,192,189745,1,0,0:0:0:0:
256,192,189830,1,0,0:0:0:0:
256,192,190171,1,8,0:0:0:0:
256,192,190512,1,8,0:0:0:0:
256,192,190682,1,0,0:0:0:0:
256,192,190853,1,8,0:0:0:0:
256,192,191023,1,8,0:0:0:0:
256,192,191194,1,0,0:0:0:0:
256,192,191535,1,8,0:0:0:0:
256,192,192046,1,0,0:0:0:0:
256,192,192217,1,8,0:0:0:0:
256,192,192388,1,0,0:0:0:0:
256,192,192472,1,0,0:0:0:0:
256,192,192558,1,0,0:0:0:0:
256,192,192899,1,8,0:0:0:0:
256,192,193410,1,0,0:0:0:0:
256,192,193581,1,8,0:0:0:0:
256,192,193750,1,0,0:0:0:0:
256,192,193836,1,0,0:0:0:0:
256,192,193921,1,0,0:0:0:0:
256,192,194091,1,0,0:0:0:0:
256,192,194263,1,8,0:0:0:0:
256,192,194774,1,0,0:0:0:0:
256,192,194945,1,8,0:0:0:0:
256,192,195114,1,0,0:0:0:0:
256,192,195199,1,0,0:0:0:0:
256,192,195285,1,0,0:0:0:0:
256,192,195456,1,8,0:0:0:0:
256,192,195626,1,8,0:0:0:0:
256,192,195712,1,8,0:0:0:0:
256,192,195967,1,8,0:0:0:0:
256,192,196137,1,8,0:0:0:0:
256,192,196222,1,8,0:0:0:0:
256,192,196307,1,8,0:0:0:0:
256,192,196648,1,0,0:0:0:0:
256,192,196989,1,8,0:0:0:0:
256,192,197330,1,8,0:0:0:0:
256,192,197415,1,8,0:0:0:0:
256,192,197500,1,8,0:0:0:0:
256,192,197671,1,8,0:0:0:0:
256,192,197841,1,0,0:0:0:0:
256,192,197927,1,0,0:0:0:0:
256,192,198012,1,0,0:0:0:0:
256,192,198182,1,0,0:0:0:0:
256,192,198353,1,8,0:0:0:0:
256,192,198694,1,0,0:0:0:0:
256,192,198864,1,0,0:0:0:0:
256,192,199035,1,8,0:0:0:0:
256,192,199375,1,0,0:0:0:0:
256,192,199546,1,0,0:0:0:0:
256,192,199716,1,8,0:0:0:0:
256,192,200057,1,0,0:0:0:0:
256,192,200142,1,0,0:0:0:0:
256,192,200228,1,0,0:0:0:0:
256,192,200398,1,8,0:0:0:0:
256,192,200569,1,8,0:0:0:0:
256,192,200739,1,0,0:0:0:0:
256,192,200910,1,0,0:0:0:0:
256,192,201080,1,8,0:0:0:0:
256,192,201421,1,8,0:0:0:0:
256,192,201591,1,0,0:0:0:0:
256,192,201762,1,8,0:0:0:0:
256,192,201932,1,8,0:0:0:0:
256,192,202103,1,0,0:0:0:0:
256,192,202444,1,8,0:0:0:0:
256,192,202955,1,0,0:0:0:0:
256,192,203125,1,8,0:0:0:0:
256,192,203466,1,0,0:0:0:0:
256,192,203637,1,0,0:0:0:0:
256,192,203807,1,8,0:0:0:0:
256,192,203978,1,8,0:0:0:0:
256,192,204148,1,0,0:0:0:0:
256,192,204233,1,0,0:0:0:0:
256,192,204319,1,0,0:0:0:0:
256,192,204489,1,8,0:0:0:0:
256,192,204830,1,0,0:0:0:0:
256,192,205000,1,0,0:0:0:0:
256,192,205171,1,8,0:0:0:0:
256,192,205512,1,0,0:0:0:0:
256,192,205597,1,0,0:0:0:0:
256,192,205682,1,0,0:0:0:0:
256,192,205853,1,8,0:0:0:0:
256,192,206023,1,8,0:0:0:0:
256,192,206194,1,0,0:0:0:0:
256,192,206364,1,8,0:0:0:0:
256,192,206535,1,8,0:0:0:0:
256,192,206620,1,8,0:0:0:0:
256,192,206705,1,8,0:0:0:0:
256,192,206875,1,8,0:0:0:0:
256,192,207557,1,0,0:0:0:0:
256,192,207728,1,0,0:0:0:0:
256,192,207898,1,8,0:0:0:0:
256,192,208069,1,0,0:0:0:0:
256,192,208239,1,8,0:0:0:0:
256,192,208324,1,8,0:0:0:0:
256,192,208410,1,8,0:0:0:0:
256,192,208580,1,8,0:0:0:0:
256,192,208750,1,8,0:0:0:0:
256,192,208921,1,0,0:0:0:0:
256,192,209091,1,0,0:0:0:0:
256,192,209262,1,8,0:0:0:0:
256,192,209432,1,0,0:0:0:0:
256,192,209603,1,8,0:0:0:0:
256,192,209688,1,8,0:0:0:0:
256,192,209773,1,8,0:0:0:0:
256,192,209944,1,8,0:0:0:0:
256,192,210285,1,0,0:0:0:0:
256,192,210455,1,0,0:0:0:0:
256,192,210625,1,8,0:0:0:0:
256,192,210796,1,8,0:0:0:0:
256,192,210966,1,8,0:0:0:0:
256,192,211052,1,8,0:0:0:0:
256,192,211137,1,8,0:0:0:0:
256,192,211307,1,8,0:0:0:0:
256,192,211648,1,0,0:0:0:0:
256,192,211819,1,8,0:0:0:0:
256,192,211989,1,8,0:0:0:0:
256,192,212160,1,0,0:0:0:0:
256,192,212245,1,0,0:0:0:0:
256,192,212330,1,0,0:0:0:0:
256,192,212500,1,8,0:0:0:0:
256,192,212671,1,8,0:0:0:0:
256,192,212841,1,8,0:0:0:0:
256,192,213012,1,0,0:0:0:0:
256,192,213353,1,8,0:0:0:0:
256,192,213864,1,0,0:0:0:0:
256,192,214035,1,8,0:0:0:0:
256,192,214205,1,0,0:0:0:0:
256,192,214290,1,0,0:0:0:0:
256,192,214375,1,0,0:0:0:0:
256,192,214546,1,0,0:0:0:0:
256,192,214716,1,8,0:0:0:0:
256,192,215057,1,8,0:0:0:0:
256,192,215228,1,8,0:0:0:0:
256,192,215398,1,8,0:0:0:0:
256,192,215739,1,0,0:0:0:0:
256,192,215910,1,0,0:0:0:0:
256,192,216080,1,8,0:0:0:0:
256,192,216421,1,8,0:0:0:0:
256,192,216506,1,8,0:0:0:0:
256,192,216762,1,8,0:0:0:0:
256,192,216932,1,8,0:0:0:0:
256,192,217103,1,0,0:0:0:0:
256,192,217273,1,8,0:0:0:0:
256,192,217444,1,8,0:0:0:0:
256,192,217529,1,8,0:0:0:0:
256,192,217614,1,8,0:0:0:0:
256,192,217785,1,8,0:0:0:0:
256,192,217870,1,8,0:0:0:0:
256,192,217955,1,8,0:0:0:0:
256,192,218125,1,8,0:0:0:0:
256,192,218296,1,8,0:0:0:0:
256,192,218466,1,0,0:0:0:0:
256,192,219148,1,8,0:0:0:0:
256,192,219489,1,8,0:0:0:0:
256,192,219830,1,0,0:0:0:0:
256,192,220341,1,0,0:0:0:0:
256,192,220512,1,8,0:0:0:0:
256,192,220853,1,8,0:0:0:0:
256,192,221194,1,0,0:0:0:0:
256,192,221875,1,8,0:0:0:0:
256,192,222216,1,8,0:0:0:0:
256,192,222557,1,0,0:0:0:0:
256,192,223069,1,0,0:0:0:0:
256,192,223239,1,8,0:0:0:0:
256,192,223580,1,8,0:0:0:0:
256,192,223750,1,8,0:0:0:0:
256,192,223921,1,0,0:0:0:0:
256,192,224603,1,8,0:0:0:0:
256,192,224944,1,8,0:0:0:0:
256,192,225285,1,0,0:0:0:0:
256,192,225796,1,0,0:0:0:0:
256,192,225966,1,8,0:0:0:0:
256,192,226307,1,8,0:0:0:0:
256,192,226648,1,0,0:0:0:0:
256,192,227330,1,8,0:0:0:0:
256,192,227671,1,8,0:0:0:0:
256,192,228012,1,0,0:0:0:0:
256,192,228523,1,0,0:0:0:0:
256,192,228694,1,8,0:0:0:0:
256,192,229205,1,8,0:0:0:0:
256,192,229375,1,0,0:0:0:0:
256,192,229716,1,0,0:0:0:0:
256,192,229887,1,0,0:0:0:0:
256,192,230057,1,8,0:0:0:0:
256,192,230398,1,8,0:0:0:0:
256,192,230739,1,0,0:0:0:0:
256,192,230910,1,0,0:0:0:0:
256,192,231250,1,0,0:0:0:0:
256,192,231421,1,8,0:0:0:0:
256,192,231762,1,8,0:0:0:0:
256,192,232103,1,0,0:0:0:0:
256,192,232444,1,0,0:0:0:0:
256,192,232614,1,0,0:0:0:0:
256,192,232785,1,8,0:0:0:0:
256,192,233125,1,0,0:0:0:0:
256,192,233466,1,0,0:0:0:0:
256,192,233637,1,0,0:0:0:0:
256,192,233978,1,0,0:0:0:0:
256,192,234148,1,8,0:0:0:0:
256,192,234660,1,8,0:0:0:0:
256,192,234830,1,0,0:0:0:0:
256,192,235171,1,0,0:0:0:0:
256,192,235341,1,0,0:0:0:0:
256,192,235512,1,8,0:0:0:0:
256,192,235853,1,8,0:0:0:0:
256,192,236194,1,0,0:0:0:0:
256,192,236705,1,0,0:0:0:0:
256,192,236875,1,8,0:0:0:0:
256,192,237216,1,8,0:0:0:0:
256,192,237557,1,0,0:0:0:0:
256,192,237728,1,8,0:0:0:0:
256,192,237983,1,8,0:0:0:0:
256,192,238239,1,8,0:0:0:0:
256,192,238580,1,0,0:0:0:0:
256,192,238750,1,8,0:0:0:0:
256,192,238921,1,0,0:0:0:0:
256,192,239262,1,8,0:0:0:0:
256,192,239432,1,8,0:0:0:0:
256,192,239603,1,0,0:0:0:0:
256,192,239944,1,0,0:0:0:0:
256,192,240114,1,8,0:0:0:0:
256,192,240285,1,0,0:0:0:0:
256,192,240796,1,0,0:0:0:0:
256,192,240966,1,8,0:0:0:0:
256,192,241307,1,8,0:0:0:0:
256,192,241648,1,0,0:0:0:0:
256,192,241819,1,0,0:0:0:0:
256,192,242160,1,0,0:0:0:0:
256,192,242330,1,8,0:0:0:0:
256,192,242671,1,8,0:0:0:0:
256,192,243012,1,0,0:0:0:0:
256,192,243353,1,0,0:0:0:0:
256,192,243523,1,0,0:0:0:0:
256,192,243694,1,8,0:0:0:0:
256,192,244035,1,8,0:0:0:0:
256,192,244375,1,0,0:0:0:0:
256,192,244546,1,0,0:0:0:0:
256,192,244887,1,0,0:0:0:0:
256,192,245057,1,8,0:0:0:0:
256,192,245398,1,8,0:0:0:0:
256,192,245569,1,8,0:0:0:0:
256,192,245739,1,0,0:0:0:0:
256,192,246080,1,0,0:0:0:0:
256,192,246250,1,0,0:0:0:0:
256,192,246421,1,8,0:0:0:0:
256,192,246677,1,8,0:0:0:0:
256,192,246762,1,8,0:0:0:0:
256,192,246932,1,8,0:0:0:0:
256,192,247103,1,0,0:0:0:0:
256,192,247273,1,0,0:0:0:0:
256,192,247529,1,8,0:0:0:0:
256,192,247785,1,8,0:0:0:0:
256,192,248040,1,8,0:0:0:0:
256,192,248125,1,8,0:0:0:0:
256,192,248296,1,8,0:0:0:0:
256,192,248466,1,0,0:0:0:0:
256,192,248978,1,0,0:0:0:0:
256,192,249148,1,8,0:0:0:0:
256,192,249319,1,8,0:0:0:0:
256,192,249660,1,8,0:0:0:0:
256,192,249830,1,0,0:0:0:0:
256,192,250000,1,0,0:0:0:0:
256,192,250171,1,8,0:0:0:0:
256,192,250512,1,8,0:0:0:0:
256,192,250597,1,8,0:0:0:0:
256,192,250767,1,8,0:0:0:0:
256,192,250853,1,8,0:0:0:0:
256,192,251023,1,8,0:0:0:0:
256,192,251194,1,0,0:0:0:0:
