osu file format v14

[General]
AudioFilename: audio.mp3
AudioLeadIn: 0
PreviewTime: 114
Countdown: 1
SampleSet: Normal
StackLeniency: 0.7
Mode: 1
LetterboxInBreaks: 0
WidescreenStoryboard: 1

[Editor]
Bookmarks: 285,22103,43921,65739,76648,98466,109375,120285,131194,142103,163921,174830,185739,196648,207557,218466,229375
DistanceSpacing: 5.7
BeatDivisor: 8
GridSize: 32
TimelineZoom: 2.4

[Metadata]
Title:Time Ache Finale
TitleUnicode:Time Ache Finale
Artist:The Flashbulb
ArtistUnicode:The Flashbulb
Creator:coed
Version:EX
Source:
Tags:osu!taiko featured artist cup #1 o!tfac#1 10 shown tobacco fa electronic instrumental breakcore that missing week benn jordan
BeatmapID:3527595
BeatmapSetID:1726133

[Difficulty]
HPDrainRate:6.6
CircleSize:5
OverallDifficulty:7.7
ApproachRate:5
SliderMultiplier:1.4
SliderTickRate:1

[Events]
//Background and Video events
0,0,"wallpaperflare.com_wallpaper.jpg",0,0
//Break Periods
//Storyboard Layer 0 (Background)
//Storyboard Layer 1 (Fail)
//Storyboard Layer 2 (Pass)
//Storyboard Layer 3 (Foreground)
//Storyboard Layer 4 (Overlay)
//Storyboard Sound Samples

[TimingPoints]
285,340.909090909091,4,1,0,70,1,0
285,-117.647058823529,4,1,0,70,0,0
11023,-100,4,1,0,70,0,0
22444,-111.111111111111,4,1,0,60,0,0
43921,-88.4955752212389,4,1,0,80,0,0
54233,-86.2068965517241,4,1,0,80,0,0
54319,-84.0336134453781,4,1,0,80,0,0
54404,-81.9672131147541,4,1,0,80,0,0
54489,-80,4,1,0,80,0,0
54574,-78.125,4,1,0,80,0,0
54660,-76.9230769230769,4,1,0,80,0,0
54716,-76.3358778625954,4,1,0,80,0,0
54773,-75.7575757575758,4,1,0,80,0,0
54830,-75.187969924812,4,1,0,80,0,1
57387,-76.9230769230769,4,1,0,80,0,1
57557,-79.3650793650794,4,1,0,80,0,0
57614,-80.6451612903226,4,1,0,80,0,0
57671,-81.9672131147541,4,1,0,80,0,0
57728,-83.3333333333333,4,1,0,80,0,0
57898,-88.4955752212389,4,1,0,80,0,0
58918,-86.9565217391304,4,1,0,80,0,0
59003,-86.2477692246224,4,1,0,80,0,0
59088,-85.5504768950303,4,1,0,80,0,0
59145,-85.0891623000878,4,1,0,80,0,0
59202,-84.6327961233057,4,1,0,80,0,0
59259,-84.1812991685862,4,1,0,80,0,0
59344,-83.516891665334,4,1,0,80,0,0
59429,-82.8628898112937,4,1,0,80,0,0
59514,-82.2190510530031,4,1,0,80,0,0
59600,-81.5777407148004,4,1,0,80,0,0
59685,-80.9536429139311,4,1,0,80,0,0
59770,-80.3390217396698,4,1,0,80,0,0
59855,-79.7336629713717,4,1,0,80,0,0
59941,-79.1303965317524,4,1,0,80,0,0
60026,-78.5430482852971,4,1,0,80,0,0
60111,-77.9643550243428,4,1,0,80,0,0
60154,-77.6748403563735,4,1,0,80,0,0
60196,-77.3941268422336,4,1,0,80,0,0
60239,-77.1088239356458,4,1,0,80,0,0
60285,-76.8256167640234,4,1,0,80,0,1
60367,-76.2718651509655,4,1,0,80,0,1
60452,-75.7260391867051,4,1,0,80,0,1
60512,-75.187969924812,4,1,0,80,0,1
62881,-75.3149579237816,4,1,0,80,0,1
62924,-75.4423755987685,4,1,0,80,0,1
63009,-75.6955204437119,4,1,0,80,0,1
63094,-75.9503698495846,4,1,0,80,0,1
63137,-76.079948420374,4,1,0,80,0,1
63179,-76.2069410911403,4,1,0,80,0,1
63264,-76.4652516773505,4,1,0,80,0,1
63350,-76.7283895041165,4,1,0,80,0,1
63435,-76.9902532547705,4,1,0,80,0,1
63520,-77.2539105385615,4,1,0,80,0,1
63605,-77.5193798449612,4,1,0,80,0,1
63691,-77.7898355967099,4,1,0,80,0,1
63776,-78.0590073173959,4,1,0,80,0,1
63818,-78.1926986165907,4,1,0,80,0,1
63861,-78.3300483052319,4,1,0,80,0,1
63946,-78.6029780997961,4,1,0,80,0,1
64032,-78.8810613462231,4,1,0,80,0,1
64088,-79.063199018668,4,1,0,80,0,1
64145,-79.2494549662647,4,1,0,80,0,1
64202,-79.4365905442494,4,1,0,80,0,1
64287,-79.7172997973289,4,1,0,80,0,1
64372,-80,4,1,0,80,0,1
64458,-81.021681021681,4,1,0,80,0,1
64543,-82.0574522484584,4,1,0,80,0,1
64628,-83.1200487507617,4,1,0,80,0,1
64713,-84.2105263157895,4,1,0,80,0,1
64759,-84.7457627118644,4,1,0,80,0,1
64799,-85.3433442828093,4,1,0,80,0,1
64884,-86.4933417882054,4,1,0,80,0,1
64969,-87.6747549413466,4,1,0,80,0,1
65054,-88.8888888888889,4,1,0,80,0,1
65142,-89.2857142857143,4,1,0,80,0,1
65225,-90.9090909090909,4,1,0,80,0,1
65310,-92.7575654539272,4,1,0,80,0,1
65395,-94.1176470588235,4,1,0,80,0,1
65480,-95.5182072829132,4,1,0,80,0,1
65566,-96.9783149662282,4,1,0,80,0,1
65608,-97.7077363896848,4,1,0,80,0,1
65651,-98.4659808698791,4,1,0,80,0,1
65739,-100,4,1,0,80,0,0
66080,-100,4,1,0,60,0,0
76648,-95.2380952380952,4,1,0,70,0,0
87557,-90.9090909090909,4,1,0,70,0,0
98463,-91.743119266055,4,1,0,70,0,0
98804,-92.6998841251448,4,1,0,70,0,0
99145,-93.6768149882904,4,1,0,70,0,0
99486,-94.6745562130177,4,1,0,70,0,0
99657,-95.18293406279,4,1,0,70,0,0
99713,-95.350609223284,4,1,0,70,0,0
99770,-95.5218863471632,4,1,0,70,0,0
99827,-95.6937799043062,4,1,0,70,0,0
100168,-96.7351874244256,4,1,0,70,0,0
100509,-97.799511002445,4,1,0,70,0,0
100679,-98.3389087553351,4,1,0,70,0,0
100850,-98.8875154511743,4,1,0,70,0,0
101191,-100,4,1,0,70,0,0
108179,-98.4044473323226,4,1,0,70,0,0
108350,-96.850063595603,4,1,0,70,0,0
108435,-96.0955456224707,4,1,0,70,0,0
108520,-95.3526930314881,4,1,0,70,0,0
108691,-93.892509265255,4,1,0,70,0,0
108776,-93.1832010446363,4,1,0,70,0,0
108861,-92.4845293670611,4,1,0,70,0,0
108946,-91.7962567601242,4,1,0,70,0,0
109032,-91.1102346940822,4,1,0,70,0,0
109117,-90.4421913154263,4,1,0,70,0,0
109202,-89.7838731564005,4,1,0,70,0,0
109287,-89.1350693854062,4,1,0,70,0,0
109372,-88.495575221239,4,1,0,70,0,0
120625,-111.111111111111,4,1,0,70,0,0
131194,-88.4955752212389,4,1,0,80,0,1
141503,-89.2833765349671,4,1,0,80,0,1
141588,-90.0853300927271,4,1,0,80,0,1
141674,-90.9115145698366,4,1,0,80,0,1
141759,-91.7431192660551,4,1,0,80,0,1
141816,-92.3093581657237,4,1,0,80,0,1
141872,-92.8725113707547,4,1,0,80,0,1
141929,-93.4528213982296,4,1,0,80,0,1
141986,-94.0404291111663,4,1,0,80,0,1
142043,-94.6354730386035,4,1,0,80,0,1
142103,-95.2380952380952,4,1,0,80,0,0
163236,-96.1538461538461,4,1,0,80,0,0
163321,-96.6169887232957,4,1,0,80,0,0
163407,-97.090142930357,4,1,0,80,0,0
163492,-97.5623712520027,4,1,0,80,0,0
163577,-98.0392156862745,4,1,0,80,0,0
163662,-98.5207442505489,4,1,0,80,0,0
163747,-99.0070263050926,4,1,0,80,0,0
163804,-99.3358191563738,4,1,0,80,0,0
163861,-99.6668030630736,4,1,0,80,0,0
163918,-100,4,1,0,80,0,0
173637,-88.4955752212389,4,1,0,70,0,0
175171,-100,4,1,0,70,0,0
194771,-98.7156887433896,4,1,0,70,0,0
194856,-98.0858250969599,4,1,0,70,0,0
194942,-97.4566790144942,4,1,0,70,0,0
195112,-96.2364667468637,4,1,0,70,0,0
195197,-95.6377476334537,4,1,0,70,0,0
195282,-95.0464321218146,4,1,0,70,0,0
195453,-93.8787240157103,4,1,0,70,0,0
195537,-93.3155589411541,4,1,0,70,0,0
195623,-92.7459423650215,4,1,0,70,0,0
195709,-92.1832377010629,4,1,0,70,0,0
195794,-91.6337455293485,4,1,0,70,0,0
195964,-90.5541823557948,4,1,0,70,0,0
196049,-90.023883887562,4,1,0,70,0,0
196135,-89.4936304278344,4,1,0,70,0,0
196220,-88.975645186917,4,1,0,70,0,0
196305,-88.4636215923452,4,1,0,70,0,0
196390,-88.4955752212389,4,1,0,70,0,0
196476,-87.4511991076408,4,1,0,70,0,0
196561,-87.719298245614,4,1,0,70,0,0
196646,-86.9565217391304,4,1,0,70,0,0
196648,-86.9565217391304,4,1,0,70,0,0
206361,-90.9090909090909,4,1,0,70,0,0
206446,-90.3240460327074,4,1,0,70,0,0
206532,-89.7397322100196,4,1,0,70,0,0
206617,-89.1695941400702,4,1,0,70,0,0
206702,-88.6066547831254,4,1,0,70,0,0
206787,-88.0507786552513,4,1,0,70,0,0
206872,-87.5018336511662,4,1,0,70,0,0
206958,-86.9533527696793,4,1,0,70,0,0
207043,-86.4179645056139,4,1,0,70,0,0
207128,-85.8891288696904,4,1,0,70,0,0
207213,-85.3667262969589,4,1,0,70,0,0
207299,-84.8446056468245,4,1,0,70,0,0
207384,-84.334794288138,4,1,0,70,0,0
207441,-83.9963388016616,4,1,0,70,0,0
207497,-83.6664562732309,4,1,0,70,0,0
207557,-83.3333333333333,4,1,0,70,0,1
216418,-83.8912957857424,4,1,0,70,0,1
216503,-84.456780333069,4,1,0,70,0,1
216588,-85.0299401197605,4,1,0,70,0,1
216674,-85.617814936892,4,1,0,70,0,1
216759,-86.2068965517241,4,1,0,70,0,1
216844,-86.8041405167495,4,1,0,70,0,1
216929,-87.4097176625082,4,1,0,70,0,1
216986,-87.8205656798879,4,1,0,70,0,1
217043,-88.2352941176471,4,1,0,70,0,1
217100,-88.6539582119371,4,1,0,70,0,1
217270,-89.9265388837288,4,1,0,70,0,1
217355,-90.5766286783467,4,1,0,70,0,1
217441,-91.2440027416039,4,1,0,70,0,1
217526,-91.913351169414,4,1,0,70,0,1
217611,-92.5925925925926,4,1,0,70,0,1
217696,-93.281947972322,4,1,0,70,0,1
217782,-93.9899391051099,4,1,0,70,0,1
217867,-94.7003378979193,4,1,0,70,0,1
217952,-95.4215572081355,4,1,0,70,0,1
218037,-96.1538461538461,4,1,0,70,0,1
218122,-96.8974615594577,4,1,0,70,0,1
218208,-97.6616231086658,4,1,0,70,0,1
218293,-98.4288354898336,4,1,0,70,0,1
218335,-98.8123956207088,4,1,0,70,0,1
218378,-99.2081974848626,4,1,0,70,0,1
218466,-100,4,1,0,70,0,0
218804,-101.042285117265,4,1,0,50,0,0
219060,-101.839154069412,4,1,0,50,0,0
219145,-102.106526244064,4,1,0,50,0,0
219401,-102.920337451153,4,1,0,50,0,0
219486,-103.193424528989,4,1,0,50,0,0
219742,-104.024724108962,4,1,0,50,0,0
219827,-104.303711296047,4,1,0,50,0,0
220168,-105.438149685638,4,1,0,50,0,0
220338,-106.012973445737,4,1,0,50,0,0
220509,-106.597536403806,4,1,0,50,0,0
220594,-106.890513895571,4,1,0,50,0,0
220679,-107.185106290996,4,1,0,50,0,0
220850,-107.782703588179,4,1,0,50,0,0
221191,-108.994520799779,4,1,0,50,0,0
221532,-110.233897150733,4,1,0,50,0,0
221787,-111.179281049482,4,1,0,50,0,0
221872,-111.498022798377,4,1,0,50,0,0
222128,-112.469135166064,4,1,0,50,0,0
222213,-112.795326474694,4,1,0,50,0,0
222469,-113.78926924112,4,1,0,50,0,0
222554,-114.123174358744,4,1,0,50,0,0
222895,-115.4826580172,4,1,0,50,0,0
223066,-116.176660088754,4,1,0,50,0,0
223236,-116.874921656626,4,1,0,50,0,0
223321,-117.227209521742,4,1,0,50,0,0
223407,-117.585809939768,4,1,0,50,0,0
223577,-118.30116533534,4,1,0,50,0,0
223747,-119.025278005691,4,1,0,50,0,0
223918,-119.762648413356,4,1,0,50,0,0
224259,-121.260693261245,4,1,0,50,0,0
224514,-122.405654290706,4,1,0,50,0,0
224600,-122.796689250872,4,1,0,50,0,0
224855,-123.970980631026,4,1,0,50,0,0
224941,-124.372097053331,4,1,0,50,0,0
225196,-125.576860428842,4,1,0,50,0,0
225282,-125.988453272016,4,1,0,50,0,0
225622,-127.642446700591,4,1,0,50,0,0
225793,-128.490830496696,4,1,0,50,0,0
225963,-129.345506284088,4,1,0,50,0,0
226020,-129.634625005496,4,1,0,50,0,0
226077,-129.925039124003,4,1,0,50,0,0
226134,-130.216757365203,4,1,0,50,0,0
226304,-131.094626310015,4,1,0,50,0,0
226645,-132.891700999155,4,1,0,50,0,0
226986,-134.738729881515,4,1,0,50,0,0
227242,-136.159452216882,4,1,0,50,0,0
227327,-136.637825217814,4,1,0,50,0,0
227583,-138.099096133884,4,1,0,50,0,0
227668,-138.59122005755,4,1,0,50,0,0
227924,-140.094800606662,4,1,0,50,0,0
228009,-140.601276998306,4,1,0,50,0,0
228350,-142.670497718501,4,1,0,50,0,0
228691,-144.801533364482,4,1,0,50,0,0
228861,-145.887884712597,4,1,0,50,0,0
229032,-146.997195882623,4,1,0,50,0,0
229202,-148.116869627556,4,1,0,50,0,0
229372,-142.857142857143,4,1,0,50,0,0
229713,-140.720810428044,4,1,0,50,0,0
229884,-139.673387034827,4,1,0,50,0,0
230054,-138.647431400657,4,1,0,50,0,0
230310,-137.130589548412,4,1,0,50,0,0
230395,-136.63426351502,4,1,0,50,0,0
230651,-135.160917062486,4,1,0,50,0,0
230736,-134.678721502674,4,1,0,50,0,0
230907,-133.719006238586,4,1,0,50,0,0
231247,-131.85086712188,4,1,0,50,0,0
231333,-131.386580022978,4,1,0,50,0,0
231418,-130.930893450335,4,1,0,50,0,0
231759,-129.134126681644,4,1,0,50,0,0
232100,-127.386006454536,4,1,0,50,0,0
232441,-125.684583535896,4,1,0,50,0,0
232611,-124.853231650237,4,1,0,50,0,0
232668,-124.576940819673,4,1,0,50,0,0
232725,-124.301870110812,4,1,0,50,0,0
232782,-124.028011459233,4,1,0,50,0,0
233037,-122.817484887033,4,1,0,50,0,0
233122,-122.41921005386,4,1,0,50,0,0
233463,-120.847059240535,4,1,0,50,0,0
233634,-120.073783193632,4,1,0,50,0,0
233975,-118.560924666541,4,1,0,50,0,0
234145,-117.82086476843,4,1,0,50,0,0
234316,-117.085714040412,4,1,0,50,0,0
234486,-116.363900099832,4,1,0,50,0,0
234657,-115.646763268638,4,1,0,50,0,0
234827,-114.942528735632,4,1,0,50,0,0
235168,-113.636363636364,4,1,0,50,0,0
235338,-113.123573236122,4,1,0,50,0,0
235424,-112.865920406794,4,1,0,50,0,0
235509,-112.612414230474,4,1,0,50,0,0
235764,-111.858682718555,4,1,0,50,0,0
235850,-111.606753146987,4,1,0,50,0,0
235935,-111.358865594161,4,1,0,50,0,0
236020,-111.112076757283,4,1,0,50,0,0
236105,-110.866379347722,4,1,0,50,0,0
236191,-110.618894762799,4,1,0,50,0,0
236276,-110.375371227295,4,1,0,50,0,0
236361,-110.132917553214,4,1,0,50,0,0
236702,-109.170864998719,4,1,0,50,0,0
236787,-108.933668470157,4,1,0,50,0,0
236872,-108.697500425098,4,1,0,50,0,0
237128,-107.992364090955,4,1,0,50,0,0
237213,-107.760255556586,4,1,0,50,0,0
237554,-106.83903531496,4,1,0,50,0,0
237725,-106.382978723404,4,1,0,50,0,0
237810,-106.157729544813,4,1,0,50,0,0
237980,-105.710080698505,4,1,0,50,0,0
238066,-105.485058002343,4,1,0,50,0,0
238151,-105.263591229818,4,1,0,50,0,0
238236,-105.043052451689,4,1,0,50,0,0
238407,-104.602168132542,4,1,0,50,0,0
238520,-104.312848797363,4,1,0,50,0,0
238577,-104.167515378661,4,1,0,50,0,0
238747,-103.736459896953,4,1,0,50,0,0
238918,-103.306452916175,4,1,0,50,0,0
239174,-102.669322069287,4,1,0,50,0,0
239259,-102.459509059873,4,1,0,50,0,0
239429,-102.042445187603,4,1,0,50,0,0
239600,-101.626339385075,4,1,0,50,0,0
239685,-101.420763293378,4,1,0,50,0,0
239855,-101.012096168888,4,1,0,50,0,0
239941,-100.806610579766,4,1,0,50,0,0
240026,-100.604334209408,4,1,0,50,0,0
240111,-100.402867980241,4,1,0,50,0,0
240282,-100,4,1,0,50,0,0

[HitObjects]
256,192,285,5,0,0:0:0:0:
256,192,540,1,0,0:0:0:0:
256,192,625,1,8,0:0:0:0:
256,192,796,1,0,0:0:0:0:
256,192,966,1,0,0:0:0:0:
256,192,1052,1,8,0:0:0:0:
256,192,1137,1,0,0:0:0:0:
256,192,1222,1,0,0:0:0:0:
256,192,1307,1,8,0:0:0:0:
256,192,1478,1,8,0:0:0:0:
256,192,1563,1,8,0:0:0:0:
256,192,1648,1,0,0:0:0:0:
256,192,1733,1,0,0:0:0:0:
256,192,1819,1,0,0:0:0:0:
256,192,1875,1,0,0:0:0:0:
256,192,1932,1,0,0:0:0:0:
256,192,1989,1,8,0:0:0:0:
256,192,2160,1,0,0:0:0:0:
256,192,2245,1,8,0:0:0:0:
256,192,2330,1,0,0:0:0:0:
256,192,2415,1,8,0:0:0:0:
256,192,2500,1,8,0:0:0:0:
256,192,2543,1,8,0:0:0:0:
256,192,2586,1,0,0:0:0:0:
256,192,2671,1,8,0:0:0:0:
256,192,2841,1,8,0:0:0:0:
256,192,2898,1,8,0:0:0:0:
256,192,2955,1,8,0:0:0:0:
256,192,3012,1,0,0:0:0:0:
256,192,3097,1,0,0:0:0:0:
256,192,3267,1,0,0:0:0:0:
256,192,3353,1,8,0:0:0:0:
256,192,3523,1,0,0:0:0:0:
256,192,3694,1,0,0:0:0:0:
256,192,3779,1,8,0:0:0:0:
256,192,3864,1,8,0:0:0:0:
256,192,3949,1,0,0:0:0:0:
256,192,4035,1,8,0:0:0:0:
256,192,4205,1,8,0:0:0:0:
256,192,4262,1,8,0:0:0:0:
256,192,4319,1,8,0:0:0:0:
256,192,4375,1,0,0:0:0:0:
256,192,4461,1,8,0:0:0:0:
256,192,4546,1,0,0:0:0:0:
256,192,4631,1,0,0:0:0:0:
256,192,4716,1,8,0:0:0:0:
256,192,4887,1,0,0:0:0:0:
256,192,4972,1,8,0:0:0:0:
256,192,5057,1,0,0:0:0:0:
256,192,5142,1,8,0:0:0:0:
256,192,5228,1,0,0:0:0:0:
256,192,5341,1,0,0:0:0:0:
256,192,5398,1,8,0:0:0:0:
256,192,5569,1,8,0:0:0:0:
256,192,5654,1,8,0:0:0:0:
256,192,5739,1,0,0:0:0:0:
256,192,5824,1,0,0:0:0:0:
256,192,5995,1,0,0:0:0:0:
256,192,6080,1,8,0:0:0:0:
256,192,6250,1,0,0:0:0:0:
256,192,6336,1,8,0:0:0:0:
256,192,6378,1,8,0:0:0:0:
256,192,6421,1,0,0:0:0:0:
256,192,6506,1,8,0:0:0:0:
256,192,6591,1,0,0:0:0:0:
256,192,6677,1,0,0:0:0:0:
256,192,6762,1,8,0:0:0:0:
256,192,6932,1,8,0:0:0:0:
256,192,7046,1,8,0:0:0:0:
256,192,7103,1,0,0:0:0:0:
256,192,7188,1,0,0:0:0:0:
256,192,7358,1,0,0:0:0:0:
256,192,7444,1,8,0:0:0:0:
256,192,7614,1,0,0:0:0:0:
256,192,7785,1,0,0:0:0:0:
256,192,7870,1,8,0:0:0:0:
256,192,7955,1,8,0:0:0:0:
256,192,8040,1,0,0:0:0:0:
256,192,8125,1,8,0:0:0:0:
256,192,8296,1,8,0:0:0:0:
256,192,8381,1,8,0:0:0:0:
256,192,8466,1,0,0:0:0:0:
256,192,8552,1,8,0:0:0:0:
256,192,8722,1,0,0:0:0:0:
256,192,8807,1,8,0:0:0:0:
256,192,8978,1,0,0:0:0:0:
256,192,9063,1,8,0:0:0:0:
256,192,9148,1,0,0:0:0:0:
256,192,9262,1,0,0:0:0:0:
256,192,9319,1,8,0:0:0:0:
256,192,9404,1,0,0:0:0:0:
256,192,9446,1,0,0:0:0:0:
256,192,9489,1,8,0:0:0:0:
256,192,9660,1,8,0:0:0:0:
256,192,9745,1,8,0:0:0:0:
256,192,9830,1,0,0:0:0:0:
256,192,9915,1,0,0:0:0:0:
256,192,10000,1,8,0:0:0:0:
256,192,10086,1,0,0:0:0:0:
256,192,10171,1,8,0:0:0:0:
256,192,10341,1,0,0:0:0:0:
256,192,10398,1,0,0:0:0:0:
256,192,10455,1,0,0:0:0:0:
256,192,10512,1,0,0:0:0:0:
256,192,10597,1,8,0:0:0:0:
256,192,10682,1,8,0:0:0:0:
256,192,10725,1,8,0:0:0:0:
256,192,10767,1,0,0:0:0:0:
256,192,10853,1,8,0:0:0:0:
256,192,11023,1,8,0:0:0:0:
256,192,11080,1,8,0:0:0:0:
256,192,11137,1,8,0:0:0:0:
256,192,11194,1,0,0:0:0:0:
256,192,11364,1,0,0:0:0:0:
256,192,11449,1,0,0:0:0:0:
256,192,11535,1,8,0:0:0:0:
256,192,11705,1,0,0:0:0:0:
256,192,11790,1,8,0:0:0:0:
256,192,11875,1,0,0:0:0:0:
256,192,11961,1,8,0:0:0:0:
256,192,12046,1,8,0:0:0:0:
256,192,12131,1,0,0:0:0:0:
256,192,12216,1,8,0:0:0:0:
256,192,12302,1,8,0:0:0:0:
256,192,12387,1,8,0:0:0:0:
256,192,12444,1,8,0:0:0:0:
256,192,12500,1,8,0:0:0:0:
256,192,12557,1,0,0:0:0:0:
256,192,12728,1,0,0:0:0:0:
256,192,12813,1,0,0:0:0:0:
256,192,12898,1,8,0:0:0:0:
256,192,13069,1,0,0:0:0:0:
256,192,13111,1,0,0:0:0:0:
256,192,13154,1,0,0:0:0:0:
256,192,13239,1,0,0:0:0:0:
256,192,13324,1,8,0:0:0:0:
256,192,13367,1,8,0:0:0:0:
256,192,13410,1,8,0:0:0:0:
256,192,13495,1,0,0:0:0:0:
256,192,13580,1,8,0:0:0:0:
256,192,13750,1,8,0:0:0:0:
256,192,13836,1,8,0:0:0:0:
256,192,13921,1,0,0:0:0:0:
256,192,14006,1,0,0:0:0:0:
256,192,14091,1,8,0:0:0:0:
256,192,14262,1,8,0:0:0:0:
256,192,14319,1,8,0:0:0:0:
256,192,14375,1,8,0:0:0:0:
256,192,14432,1,0,0:0:0:0:
256,192,14517,1,8,0:0:0:0:
256,192,14603,1,0,0:0:0:0:
256,192,14731,1,8,0:0:0:0:
256,192,14773,1,8,0:0:0:0:
256,192,14858,1,0,0:0:0:0:
256,192,14944,1,8,0:0:0:0:
256,192,14986,1,8,0:0:0:0:
256,192,15029,1,0,0:0:0:0:
256,192,15114,1,8,0:0:0:0:
256,192,15171,1,8,0:0:0:0:
256,192,15228,1,8,0:0:0:0:
256,192,15285,1,0,0:0:0:0:
256,192,15370,1,0,0:0:0:0:
256,192,15455,1,8,0:0:0:0:
256,192,15540,1,0,0:0:0:0:
256,192,15625,1,8,0:0:0:0:
256,192,15796,1,0,0:0:0:0:
256,192,15881,1,8,0:0:0:0:
256,192,15966,1,0,0:0:0:0:
256,192,16023,1,0,0:0:0:0:
256,192,16080,1,0,0:0:0:0:
256,192,16137,1,8,0:0:0:0:
256,192,16222,1,0,0:0:0:0:
256,192,16307,1,8,0:0:0:0:
256,192,16392,1,0,0:0:0:0:
256,192,16478,1,8,0:0:0:0:
256,192,16563,1,8,0:0:0:0:
256,192,16648,1,0,0:0:0:0:
256,192,16733,1,8,0:0:0:0:
256,192,16776,1,8,0:0:0:0:
256,192,16819,1,8,0:0:0:0:
256,192,16904,1,0,0:0:0:0:
256,192,16989,1,8,0:0:0:0:
256,192,17160,1,0,0:0:0:0:
256,192,17245,1,8,0:0:0:0:
256,192,17287,1,8,0:0:0:0:
256,192,17330,1,0,0:0:0:0:
256,192,17415,1,8,0:0:0:0:
256,192,17500,1,8,0:0:0:0:
256,192,17614,1,0,0:0:0:0:
256,192,17671,1,8,0:0:0:0:
256,192,17756,1,0,0:0:0:0:
256,192,17841,1,8,0:0:0:0:
256,192,17927,1,8,0:0:0:0:
256,192,18012,1,0,0:0:0:0:
256,192,18097,1,0,0:0:0:0:
256,192,18182,1,8,0:0:0:0:
256,192,18239,1,8,0:0:0:0:
256,192,18296,1,8,0:0:0:0:
256,192,18353,1,8,0:0:0:0:
256,192,18523,1,0,0:0:0:0:
256,192,18608,1,8,0:0:0:0:
256,192,18694,1,0,0:0:0:0:
256,192,18779,1,8,0:0:0:0:
256,192,18864,1,8,0:0:0:0:
256,192,18949,1,0,0:0:0:0:
256,192,19035,1,8,0:0:0:0:
256,192,19120,1,0,0:0:0:0:
256,192,19205,1,8,0:0:0:0:
256,192,19248,1,8,0:0:0:0:
256,192,19290,1,8,0:0:0:0:
256,192,19375,1,0,0:0:0:0:
256,192,19461,1,8,0:0:0:0:
256,192,19546,1,8,0:0:0:0:
256,192,19631,1,0,0:0:0:0:
256,192,19716,1,8,0:0:0:0:
256,192,19887,1,0,0:0:0:0:
256,192,19972,1,8,0:0:0:0:
256,192,20057,1,0,0:0:0:0:
256,192,20142,1,8,0:0:0:0:
256,192,20228,1,8,0:0:0:0:
256,192,20313,1,0,0:0:0:0:
256,192,20398,1,8,0:0:0:0:
256,192,20569,1,8,0:0:0:0:
256,192,20654,1,8,0:0:0:0:
256,192,20739,1,0,0:0:0:0:
256,192,20824,1,8,0:0:0:0:
256,192,20910,1,8,0:0:0:0:
256,192,20995,1,0,0:0:0:0:
256,192,21080,1,8,0:0:0:0:
256,192,21165,1,8,0:0:0:0:
256,192,21250,1,0,0:0:0:0:
256,192,21307,1,0,0:0:0:0:
256,192,21364,1,8,0:0:0:0:
256,192,21421,1,0,0:0:0:0:
256,192,21506,1,8,0:0:0:0:
256,192,21591,1,8,0:0:0:0:
256,192,21677,1,0,0:0:0:0:
256,192,21762,1,8,0:0:0:0:
256,192,21847,1,8,0:0:0:0:
256,192,21932,1,8,0:0:0:0:
256,192,21989,1,8,0:0:0:0:
256,192,22046,1,8,0:0:0:0:
256,192,22103,1,0,0:0:0:0:
256,192,22444,1,0,0:0:0:0:
256,192,22614,1,0,0:0:0:0:
256,192,22785,1,8,0:0:0:0:
256,192,23125,1,0,0:0:0:0:
256,192,23466,1,0,0:0:0:0:
256,192,23637,1,0,0:0:0:0:
256,192,23978,1,0,0:0:0:0:
256,192,24063,1,0,0:0:0:0:
256,192,24148,1,8,0:0:0:0:
256,192,24830,1,0,0:0:0:0:
256,192,25171,1,0,0:0:0:0:
256,192,25341,1,0,0:0:0:0:
256,192,25427,1,0,0:0:0:0:
256,192,25512,1,8,0:0:0:0:
256,192,25682,1,0,0:0:0:0:
256,192,26194,1,0,0:0:0:0:
256,192,26364,1,0,0:0:0:0:
256,192,26705,1,0,0:0:0:0:
256,192,26875,1,8,0:0:0:0:
256,192,27046,1,0,0:0:0:0:
256,192,27216,1,8,0:0:0:0:
256,192,27302,1,0,0:0:0:0:
256,192,27387,1,8,0:0:0:0:
256,192,27444,1,8,0:0:0:0:
256,192,27500,1,8,0:0:0:0:
256,192,27557,1,0,0:0:0:0:
256,192,27898,1,0,0:0:0:0:
256,192,28069,1,0,0:0:0:0:
256,192,28154,1,0,0:0:0:0:
256,192,28239,1,8,0:0:0:0:
256,192,28580,1,8,0:0:0:0:
256,192,28665,1,8,0:0:0:0:
256,192,28750,1,8,0:0:0:0:
256,192,28836,1,8,0:0:0:0:
256,192,28921,1,0,0:0:0:0:
256,192,29006,1,0,0:0:0:0:
256,192,29091,1,0,0:0:0:0:
256,192,29262,1,8,0:0:0:0:
256,192,29432,1,0,0:0:0:0:
256,192,29517,1,8,0:0:0:0:
256,192,29603,1,8,0:0:0:0:
256,192,29858,1,8,0:0:0:0:
256,192,29901,1,8,0:0:0:0:
256,192,29944,1,0,0:0:0:0:
256,192,30114,1,8,0:0:0:0:
256,192,30285,1,0,0:0:0:0:
256,192,30455,1,8,0:0:0:0:
256,192,30540,1,0,0:0:0:0:
256,192,30711,1,8,0:0:0:0:
256,192,30796,1,0,0:0:0:0:
256,192,30881,1,0,0:0:0:0:
256,192,30966,1,8,0:0:0:0:
256,192,31137,1,8,0:0:0:0:
256,192,31307,1,0,0:0:0:0:
256,192,31478,1,8,0:0:0:0:
256,192,31535,1,0,0:0:0:0:
256,192,31591,1,0,0:0:0:0:
256,192,31648,1,0,0:0:0:0:
256,192,31819,1,0,0:0:0:0:
256,192,31904,1,8,0:0:0:0:
256,192,31989,1,8,0:0:0:0:
256,192,32160,1,8,0:0:0:0:
256,192,32330,1,0,0:0:0:0:
256,192,32415,1,0,0:0:0:0:
256,192,32500,1,0,0:0:0:0:
256,192,32586,1,8,0:0:0:0:
256,192,32671,1,0,0:0:0:0:
256,192,32756,1,8,0:0:0:0:
256,192,32841,1,8,0:0:0:0:
256,192,33012,1,0,0:0:0:0:
256,192,33353,1,0,0:0:0:0:
256,192,33694,1,8,0:0:0:0:
256,192,34205,1,8,0:0:0:0:
256,192,34375,1,0,0:0:0:0:
256,192,34887,1,0,0:0:0:0:
256,192,34972,1,0,0:0:0:0:
256,192,35057,1,8,0:0:0:0:
256,192,35228,1,8,0:0:0:0:
256,192,35398,1,0,0:0:0:0:
256,192,35569,1,8,0:0:0:0:
256,192,35739,1,0,0:0:0:0:
256,192,36080,1,0,0:0:0:0:
256,192,36165,1,0,0:0:0:0:
256,192,36250,1,0,0:0:0:0:
256,192,36336,1,8,0:0:0:0:
256,192,36421,1,8,0:0:0:0:
256,192,37103,1,0,0:0:0:0:
256,192,37273,1,0,0:0:0:0:
256,192,37614,1,0,0:0:0:0:
256,192,37785,1,8,0:0:0:0:
256,192,37955,1,0,0:0:0:0:
256,192,38125,1,8,0:0:0:0:
256,192,38296,1,8,0:0:0:0:
256,192,38381,1,8,0:0:0:0:
256,192,38466,1,0,0:0:0:0:
256,192,38807,1,0,0:0:0:0:
256,192,38978,1,0,0:0:0:0:
256,192,39063,1,8,0:0:0:0:
256,192,39148,1,8,0:0:0:0:
256,192,39489,1,8,0:0:0:0:
256,192,39574,1,8,0:0:0:0:
256,192,39660,1,0,0:0:0:0:
256,192,39830,1,8,0:0:0:0:
256,192,40000,1,0,0:0:0:0:
256,192,40086,1,0,0:0:0:0:
256,192,40341,1,0,0:0:0:0:
256,192,40427,1,0,0:0:0:0:
256,192,40512,1,8,0:0:0:0:
256,192,40767,1,0,0:0:0:0:
256,192,40853,1,8,0:0:0:0:
256,192,40910,1,8,0:0:0:0:
256,192,40966,1,8,0:0:0:0:
256,192,41023,1,8,0:0:0:0:
256,192,41080,1,0,0:0:0:0:
256,192,41137,1,0,0:0:0:0:
256,192,41194,1,0,0:0:0:0:
256,192,41364,1,8,0:0:0:0:
256,192,41535,1,0,0:0:0:0:
256,192,41620,1,8,0:0:0:0:
256,192,41705,1,0,0:0:0:0:
256,192,41790,1,8,0:0:0:0:
256,192,41875,1,8,0:0:0:0:
256,192,42046,1,0,0:0:0:0:
256,192,42131,1,8,0:0:0:0:
256,192,42216,1,8,0:0:0:0:
256,192,42387,1,8,0:0:0:0:
256,192,42444,1,8,0:0:0:0:
256,192,42500,1,8,0:0:0:0:
256,192,42557,1,0,0:0:0:0:
256,192,42813,1,0,0:0:0:0:
256,192,42898,1,8,0:0:0:0:
256,192,42941,1,8,0:0:0:0:
256,192,42983,1,0,0:0:0:0:
256,192,43026,1,0,0:0:0:0:
256,192,43069,1,8,0:0:0:0:
256,192,43154,1,8,0:0:0:0:
256,192,43239,1,0,0:0:0:0:
256,192,43282,1,0,0:0:0:0:
256,192,43324,1,8,0:0:0:0:
256,192,43410,1,0,0:0:0:0:
256,192,43495,1,0,0:0:0:0:
256,192,43580,1,8,0:0:0:0:
256,192,43665,1,8,0:0:0:0:
256,192,43750,1,8,0:0:0:0:
256,192,43921,1,0,0:0:0:0:
256,192,44006,1,8,0:0:0:0:
256,192,44049,1,8,0:0:0:0:
256,192,44091,1,0,0:0:0:0:
256,192,44177,1,0,0:0:0:0:
256,192,44262,1,8,0:0:0:0:
256,192,44432,1,0,0:0:0:0:
256,192,44517,1,0,0:0:0:0:
256,192,44603,1,0,0:0:0:0:
256,192,44688,1,8,0:0:0:0:
256,192,44731,1,8,0:0:0:0:
256,192,44773,1,8,0:0:0:0:
256,192,44858,1,0,0:0:0:0:
256,192,44944,1,8,0:0:0:0:
256,192,45029,1,0,0:0:0:0:
256,192,45114,1,8,0:0:0:0:
256,192,45199,1,8,0:0:0:0:
256,192,45285,1,0,0:0:0:0:
256,192,45370,1,8,0:0:0:0:
256,192,45412,1,8,0:0:0:0:
256,192,45455,1,0,0:0:0:0:
256,192,45540,1,0,0:0:0:0:
256,192,45625,1,8,0:0:0:0:
256,192,45711,1,8,0:0:0:0:
256,192,45796,1,0,0:0:0:0:
256,192,45881,1,0,0:0:0:0:
256,192,45966,1,0,0:0:0:0:
256,192,46052,1,8,0:0:0:0:
256,192,46094,1,8,0:0:0:0:
256,192,46137,1,8,0:0:0:0:
256,192,46222,1,0,0:0:0:0:
256,192,46307,1,8,0:0:0:0:
256,192,46392,1,0,0:0:0:0:
256,192,46478,1,8,0:0:0:0:
256,192,46520,1,8,0:0:0:0:
256,192,46563,1,8,0:0:0:0:
256,192,46648,1,0,0:0:0:0:
256,192,46733,1,0,0:0:0:0:
256,192,46776,1,0,0:0:0:0:
256,192,46819,1,8,0:0:0:0:
256,192,46861,1,8,0:0:0:0:
256,192,46904,1,0,0:0:0:0:
256,192,46989,1,8,0:0:0:0:
256,192,47160,1,8,0:0:0:0:
256,192,47245,1,0,0:0:0:0:
256,192,47330,1,0,0:0:0:0:
256,192,47415,1,8,0:0:0:0:
256,192,47458,1,8,0:0:0:0:
256,192,47500,1,0,0:0:0:0:
256,192,47586,1,0,0:0:0:0:
256,192,47671,1,8,0:0:0:0:
256,192,47756,1,0,0:0:0:0:
256,192,47841,1,8,0:0:0:0:
256,192,47884,1,8,0:0:0:0:
256,192,47927,1,8,0:0:0:0:
256,192,48012,1,0,0:0:0:0:
256,192,48097,1,8,0:0:0:0:
256,192,48182,1,0,0:0:0:0:
256,192,48267,1,0,0:0:0:0:
256,192,48353,1,8,0:0:0:0:
256,192,48395,1,8,0:0:0:0:
256,192,48438,1,8,0:0:0:0:
256,192,48523,1,0,0:0:0:0:
256,192,48608,1,8,0:0:0:0:
256,192,48779,1,0,0:0:0:0:
256,192,48864,1,0,0:0:0:0:
256,192,48907,1,0,0:0:0:0:
256,192,48949,1,0,0:0:0:0:
256,192,49035,1,8,0:0:0:0:
256,192,49205,1,8,0:0:0:0:
256,192,49375,1,0,0:0:0:0:
256,192,49461,1,8,0:0:0:0:
256,192,49503,1,8,0:0:0:0:
256,192,49546,1,0,0:0:0:0:
256,192,49631,1,0,0:0:0:0:
256,192,49716,1,8,0:0:0:0:
256,192,49759,1,8,0:0:0:0:
256,192,49802,1,8,0:0:0:0:
256,192,49887,1,8,0:0:0:0:
256,192,49972,1,0,0:0:0:0:
256,192,50057,1,0,0:0:0:0:
256,192,50142,1,8,0:0:0:0:
256,192,50185,1,8,0:0:0:0:
256,192,50228,1,0,0:0:0:0:
256,192,50313,1,0,0:0:0:0:
256,192,50398,1,8,0:0:0:0:
256,192,50483,1,0,0:0:0:0:
256,192,50569,1,8,0:0:0:0:
256,192,50625,1,8,0:0:0:0:
256,192,50682,1,8,0:0:0:0:
256,192,50739,1,0,0:0:0:0:
256,192,50824,1,8,0:0:0:0:
256,192,50867,1,8,0:0:0:0:
256,192,50910,1,0,0:0:0:0:
256,192,50995,1,0,0:0:0:0:
256,192,51080,1,8,0:0:0:0:
256,192,51250,1,0,0:0:0:0:
256,192,51336,1,8,0:0:0:0:
256,192,51421,1,0,0:0:0:0:
256,192,51506,1,0,0:0:0:0:
256,192,51549,1,0,0:0:0:0:
256,192,51591,1,8,0:0:0:0:
256,192,51677,1,0,0:0:0:0:
256,192,51762,1,8,0:0:0:0:
256,192,51932,1,8,0:0:0:0:
256,192,52017,1,8,0:0:0:0:
256,192,52103,1,0,0:0:0:0:
256,192,52188,1,8,0:0:0:0:
256,192,52231,1,8,0:0:0:0:
256,192,52273,1,0,0:0:0:0:
256,192,52358,1,0,0:0:0:0:
256,192,52444,1,8,0:0:0:0:
256,192,52500,1,8,0:0:0:0:
256,192,52557,1,8,0:0:0:0:
256,192,52614,1,0,0:0:0:0:
256,192,52699,1,8,0:0:0:0:
256,192,52785,1,0,0:0:0:0:
256,192,52870,1,8,0:0:0:0:
256,192,52955,1,0,0:0:0:0:
256,192,52998,1,0,0:0:0:0:
256,192,53040,1,0,0:0:0:0:
256,192,53125,1,8,0:0:0:0:
256,192,53211,1,8,0:0:0:0:
256,192,53296,1,0,0:0:0:0:
256,192,53338,1,0,0:0:0:0:
256,192,53381,1,8,0:0:0:0:
256,192,53424,1,8,0:0:0:0:
256,192,53466,1,0,0:0:0:0:
256,192,53552,1,8,0:0:0:0:
256,192,53637,1,0,0:0:0:0:
256,192,53722,1,0,0:0:0:0:
256,192,53807,1,8,0:0:0:0:
256,192,53978,1,0,0:0:0:0:
256,192,54063,1,8,0:0:0:0:
256,192,54233,1,0,0:0:0:0:
256,192,54319,1,8,0:0:0:0:
256,192,54404,1,0,0:0:0:0:
256,192,54489,1,8,0:0:0:0:
256,192,54574,1,0,0:0:0:0:
256,192,54660,1,8,0:0:0:0:
256,192,54716,1,8,0:0:0:0:
256,192,54773,1,8,0:0:0:0:
256,192,54830,1,0,0:0:0:0:
256,192,55000,1,0,0:0:0:0:
256,192,55086,1,0,0:0:0:0:
256,192,55171,1,8,0:0:0:0:
256,192,55341,1,0,0:0:0:0:
256,192,55427,1,0,0:0:0:0:
256,192,55512,1,0,0:0:0:0:
256,192,55597,1,8,0:0:0:0:
256,192,55640,1,8,0:0:0:0:
256,192,55682,1,0,0:0:0:0:
256,192,55767,1,0,0:0:0:0:
256,192,55853,1,8,0:0:0:0:
256,192,55910,1,0,0:0:0:0:
256,192,55966,1,0,0:0:0:0:
256,192,56023,1,8,0:0:0:0:
256,192,56080,1,8,0:0:0:0:
256,192,56137,1,8,0:0:0:0:
256,192,56194,1,0,0:0:0:0:
256,192,56279,1,8,0:0:0:0:
256,192,56321,1,8,0:0:0:0:
256,192,56364,1,0,0:0:0:0:
256,192,56449,1,0,0:0:0:0:
256,192,56535,1,8,0:0:0:0:
256,192,56705,1,0,0:0:0:0:
256,192,56762,1,0,0:0:0:0:
256,192,56819,1,0,0:0:0:0:
256,192,56875,1,0,0:0:0:0:
256,192,56961,1,8,0:0:0:0:
256,192,57046,1,0,0:0:0:0:
256,192,57131,1,0,0:0:0:0:
256,192,57216,1,8,0:0:0:0:
256,192,57387,1,8,0:0:0:0:
256,192,57429,1,8,0:0:0:0:
256,192,57557,1,8,0:0:0:0:
256,192,57614,1,0,0:0:0:0:
256,192,57671,1,0,0:0:0:0:
256,192,57728,1,0,0:0:0:0:
256,192,57898,1,8,0:0:0:0:
256,192,57983,1,0,0:0:0:0:
256,192,58069,1,8,0:0:0:0:
256,192,58154,1,0,0:0:0:0:
256,192,58239,1,0,0:0:0:0:
256,192,58324,1,8,0:0:0:0:
256,192,58367,1,8,0:0:0:0:
256,192,58410,1,0,0:0:0:0:
256,192,58495,1,0,0:0:0:0:
256,192,58580,1,8,0:0:0:0:
256,192,58665,1,0,0:0:0:0:
256,192,58708,1,0,0:0:0:0:
256,192,58750,1,8,0:0:0:0:
256,192,58793,1,8,0:0:0:0:
256,192,58836,1,8,0:0:0:0:
256,192,58921,1,0,0:0:0:0:
256,192,59006,1,8,0:0:0:0:
256,192,59091,1,0,0:0:0:0:
256,192,59148,1,0,0:0:0:0:
256,192,59205,1,0,0:0:0:0:
256,192,59262,1,8,0:0:0:0:
256,192,59347,1,8,0:0:0:0:
256,192,59432,1,0,0:0:0:0:
256,192,59517,1,8,0:0:0:0:
256,192,59603,1,0,0:0:0:0:
256,192,59688,1,0,0:0:0:0:
256,192,59773,1,8,0:0:0:0:
256,192,59816,1,8,0:0:0:0:
256,192,59858,1,0,0:0:0:0:
256,192,59944,1,8,0:0:0:0:
256,192,60029,1,0,0:0:0:0:
256,192,60114,1,8,0:0:0:0:
256,192,60157,1,8,0:0:0:0:
256,192,60199,1,8,0:0:0:0:
256,192,60242,1,8,0:0:0:0:
256,192,60285,1,0,0:0:0:0:
256,192,60370,1,8,0:0:0:0:
256,192,60455,1,0,0:0:0:0:
256,192,60512,1,0,0:0:0:0:
256,192,60569,1,0,0:0:0:0:
256,192,60625,1,8,0:0:0:0:
256,192,60711,1,8,0:0:0:0:
256,192,60796,1,0,0:0:0:0:
256,192,60881,1,8,0:0:0:0:
256,192,60966,1,0,0:0:0:0:
256,192,61052,1,8,0:0:0:0:
256,192,61137,1,0,0:0:0:0:
256,192,61179,1,0,0:0:0:0:
256,192,61222,1,0,0:0:0:0:
256,192,61307,1,8,0:0:0:0:
256,192,61392,1,0,0:0:0:0:
256,192,61478,1,8,0:0:0:0:
256,192,61520,1,8,0:0:0:0:
256,192,61563,1,8,0:0:0:0:
256,192,61648,1,0,0:0:0:0:
256,192,61733,1,0,0:0:0:0:
256,192,61819,1,8,0:0:0:0:
256,192,61875,1,0,0:0:0:0:
256,192,61932,1,0,0:0:0:0:
256,192,61989,1,8,0:0:0:0:
256,192,62074,1,8,0:0:0:0:
256,192,62160,1,0,0:0:0:0:
256,192,62245,1,0,0:0:0:0:
256,192,62330,1,0,0:0:0:0:
256,192,62415,1,8,0:0:0:0:
256,192,62500,1,8,0:0:0:0:
256,192,62543,1,8,0:0:0:0:
256,192,62586,1,0,0:0:0:0:
256,192,62671,1,8,0:0:0:0:
256,192,62841,1,8,0:0:0:0:
256,192,62884,1,8,0:0:0:0:
256,192,62927,1,8,0:0:0:0:
256,192,63012,1,0,0:0:0:0:
256,192,63097,1,8,0:0:0:0:
256,192,63140,1,8,0:0:0:0:
256,192,63182,1,0,0:0:0:0:
256,192,63267,1,0,0:0:0:0:
256,192,63353,1,8,0:0:0:0:
256,192,63438,1,0,0:0:0:0:
256,192,63523,1,0,0:0:0:0:
256,192,63608,1,8,0:0:0:0:
256,192,63694,1,0,0:0:0:0:
256,192,63779,1,8,0:0:0:0:
256,192,63821,1,8,0:0:0:0:
256,192,63864,1,0,0:0:0:0:
256,192,63949,1,0,0:0:0:0:
256,192,64035,1,8,0:0:0:0:
256,192,64091,1,0,0:0:0:0:
256,192,64148,1,0,0:0:0:0:
256,192,64205,1,8,0:0:0:0:
256,192,64290,1,8,0:0:0:0:
256,192,64375,1,0,0:0:0:0:
256,192,64461,1,0,0:0:0:0:
256,192,64546,1,8,0:0:0:0:
256,192,64631,1,0,0:0:0:0:
256,192,64716,1,8,0:0:0:0:
256,192,64759,1,8,0:0:0:0:
256,192,64802,1,8,0:0:0:0:
256,192,64887,1,0,0:0:0:0:
256,192,64972,1,8,0:0:0:0:
256,192,65057,1,8,0:0:0:0:
256,192,65142,1,0,0:0:0:0:
256,192,65228,1,8,0:0:0:0:
256,192,65313,1,0,0:0:0:0:
256,192,65398,1,8,0:0:0:0:
256,192,65483,1,0,0:0:0:0:
256,192,65569,1,8,0:0:0:0:
256,192,65611,1,8,0:0:0:0:
256,192,65654,1,8,0:0:0:0:
256,192,65739,1,0,0:0:0:0:
256,192,66080,1,0,0:0:0:0:
256,192,66250,1,0,0:0:0:0:
256,192,66421,1,8,0:0:0:0:
256,192,66762,1,0,0:0:0:0:
256,192,67103,1,0,0:0:0:0:
256,192,67614,1,0,0:0:0:0:
256,192,67671,1,0,0:0:0:0:
256,192,67728,1,0,0:0:0:0:
256,192,67785,1,8,0:0:0:0:
256,192,68125,1,8,0:0:0:0:
256,192,68466,1,0,0:0:0:0:
256,192,68807,1,0,0:0:0:0:
256,192,68978,1,0,0:0:0:0:
256,192,69063,1,0,0:0:0:0:
256,192,69148,1,8,0:0:0:0:
256,192,69404,1,0,0:0:0:0:
256,192,69489,1,8,0:0:0:0:
256,192,69745,1,8,0:0:0:0:
256,192,69830,1,0,0:0:0:0:
256,192,70000,1,0,0:0:0:0:
256,192,70341,1,0,0:0:0:0:
256,192,70512,1,8,0:0:0:0:
256,192,70597,1,8,0:0:0:0:
256,192,70682,1,0,0:0:0:0:
256,192,70853,1,8,0:0:0:0:
256,192,71023,1,8,0:0:0:0:
256,192,71080,1,8,0:0:0:0:
256,192,71137,1,8,0:0:0:0:
256,192,71194,1,0,0:0:0:0:
256,192,71535,1,0,0:0:0:0:
256,192,71705,1,0,0:0:0:0:
256,192,71790,1,0,0:0:0:0:
256,192,71875,1,8,0:0:0:0:
256,192,72216,1,8,0:0:0:0:
256,192,72302,1,8,0:0:0:0:
256,192,72387,1,0,0:0:0:0:
256,192,72472,1,0,0:0:0:0:
256,192,72557,1,0,0:0:0:0:
256,192,72642,1,0,0:0:0:0:
256,192,72728,1,0,0:0:0:0:
256,192,73069,1,0,0:0:0:0:
256,192,73154,1,0,0:0:0:0:
256,192,73239,1,8,0:0:0:0:
256,192,73580,1,8,0:0:0:0:
256,192,73921,1,0,0:0:0:0:
256,192,74091,1,8,0:0:0:0:
256,192,74177,1,0,0:0:0:0:
256,192,74347,1,8,0:0:0:0:
256,192,74432,1,0,0:0:0:0:
256,192,74517,1,0,0:0:0:0:
256,192,74603,1,8,0:0:0:0:
256,192,74773,1,8,0:0:0:0:
256,192,74887,1,8,0:0:0:0:
256,192,74944,1,0,0:0:0:0:
256,192,75114,1,8,0:0:0:0:
256,192,75285,1,0,0:0:0:0:
256,192,75540,1,8,0:0:0:0:
256,192,75625,1,8,0:0:0:0:
256,192,75796,1,8,0:0:0:0:
256,192,75966,1,0,0:0:0:0:
256,192,76052,1,8,0:0:0:0:
256,192,76222,1,8,0:0:0:0:
256,192,76307,1,0,0:0:0:0:
256,192,76392,1,8,0:0:0:0:
256,192,76478,1,8,0:0:0:0:
256,192,76648,1,0,0:0:0:0:
256,192,76989,1,0,0:0:0:0:
256,192,77074,1,0,0:0:0:0:
256,192,77160,1,0,0:0:0:0:
256,192,77245,1,0,0:0:0:0:
256,192,77330,1,8,0:0:0:0:
256,192,77500,1,8,0:0:0:0:
256,192,77586,1,0,0:0:0:0:
256,192,77671,1,8,0:0:0:0:
256,192,77728,1,8,0:0:0:0:
256,192,77785,1,8,0:0:0:0:
256,192,77841,1,8,0:0:0:0:
256,192,77927,1,8,0:0:0:0:
256,192,78012,1,0,0:0:0:0:
256,192,78182,1,0,0:0:0:0:
256,192,78267,1,0,0:0:0:0:
256,192,78353,1,8,0:0:0:0:
256,192,78523,1,8,0:0:0:0:
256,192,78580,1,0,0:0:0:0:
256,192,78637,1,0,0:0:0:0:
256,192,78694,1,0,0:0:0:0:
256,192,78779,1,8,0:0:0:0:
256,192,78864,1,0,0:0:0:0:
256,192,78949,1,0,0:0:0:0:
256,192,79035,1,8,0:0:0:0:
256,192,79120,1,0,0:0:0:0:
256,192,79205,1,8,0:0:0:0:
256,192,79262,1,8,0:0:0:0:
256,192,79319,1,8,0:0:0:0:
256,192,79375,1,0,0:0:0:0:
256,192,79716,1,8,0:0:0:0:
256,192,79887,1,0,0:0:0:0:
256,192,79972,1,0,0:0:0:0:
256,192,80057,1,8,0:0:0:0:
256,192,80228,1,0,0:0:0:0:
256,192,80313,1,0,0:0:0:0:
256,192,80398,1,8,0:0:0:0:
256,192,80455,1,8,0:0:0:0:
256,192,80512,1,8,0:0:0:0:
256,192,80569,1,0,0:0:0:0:
256,192,80654,1,8,0:0:0:0:
256,192,80739,1,0,0:0:0:0:
256,192,80910,1,0,0:0:0:0:
256,192,81080,1,8,0:0:0:0:
256,192,81250,1,0,0:0:0:0:
256,192,81336,1,0,0:0:0:0:
256,192,81421,1,8,0:0:0:0:
256,192,81506,1,8,0:0:0:0:
256,192,81591,1,0,0:0:0:0:
256,192,81677,1,0,0:0:0:0:
256,192,81762,1,8,0:0:0:0:
256,192,81847,1,0,0:0:0:0:
256,192,81932,1,8,0:0:0:0:
256,192,82017,1,8,0:0:0:0:
256,192,82103,1,0,0:0:0:0:
256,192,82273,1,0,0:0:0:0:
256,192,82358,1,0,0:0:0:0:
256,192,82444,1,8,0:0:0:0:
256,192,82614,1,0,0:0:0:0:
256,192,82699,1,8,0:0:0:0:
256,192,82742,1,8,0:0:0:0:
256,192,82785,1,0,0:0:0:0:
256,192,82870,1,8,0:0:0:0:
256,192,83040,1,0,0:0:0:0:
256,192,83125,1,8,0:0:0:0:
256,192,83211,1,8,0:0:0:0:
256,192,83296,1,0,0:0:0:0:
256,192,83466,1,0,0:0:0:0:
256,192,83552,1,0,0:0:0:0:
256,192,83637,1,0,0:0:0:0:
256,192,83722,1,0,0:0:0:0:
256,192,83807,1,8,0:0:0:0:
256,192,83892,1,0,0:0:0:0:
256,192,83978,1,8,0:0:0:0:
256,192,84063,1,8,0:0:0:0:
256,192,84148,1,0,0:0:0:0:
256,192,84233,1,8,0:0:0:0:
256,192,84404,1,0,0:0:0:0:
256,192,84489,1,8,0:0:0:0:
256,192,84603,1,8,0:0:0:0:
256,192,84716,1,8,0:0:0:0:
256,192,84830,1,0,0:0:0:0:
256,192,85000,1,8,0:0:0:0:
256,192,85086,1,0,0:0:0:0:
256,192,85256,1,0,0:0:0:0:
256,192,85341,1,8,0:0:0:0:
256,192,85512,1,0,0:0:0:0:
256,192,85569,1,0,0:0:0:0:
256,192,85625,1,0,0:0:0:0:
256,192,85682,1,0,0:0:0:0:
256,192,85767,1,0,0:0:0:0:
256,192,85853,1,8,0:0:0:0:
256,192,85938,1,0,0:0:0:0:
256,192,86023,1,8,0:0:0:0:
256,192,86066,1,8,0:0:0:0:
256,192,86108,1,8,0:0:0:0:
256,192,86151,1,8,0:0:0:0:
256,192,86194,1,0,0:0:0:0:
256,192,86364,1,0,0:0:0:0:
256,192,86449,1,0,0:0:0:0:
256,192,86535,1,8,0:0:0:0:
256,192,86705,1,8,0:0:0:0:
256,192,86875,1,0,0:0:0:0:
256,192,86961,1,8,0:0:0:0:
256,192,87046,1,0,0:0:0:0:
256,192,87131,1,0,0:0:0:0:
256,192,87216,1,8,0:0:0:0:
256,192,87302,1,0,0:0:0:0:
256,192,87387,1,8,0:0:0:0:
256,192,87557,1,0,0:0:0:0:
256,192,87728,1,0,0:0:0:0:
256,192,87813,1,0,0:0:0:0:
256,192,87898,1,0,0:0:0:0:
256,192,88069,1,0,0:0:0:0:
256,192,88154,1,0,0:0:0:0:
256,192,88239,1,8,0:0:0:0:
256,192,88410,1,8,0:0:0:0:
256,192,88495,1,0,0:0:0:0:
256,192,88580,1,0,0:0:0:0:
256,192,88665,1,0,0:0:0:0:
256,192,88750,1,8,0:0:0:0:
256,192,88836,1,8,0:0:0:0:
256,192,88878,1,8,0:0:0:0:
256,192,88921,1,0,0:0:0:0:
256,192,89091,1,0,0:0:0:0:
256,192,89177,1,0,0:0:0:0:
256,192,89262,1,8,0:0:0:0:
256,192,89432,1,8,0:0:0:0:
256,192,89475,1,8,0:0:0:0:
256,192,89517,1,8,0:0:0:0:
256,192,89603,1,0,0:0:0:0:
256,192,89688,1,8,0:0:0:0:
256,192,89773,1,0,0:0:0:0:
256,192,89858,1,0,0:0:0:0:
256,192,89944,1,8,0:0:0:0:
256,192,90029,1,0,0:0:0:0:
256,192,90114,1,8,0:0:0:0:
256,192,90171,1,8,0:0:0:0:
256,192,90228,1,8,0:0:0:0:
256,192,90285,1,0,0:0:0:0:
256,192,90455,1,0,0:0:0:0:
256,192,90625,1,0,0:0:0:0:
256,192,90711,1,0,0:0:0:0:
256,192,90796,1,0,0:0:0:0:
256,192,90881,1,0,0:0:0:0:
256,192,90966,1,8,0:0:0:0:
256,192,91137,1,8,0:0:0:0:
256,192,91222,1,0,0:0:0:0:
256,192,91307,1,8,0:0:0:0:
256,192,91392,1,8,0:0:0:0:
256,192,91478,1,8,0:0:0:0:
256,192,91535,1,8,0:0:0:0:
256,192,91591,1,8,0:0:0:0:
256,192,91648,1,0,0:0:0:0:
256,192,91819,1,0,0:0:0:0:
256,192,91989,1,8,0:0:0:0:
256,192,92160,1,0,0:0:0:0:
256,192,92202,1,0,0:0:0:0:
256,192,92330,1,0,0:0:0:0:
256,192,92373,1,0,0:0:0:0:
256,192,92415,1,8,0:0:0:0:
256,192,92500,1,0,0:0:0:0:
256,192,92586,1,0,0:0:0:0:
256,192,92671,1,8,0:0:0:0:
256,192,92756,1,0,0:0:0:0:
256,192,92841,1,8,0:0:0:0:
256,192,92898,1,8,0:0:0:0:
256,192,92955,1,8,0:0:0:0:
256,192,93012,1,0,0:0:0:0:
256,192,93182,1,0,0:0:0:0:
256,192,93353,1,0,0:0:0:0:
256,192,93523,1,0,0:0:0:0:
256,192,93566,1,0,0:0:0:0:
256,192,93608,1,0,0:0:0:0:
256,192,93694,1,8,0:0:0:0:
256,192,93864,1,0,0:0:0:0:
256,192,93949,1,0,0:0:0:0:
256,192,94035,1,8,0:0:0:0:
256,192,94120,1,8,0:0:0:0:
256,192,94205,1,0,0:0:0:0:
256,192,94375,1,0,0:0:0:0:
256,192,94461,1,0,0:0:0:0:
256,192,94546,1,8,0:0:0:0:
256,192,94716,1,0,0:0:0:0:
256,192,94887,1,0,0:0:0:0:
256,192,94972,1,0,0:0:0:0:
256,192,95057,1,0,0:0:0:0:
256,192,95142,1,8,0:0:0:0:
256,192,95228,1,0,0:0:0:0:
256,192,95313,1,0,0:0:0:0:
256,192,95398,1,8,0:0:0:0:
256,192,95483,1,0,0:0:0:0:
256,192,95569,1,8,0:0:0:0:
256,192,95625,1,8,0:0:0:0:
256,192,95682,1,8,0:0:0:0:
256,192,95739,1,0,0:0:0:0:
256,192,95796,1,0,0:0:0:0:
256,192,95853,1,0,0:0:0:0:
256,192,95910,1,0,0:0:0:0:
256,192,95966,1,0,0:0:0:0:
256,192,96023,1,0,0:0:0:0:
256,192,96080,1,8,0:0:0:0:
256,192,96165,1,0,0:0:0:0:
256,192,96250,1,8,0:0:0:0:
256,192,96336,1,8,0:0:0:0:
256,192,96421,1,0,0:0:0:0:
256,192,96478,1,0,0:0:0:0:
256,192,96535,1,0,0:0:0:0:
256,192,96591,1,8,0:0:0:0:
256,192,96762,1,0,0:0:0:0:
256,192,96847,1,8,0:0:0:0:
256,192,96932,1,0,0:0:0:0:
256,192,97017,1,8,0:0:0:0:
256,192,97103,1,0,0:0:0:0:
256,192,97358,1,8,0:0:0:0:
256,192,97444,1,8,0:0:0:0:
256,192,97614,1,8,0:0:0:0:
256,192,97785,1,0,0:0:0:0:
256,192,97870,1,8,0:0:0:0:
256,192,97955,1,0,0:0:0:0:
256,192,98012,1,0,0:0:0:0:
256,192,98069,1,0,0:0:0:0:
256,192,98125,1,8,0:0:0:0:
256,192,98211,1,8,0:0:0:0:
256,192,98296,1,8,0:0:0:0:
256,192,98381,1,8,0:0:0:0:
256,192,98466,1,0,0:0:0:0:
256,192,98807,1,8,0:0:0:0:
256,192,99148,1,0,0:0:0:0:
256,192,99489,1,8,0:0:0:0:
256,192,99660,1,8,0:0:0:0:
256,192,99716,1,8,0:0:0:0:
256,192,99773,1,8,0:0:0:0:
256,192,99830,1,0,0:0:0:0:
256,192,100171,1,8,0:0:0:0:
256,192,100512,1,0,0:0:0:0:
256,192,100682,1,0,0:0:0:0:
256,192,100853,1,8,0:0:0:0:
256,192,101194,1,0,0:0:0:0:
256,192,101535,1,8,0:0:0:0:
256,192,101875,1,0,0:0:0:0:
256,192,102216,1,8,0:0:0:0:
256,192,102557,1,0,0:0:0:0:
256,192,102728,1,0,0:0:0:0:
256,192,102898,1,8,0:0:0:0:
256,192,103069,1,8,0:0:0:0:
256,192,103239,1,0,0:0:0:0:
256,192,103410,1,0,0:0:0:0:
256,192,103580,1,8,0:0:0:0:
256,192,103665,1,0,0:0:0:0:
256,192,103750,1,8,0:0:0:0:
256,192,103921,1,0,0:0:0:0:
256,192,104262,1,8,0:0:0:0:
256,192,104603,1,0,0:0:0:0:
256,192,104944,1,8,0:0:0:0:
256,192,105285,1,0,0:0:0:0:
256,192,105625,1,8,0:0:0:0:
256,192,105966,1,0,0:0:0:0:
256,192,106137,1,0,0:0:0:0:
256,192,106307,1,8,0:0:0:0:
256,192,106478,1,0,0:0:0:0:
256,192,106648,1,0,0:0:0:0:
256,192,106989,1,8,0:0:0:0:
256,192,107330,1,0,0:0:0:0:
256,192,107671,1,8,0:0:0:0:
256,192,108012,1,0,0:0:0:0:
256,192,108182,1,8,0:0:0:0:
256,192,108353,1,8,0:0:0:0:
256,192,108438,1,8,0:0:0:0:
256,192,108523,1,0,0:0:0:0:
256,192,108694,1,8,0:0:0:0:
256,192,108779,1,8,0:0:0:0:
256,192,108864,1,0,0:0:0:0:
256,192,108949,1,0,0:0:0:0:
256,192,109035,1,8,0:0:0:0:
256,192,109120,1,0,0:0:0:0:
256,192,109205,1,8,0:0:0:0:
256,192,109290,1,8,0:0:0:0:
256,192,109375,1,0,0:0:0:0:
256,192,109546,1,0,0:0:0:0:
256,192,109716,1,8,0:0:0:0:
256,192,109887,1,0,0:0:0:0:
256,192,109972,1,0,0:0:0:0:
256,192,110057,1,0,0:0:0:0:
256,192,110142,1,8,0:0:0:0:
256,192,110228,1,0,0:0:0:0:
256,192,110313,1,0,0:0:0:0:
256,192,110398,1,8,0:0:0:0:
256,192,110569,1,8,0:0:0:0:
256,192,110739,1,0,0:0:0:0:
256,192,110910,1,0,0:0:0:0:
256,192,110995,1,0,0:0:0:0:
256,192,111080,1,8,0:0:0:0:
256,192,111250,1,8,0:0:0:0:
256,192,111421,1,0,0:0:0:0:
256,192,111506,1,8,0:0:0:0:
256,192,111591,1,0,0:0:0:0:
256,192,111677,1,0,0:0:0:0:
256,192,111762,1,8,0:0:0:0:
256,192,111932,1,8,0:0:0:0:
256,192,111975,1,8,0:0:0:0:
256,192,112017,1,8,0:0:0:0:
256,192,112103,1,0,0:0:0:0:
256,192,112273,1,0,0:0:0:0:
256,192,112444,1,8,0:0:0:0:
256,192,112614,1,0,0:0:0:0:
256,192,112699,1,0,0:0:0:0:
256,192,112785,1,0,0:0:0:0:
256,192,112870,1,8,0:0:0:0:
256,192,112955,1,0,0:0:0:0:
256,192,113040,1,0,0:0:0:0:
256,192,113125,1,8,0:0:0:0:
256,192,113211,1,0,0:0:0:0:
256,192,113296,1,8,0:0:0:0:
256,192,113338,1,8,0:0:0:0:
256,192,113381,1,8,0:0:0:0:
256,192,113466,1,0,0:0:0:0:
256,192,113637,1,0,0:0:0:0:
256,192,113722,1,0,0:0:0:0:
256,192,113807,1,8,0:0:0:0:
256,192,113978,1,0,0:0:0:0:
256,192,114063,1,8,0:0:0:0:
256,192,114148,1,0,0:0:0:0:
256,192,114233,1,8,0:0:0:0:
256,192,114319,1,0,0:0:0:0:
256,192,114404,1,0,0:0:0:0:
256,192,114489,1,8,0:0:0:0:
256,192,114574,1,0,0:0:0:0:
256,192,114660,1,8,0:0:0:0:
256,192,114830,1,0,0:0:0:0:
256,192,115000,1,0,0:0:0:0:
256,192,115171,1,8,0:0:0:0:
256,192,115341,1,8,0:0:0:0:
256,192,115427,1,0,0:0:0:0:
256,192,115512,1,0,0:0:0:0:
256,192,115597,1,8,0:0:0:0:
256,192,115682,1,0,0:0:0:0:
256,192,115767,1,0,0:0:0:0:
256,192,115853,1,8,0:0:0:0:
256,192,116023,1,8,0:0:0:0:
256,192,116194,1,0,0:0:0:0:
256,192,116364,1,0,0:0:0:0:
256,192,116449,1,0,0:0:0:0:
256,192,116535,1,8,0:0:0:0:
256,192,116705,1,8,0:0:0:0:
256,192,116875,1,0,0:0:0:0:
256,192,116961,1,8,0:0:0:0:
256,192,117046,1,8,0:0:0:0:
256,192,117131,1,0,0:0:0:0:
256,192,117216,1,8,0:0:0:0:
256,192,117387,1,8,0:0:0:0:
256,192,117429,1,8,0:0:0:0:
256,192,117472,1,8,0:0:0:0:
256,192,117557,1,0,0:0:0:0:
256,192,117728,1,0,0:0:0:0:
256,192,117898,1,8,0:0:0:0:
256,192,118069,1,0,0:0:0:0:
256,192,118154,1,0,0:0:0:0:
256,192,118239,1,0,0:0:0:0:
256,192,118324,1,8,0:0:0:0:
256,192,118410,1,8,0:0:0:0:
256,192,118495,1,0,0:0:0:0:
256,192,118580,1,8,0:0:0:0:
256,192,118665,1,0,0:0:0:0:
256,192,118750,1,8,0:0:0:0:
256,192,118793,1,8,0:0:0:0:
256,192,118836,1,8,0:0:0:0:
256,192,118921,1,0,0:0:0:0:
256,192,119091,1,8,0:0:0:0:
256,192,119177,1,0,0:0:0:0:
256,192,119262,1,8,0:0:0:0:
256,192,119347,1,8,0:0:0:0:
256,192,119432,1,0,0:0:0:0:
256,192,119517,1,8,0:0:0:0:
256,192,119603,1,8,0:0:0:0:
256,192,119688,1,8,0:0:0:0:
256,192,119773,1,0,0:0:0:0:
256,192,119858,1,0,0:0:0:0:
256,192,119944,1,8,0:0:0:0:
256,192,120029,1,0,0:0:0:0:
256,192,120114,1,8,0:0:0:0:
256,192,120171,1,8,0:0:0:0:
256,192,120228,1,8,0:0:0:0:
256,192,120285,1,0,0:0:0:0:
256,192,120625,1,0,0:0:0:0:
256,192,120711,1,0,0:0:0:0:
256,192,120796,1,0,0:0:0:0:
256,192,120881,1,0,0:0:0:0:
256,192,120966,1,8,0:0:0:0:
256,192,121137,1,8,0:0:0:0:
256,192,121222,1,0,0:0:0:0:
256,192,121307,1,8,0:0:0:0:
256,192,121364,1,8,0:0:0:0:
256,192,121421,1,8,0:0:0:0:
256,192,121478,1,0,0:0:0:0:
256,192,121648,1,8,0:0:0:0:
256,192,121705,1,8,0:0:0:0:
256,192,121762,1,8,0:0:0:0:
256,192,121819,1,0,0:0:0:0:
256,192,121904,1,0,0:0:0:0:
256,192,121989,1,8,0:0:0:0:
256,192,122160,1,8,0:0:0:0:
256,192,122330,1,0,0:0:0:0:
256,192,122415,1,8,0:0:0:0:
256,192,122500,1,8,0:0:0:0:
256,192,122586,1,0,0:0:0:0:
256,192,122671,1,8,0:0:0:0:
256,192,122756,1,0,0:0:0:0:
256,192,122841,1,8,0:0:0:0:
256,192,122898,1,8,0:0:0:0:
256,192,122955,1,8,0:0:0:0:
256,192,123012,1,0,0:0:0:0:
256,192,123353,1,8,0:0:0:0:
256,192,123523,1,0,0:0:0:0:
256,192,123580,1,0,0:0:0:0:
256,192,123637,1,0,0:0:0:0:
256,192,123694,1,8,0:0:0:0:
256,192,123864,1,0,0:0:0:0:
256,192,123949,1,0,0:0:0:0:
256,192,124035,1,8,0:0:0:0:
256,192,124120,1,8,0:0:0:0:
256,192,124290,1,0,0:0:0:0:
256,192,124375,1,8,0:0:0:0:
256,192,124546,1,0,0:0:0:0:
256,192,124631,1,0,0:0:0:0:
256,192,124716,1,8,0:0:0:0:
256,192,124887,1,0,0:0:0:0:
256,192,124972,1,0,0:0:0:0:
256,192,125057,1,8,0:0:0:0:
256,192,125142,1,8,0:0:0:0:
256,192,125228,1,0,0:0:0:0:
256,192,125313,1,8,0:0:0:0:
256,192,125398,1,8,0:0:0:0:
256,192,125569,1,8,0:0:0:0:
256,192,125739,1,0,0:0:0:0:
256,192,125910,1,0,0:0:0:0:
256,192,125995,1,0,0:0:0:0:
256,192,126080,1,8,0:0:0:0:
256,192,126250,1,0,0:0:0:0:
256,192,126336,1,0,0:0:0:0:
256,192,126421,1,8,0:0:0:0:
256,192,126506,1,8,0:0:0:0:
256,192,126677,1,0,0:0:0:0:
256,192,126762,1,8,0:0:0:0:
256,192,126847,1,8,0:0:0:0:
256,192,126932,1,0,0:0:0:0:
256,192,127017,1,8,0:0:0:0:
256,192,127103,1,0,0:0:0:0:
256,192,127188,1,0,0:0:0:0:
256,192,127273,1,8,0:0:0:0:
256,192,127444,1,8,0:0:0:0:
256,192,127529,1,8,0:0:0:0:
256,192,127614,1,8,0:0:0:0:
256,192,127699,1,0,0:0:0:0:
256,192,127785,1,0,0:0:0:0:
256,192,127870,1,8,0:0:0:0:
256,192,128040,1,0,0:0:0:0:
256,192,128125,1,8,0:0:0:0:
256,192,128239,1,8,0:0:0:0:
256,192,128353,1,8,0:0:0:0:
256,192,128466,1,0,0:0:0:0:
256,192,128637,1,8,0:0:0:0:
256,192,128679,1,8,0:0:0:0:
256,192,128722,1,0,0:0:0:0:
256,192,128892,1,0,0:0:0:0:
256,192,128978,1,8,0:0:0:0:
256,192,129063,1,0,0:0:0:0:
256,192,129148,1,8,0:0:0:0:
256,192,129319,1,0,0:0:0:0:
256,192,129404,1,0,0:0:0:0:
256,192,129489,1,8,0:0:0:0:
256,192,129574,1,8,0:0:0:0:
256,192,129660,1,8,0:0:0:0:
256,192,129830,1,0,0:0:0:0:
256,192,130000,1,0,0:0:0:0:
256,192,130086,1,0,0:0:0:0:
256,192,130171,1,8,0:0:0:0:
256,192,130341,1,8,0:0:0:0:
256,192,130512,1,0,0:0:0:0:
256,192,130597,1,8,0:0:0:0:
256,192,130682,1,0,0:0:0:0:
256,192,130739,1,0,0:0:0:0:
256,192,130796,1,0,0:0:0:0:
256,192,130853,1,8,0:0:0:0:
256,192,130938,1,0,0:0:0:0:
256,192,131023,1,8,0:0:0:0:
256,192,131194,1,0,0:0:0:0:
256,192,131364,1,0,0:0:0:0:
256,192,131535,1,8,0:0:0:0:
256,192,131705,1,0,0:0:0:0:
256,192,131790,1,8,0:0:0:0:
256,192,131875,1,0,0:0:0:0:
256,192,131961,1,8,0:0:0:0:
256,192,132046,1,0,0:0:0:0:
256,192,132131,1,0,0:0:0:0:
256,192,132216,1,8,0:0:0:0:
256,192,132387,1,8,0:0:0:0:
256,192,132472,1,8,0:0:0:0:
256,192,132557,1,0,0:0:0:0:
256,192,132614,1,0,0:0:0:0:
256,192,132671,1,0,0:0:0:0:
256,192,132728,1,0,0:0:0:0:
256,192,132813,1,0,0:0:0:0:
256,192,132898,1,8,0:0:0:0:
256,192,133069,1,8,0:0:0:0:
256,192,133154,1,0,0:0:0:0:
256,192,133239,1,0,0:0:0:0:
256,192,133324,1,8,0:0:0:0:
256,192,133410,1,0,0:0:0:0:
256,192,133495,1,0,0:0:0:0:
256,192,133580,1,8,0:0:0:0:
256,192,133750,1,8,0:0:0:0:
256,192,133793,1,8,0:0:0:0:
256,192,133836,1,8,0:0:0:0:
256,192,133921,1,0,0:0:0:0:
256,192,134091,1,0,0:0:0:0:
256,192,134177,1,0,0:0:0:0:
256,192,134262,1,8,0:0:0:0:
256,192,134432,1,0,0:0:0:0:
256,192,134603,1,0,0:0:0:0:
256,192,134688,1,8,0:0:0:0:
256,192,134773,1,0,0:0:0:0:
256,192,134858,1,8,0:0:0:0:
256,192,134944,1,8,0:0:0:0:
256,192,135114,1,8,0:0:0:0:
256,192,135157,1,8,0:0:0:0:
256,192,135199,1,8,0:0:0:0:
256,192,135285,1,0,0:0:0:0:
256,192,135370,1,8,0:0:0:0:
256,192,135455,1,8,0:0:0:0:
256,192,135540,1,0,0:0:0:0:
256,192,135625,1,8,0:0:0:0:
256,192,135796,1,0,0:0:0:0:
256,192,135881,1,8,0:0:0:0:
256,192,135966,1,0,0:0:0:0:
256,192,136052,1,8,0:0:0:0:
256,192,136137,1,0,0:0:0:0:
256,192,136222,1,0,0:0:0:0:
256,192,136307,1,8,0:0:0:0:
256,192,136392,1,0,0:0:0:0:
256,192,136478,1,8,0:0:0:0:
256,192,136648,1,0,0:0:0:0:
256,192,136705,1,0,0:0:0:0:
256,192,136762,1,0,0:0:0:0:
256,192,136819,1,0,0:0:0:0:
256,192,136904,1,0,0:0:0:0:
256,192,136989,1,8,0:0:0:0:
256,192,137160,1,0,0:0:0:0:
256,192,137245,1,0,0:0:0:0:
256,192,137330,1,0,0:0:0:0:
256,192,137415,1,8,0:0:0:0:
256,192,137500,1,0,0:0:0:0:
256,192,137586,1,8,0:0:0:0:
256,192,137671,1,8,0:0:0:0:
256,192,137756,1,0,0:0:0:0:
256,192,137841,1,8,0:0:0:0:
256,192,138012,1,8,0:0:0:0:
256,192,138069,1,8,0:0:0:0:
256,192,138125,1,8,0:0:0:0:
256,192,138182,1,0,0:0:0:0:
256,192,138267,1,0,0:0:0:0:
256,192,138353,1,8,0:0:0:0:
256,192,138523,1,8,0:0:0:0:
256,192,138580,1,0,0:0:0:0:
256,192,138637,1,0,0:0:0:0:
256,192,138694,1,0,0:0:0:0:
256,192,138779,1,0,0:0:0:0:
256,192,138864,1,8,0:0:0:0:
256,192,138949,1,0,0:0:0:0:
256,192,139035,1,8,0:0:0:0:
256,192,139205,1,8,0:0:0:0:
256,192,139248,1,8,0:0:0:0:
256,192,139290,1,8,0:0:0:0:
256,192,139375,1,0,0:0:0:0:
256,192,139546,1,0,0:0:0:0:
256,192,139631,1,0,0:0:0:0:
256,192,139716,1,8,0:0:0:0:
256,192,139887,1,0,0:0:0:0:
256,192,139972,1,8,0:0:0:0:
256,192,140057,1,0,0:0:0:0:
256,192,140142,1,8,0:0:0:0:
256,192,140228,1,0,0:0:0:0:
256,192,140285,1,0,0:0:0:0:
256,192,140341,1,0,0:0:0:0:
256,192,140398,1,8,0:0:0:0:
256,192,140569,1,8,0:0:0:0:
256,192,140611,1,8,0:0:0:0:
256,192,140654,1,8,0:0:0:0:
256,192,140739,1,0,0:0:0:0:
256,192,140824,1,0,0:0:0:0:
256,192,140910,1,8,0:0:0:0:
256,192,140995,1,0,0:0:0:0:
256,192,141080,1,8,0:0:0:0:
256,192,141165,1,8,0:0:0:0:
256,192,141250,1,0,0:0:0:0:
256,192,141293,1,0,0:0:0:0:
256,192,141336,1,8,0:0:0:0:
256,192,141421,1,8,0:0:0:0:
256,192,141506,1,0,0:0:0:0:
256,192,141591,1,0,0:0:0:0:
256,192,141677,1,0,0:0:0:0:
256,192,141762,1,8,0:0:0:0:
256,192,141819,1,8,0:0:0:0:
256,192,141875,1,8,0:0:0:0:
256,192,141932,1,8,0:0:0:0:
256,192,141989,1,0,0:0:0:0:
256,192,142046,1,0,0:0:0:0:
256,192,142103,1,8,0:0:0:0:
256,192,142273,1,0,0:0:0:0:
256,192,142444,1,8,0:0:0:0:
256,192,142614,1,8,0:0:0:0:
256,192,142699,1,8,0:0:0:0:
256,192,142785,1,0,0:0:0:0:
256,192,142870,1,8,0:0:0:0:
256,192,142955,1,0,0:0:0:0:
256,192,143040,1,0,0:0:0:0:
256,192,143125,1,8,0:0:0:0:
256,192,143296,1,8,0:0:0:0:
256,192,143466,1,0,0:0:0:0:
256,192,143637,1,0,0:0:0:0:
256,192,143722,1,0,0:0:0:0:
256,192,143807,1,8,0:0:0:0:
256,192,143978,1,8,0:0:0:0:
256,192,144148,1,0,0:0:0:0:
256,192,144233,1,8,0:0:0:0:
256,192,144319,1,0,0:0:0:0:
256,192,144404,1,0,0:0:0:0:
256,192,144489,1,8,0:0:0:0:
256,192,144660,1,8,0:0:0:0:
256,192,144716,1,8,0:0:0:0:
256,192,144773,1,8,0:0:0:0:
256,192,144830,1,0,0:0:0:0:
256,192,145000,1,0,0:0:0:0:
256,192,145171,1,8,0:0:0:0:
256,192,145341,1,0,0:0:0:0:
256,192,145427,1,0,0:0:0:0:
256,192,145512,1,0,0:0:0:0:
256,192,145597,1,8,0:0:0:0:
256,192,145682,1,8,0:0:0:0:
256,192,145767,1,0,0:0:0:0:
256,192,145853,1,8,0:0:0:0:
256,192,145938,1,0,0:0:0:0:
256,192,146023,1,8,0:0:0:0:
256,192,146066,1,8,0:0:0:0:
256,192,146108,1,8,0:0:0:0:
256,192,146194,1,0,0:0:0:0:
256,192,146364,1,0,0:0:0:0:
256,192,146449,1,0,0:0:0:0:
256,192,146535,1,8,0:0:0:0:
256,192,146705,1,0,0:0:0:0:
256,192,146790,1,8,0:0:0:0:
256,192,146875,1,0,0:0:0:0:
256,192,146961,1,8,0:0:0:0:
256,192,147046,1,0,0:0:0:0:
256,192,147131,1,0,0:0:0:0:
256,192,147216,1,8,0:0:0:0:
256,192,147302,1,0,0:0:0:0:
256,192,147387,1,8,0:0:0:0:
256,192,147472,1,8,0:0:0:0:
256,192,147557,1,0,0:0:0:0:
256,192,147728,1,0,0:0:0:0:
256,192,147898,1,8,0:0:0:0:
256,192,148069,1,8,0:0:0:0:
256,192,148154,1,0,0:0:0:0:
256,192,148239,1,0,0:0:0:0:
256,192,148324,1,8,0:0:0:0:
256,192,148410,1,0,0:0:0:0:
256,192,148495,1,0,0:0:0:0:
256,192,148580,1,8,0:0:0:0:
256,192,148750,1,8,0:0:0:0:
256,192,148921,1,0,0:0:0:0:
256,192,149091,1,0,0:0:0:0:
256,192,149177,1,0,0:0:0:0:
256,192,149262,1,8,0:0:0:0:
256,192,149432,1,0,0:0:0:0:
256,192,149517,1,8,0:0:0:0:
256,192,149603,1,0,0:0:0:0:
256,192,149688,1,8,0:0:0:0:
256,192,149773,1,0,0:0:0:0:
256,192,149858,1,0,0:0:0:0:
256,192,149944,1,8,0:0:0:0:
256,192,150114,1,8,0:0:0:0:
256,192,150171,1,8,0:0:0:0:
256,192,150228,1,8,0:0:0:0:
256,192,150285,1,0,0:0:0:0:
256,192,150455,1,0,0:0:0:0:
256,192,150625,1,8,0:0:0:0:
256,192,150796,1,8,0:0:0:0:
256,192,150881,1,0,0:0:0:0:
256,192,150966,1,0,0:0:0:0:
256,192,151052,1,8,0:0:0:0:
256,192,151137,1,0,0:0:0:0:
256,192,151307,1,8,0:0:0:0:
256,192,151392,1,0,0:0:0:0:
256,192,151478,1,8,0:0:0:0:
256,192,151535,1,8,0:0:0:0:
256,192,151591,1,8,0:0:0:0:
256,192,151648,1,0,0:0:0:0:
256,192,151819,1,8,0:0:0:0:
256,192,151904,1,0,0:0:0:0:
256,192,151989,1,8,0:0:0:0:
256,192,152074,1,8,0:0:0:0:
256,192,152160,1,0,0:0:0:0:
256,192,152245,1,8,0:0:0:0:
256,192,152330,1,8,0:0:0:0:
256,192,152415,1,8,0:0:0:0:
256,192,152500,1,0,0:0:0:0:
256,192,152586,1,0,0:0:0:0:
256,192,152671,1,8,0:0:0:0:
256,192,152756,1,0,0:0:0:0:
256,192,152841,1,8,0:0:0:0:
256,192,152898,1,8,0:0:0:0:
256,192,152955,1,8,0:0:0:0:
256,192,153012,1,0,0:0:0:0:
256,192,153182,1,0,0:0:0:0:
256,192,153353,1,8,0:0:0:0:
256,192,153523,1,0,0:0:0:0:
256,192,153608,1,0,0:0:0:0:
256,192,153694,1,0,0:0:0:0:
256,192,153779,1,8,0:0:0:0:
256,192,153864,1,0,0:0:0:0:
256,192,153949,1,8,0:0:0:0:
256,192,154035,1,8,0:0:0:0:
256,192,154205,1,8,0:0:0:0:
256,192,154290,1,8,0:0:0:0:
256,192,154375,1,0,0:0:0:0:
256,192,154546,1,0,0:0:0:0:
256,192,154631,1,0,0:0:0:0:
256,192,154716,1,8,0:0:0:0:
256,192,154887,1,0,0:0:0:0:
256,192,154972,1,8,0:0:0:0:
256,192,155057,1,0,0:0:0:0:
256,192,155142,1,8,0:0:0:0:
256,192,155228,1,0,0:0:0:0:
256,192,155313,1,8,0:0:0:0:
256,192,155398,1,8,0:0:0:0:
256,192,155483,1,0,0:0:0:0:
256,192,155569,1,8,0:0:0:0:
256,192,155611,1,8,0:0:0:0:
256,192,155654,1,8,0:0:0:0:
256,192,155739,1,0,0:0:0:0:
256,192,155910,1,0,0:0:0:0:
256,192,156080,1,8,0:0:0:0:
256,192,156250,1,0,0:0:0:0:
256,192,156336,1,0,0:0:0:0:
256,192,156421,1,0,0:0:0:0:
256,192,156506,1,8,0:0:0:0:
256,192,156591,1,8,0:0:0:0:
256,192,156677,1,0,0:0:0:0:
256,192,156762,1,8,0:0:0:0:
256,192,156847,1,0,0:0:0:0:
256,192,156932,1,8,0:0:0:0:
256,192,156975,1,0,0:0:0:0:
256,192,157017,1,8,0:0:0:0:
256,192,157103,1,0,0:0:0:0:
256,192,157273,1,0,0:0:0:0:
256,192,157358,1,8,0:0:0:0:
256,192,157444,1,8,0:0:0:0:
256,192,157614,1,0,0:0:0:0:
256,192,157699,1,8,0:0:0:0:
256,192,157785,1,0,0:0:0:0:
256,192,157870,1,8,0:0:0:0:
256,192,157955,1,8,0:0:0:0:
256,192,158040,1,0,0:0:0:0:
256,192,158125,1,8,0:0:0:0:
256,192,158211,1,0,0:0:0:0:
256,192,158296,1,8,0:0:0:0:
256,192,158338,1,8,0:0:0:0:
256,192,158381,1,8,0:0:0:0:
256,192,158466,1,0,0:0:0:0:
256,192,158637,1,0,0:0:0:0:
256,192,158807,1,8,0:0:0:0:
256,192,158978,1,0,0:0:0:0:
256,192,159063,1,8,0:0:0:0:
256,192,159148,1,0,0:0:0:0:
256,192,159233,1,8,0:0:0:0:
256,192,159319,1,0,0:0:0:0:
256,192,159404,1,0,0:0:0:0:
256,192,159489,1,8,0:0:0:0:
256,192,159660,1,8,0:0:0:0:
256,192,159745,1,8,0:0:0:0:
256,192,159830,1,0,0:0:0:0:
256,192,160000,1,0,0:0:0:0:
256,192,160086,1,0,0:0:0:0:
256,192,160171,1,8,0:0:0:0:
256,192,160341,1,8,0:0:0:0:
256,192,160427,1,8,0:0:0:0:
256,192,160512,1,0,0:0:0:0:
256,192,160597,1,8,0:0:0:0:
256,192,160682,1,0,0:0:0:0:
256,192,160725,1,0,0:0:0:0:
256,192,160767,1,0,0:0:0:0:
256,192,160853,1,8,0:0:0:0:
256,192,160938,1,0,0:0:0:0:
256,192,161023,1,8,0:0:0:0:
256,192,161080,1,8,0:0:0:0:
256,192,161137,1,8,0:0:0:0:
256,192,161194,1,0,0:0:0:0:
256,192,161364,1,0,0:0:0:0:
256,192,161535,1,8,0:0:0:0:
256,192,161705,1,0,0:0:0:0:
256,192,161790,1,0,0:0:0:0:
256,192,161875,1,0,0:0:0:0:
256,192,161961,1,8,0:0:0:0:
256,192,162046,1,8,0:0:0:0:
256,192,162131,1,0,0:0:0:0:
256,192,162216,1,8,0:0:0:0:
256,192,162302,1,0,0:0:0:0:
256,192,162387,1,8,0:0:0:0:
256,192,162472,1,8,0:0:0:0:
256,192,162557,1,0,0:0:0:0:
256,192,162728,1,8,0:0:0:0:
256,192,162770,1,8,0:0:0:0:
256,192,162813,1,0,0:0:0:0:
256,192,162898,1,8,0:0:0:0:
256,192,162983,1,8,0:0:0:0:
256,192,163069,1,0,0:0:0:0:
256,192,163154,1,8,0:0:0:0:
256,192,163239,1,8,0:0:0:0:
256,192,163324,1,8,0:0:0:0:
256,192,163410,1,0,0:0:0:0:
256,192,163495,1,0,0:0:0:0:
256,192,163580,1,8,0:0:0:0:
256,192,163665,1,0,0:0:0:0:
256,192,163750,1,8,0:0:0:0:
256,192,163807,1,8,0:0:0:0:
256,192,163864,1,8,0:0:0:0:
256,192,163921,1,0,0:0:0:0:
256,192,164091,1,0,0:0:0:0:
256,192,164177,1,0,0:0:0:0:
256,192,164262,1,0,0:0:0:0:
256,192,164432,1,0,0:0:0:0:
256,192,164517,1,0,0:0:0:0:
256,192,164603,1,8,0:0:0:0:
256,192,164773,1,0,0:0:0:0:
256,192,164858,1,0,0:0:0:0:
256,192,164944,1,8,0:0:0:0:
256,192,165000,1,8,0:0:0:0:
256,192,165057,1,8,0:0:0:0:
256,192,165114,1,8,0:0:0:0:
256,192,165199,1,8,0:0:0:0:
256,192,165285,1,0,0:0:0:0:
256,192,165455,1,0,0:0:0:0:
256,192,165540,1,0,0:0:0:0:
256,192,165625,1,8,0:0:0:0:
256,192,165796,1,8,0:0:0:0:
256,192,165838,1,8,0:0:0:0:
256,192,165966,1,8,0:0:0:0:
256,192,166052,1,8,0:0:0:0:
256,192,166137,1,0,0:0:0:0:
256,192,166222,1,0,0:0:0:0:
256,192,166307,1,8,0:0:0:0:
256,192,166392,1,8,0:0:0:0:
256,192,166478,1,8,0:0:0:0:
256,192,166535,1,8,0:0:0:0:
256,192,166591,1,8,0:0:0:0:
256,192,166648,1,0,0:0:0:0:
256,192,166819,1,0,0:0:0:0:
256,192,166904,1,0,0:0:0:0:
256,192,166989,1,8,0:0:0:0:
256,192,167160,1,8,0:0:0:0:
256,192,167245,1,0,0:0:0:0:
256,192,167330,1,8,0:0:0:0:
256,192,167415,1,8,0:0:0:0:
256,192,167500,1,8,0:0:0:0:
256,192,167586,1,0,0:0:0:0:
256,192,167671,1,8,0:0:0:0:
256,192,167756,1,8,0:0:0:0:
256,192,167841,1,8,0:0:0:0:
256,192,167898,1,8,0:0:0:0:
256,192,167955,1,8,0:0:0:0:
256,192,168012,1,0,0:0:0:0:
256,192,168182,1,0,0:0:0:0:
256,192,168353,1,8,0:0:0:0:
256,192,168523,1,0,0:0:0:0:
256,192,168608,1,0,0:0:0:0:
256,192,168694,1,8,0:0:0:0:
256,192,168736,1,8,0:0:0:0:
256,192,168779,1,8,0:0:0:0:
256,192,168864,1,0,0:0:0:0:
256,192,168949,1,0,0:0:0:0:
256,192,169035,1,8,0:0:0:0:
256,192,169205,1,8,0:0:0:0:
256,192,169375,1,0,0:0:0:0:
256,192,169546,1,0,0:0:0:0:
256,192,169716,1,8,0:0:0:0:
256,192,169887,1,8,0:0:0:0:
256,192,169929,1,8,0:0:0:0:
256,192,169972,1,0,0:0:0:0:
256,192,170057,1,8,0:0:0:0:
256,192,170228,1,8,0:0:0:0:
256,192,170313,1,0,0:0:0:0:
256,192,170398,1,8,0:0:0:0:
256,192,170483,1,8,0:0:0:0:
256,192,170569,1,0,0:0:0:0:
256,192,170739,1,0,0:0:0:0:
256,192,170824,1,0,0:0:0:0:
256,192,170910,1,8,0:0:0:0:
256,192,171080,1,8,0:0:0:0:
256,192,171250,1,0,0:0:0:0:
256,192,171336,1,0,0:0:0:0:
256,192,171421,1,8,0:0:0:0:
256,192,171506,1,8,0:0:0:0:
256,192,171591,1,8,0:0:0:0:
256,192,171677,1,0,0:0:0:0:
256,192,171762,1,8,0:0:0:0:
256,192,171932,1,8,0:0:0:0:
256,192,172017,1,8,0:0:0:0:
256,192,172103,1,0,0:0:0:0:
256,192,172160,1,0,0:0:0:0:
256,192,172216,1,0,0:0:0:0:
256,192,172273,1,0,0:0:0:0:
256,192,172330,1,0,0:0:0:0:
256,192,172387,1,0,0:0:0:0:
256,192,172444,1,8,0:0:0:0:
256,192,172529,1,0,0:0:0:0:
256,192,172614,1,8,0:0:0:0:
256,192,172699,1,8,0:0:0:0:
256,192,172785,1,0,0:0:0:0:
256,192,172841,1,0,0:0:0:0:
256,192,172898,1,0,0:0:0:0:
256,192,172955,1,8,0:0:0:0:
256,192,173125,1,0,0:0:0:0:
256,192,173211,1,8,0:0:0:0:
256,192,173296,1,8,0:0:0:0:
256,192,173381,1,8,0:0:0:0:
256,192,173466,1,0,0:0:0:0:
256,192,173637,1,0,0:0:0:0:
256,192,173722,1,8,0:0:0:0:
256,192,173807,1,8,0:0:0:0:
256,192,173892,1,0,0:0:0:0:
256,192,173978,1,8,0:0:0:0:
256,192,174063,1,8,0:0:0:0:
256,192,174148,1,0,0:0:0:0:
256,192,174233,1,8,0:0:0:0:
256,192,174319,1,8,0:0:0:0:
256,192,174404,1,0,0:0:0:0:
256,192,174489,1,8,0:0:0:0:
256,192,174574,1,8,0:0:0:0:
256,192,174660,1,8,0:0:0:0:
256,192,174745,1,8,0:0:0:0:
256,192,174830,1,0,0:0:0:0:
256,192,175171,1,8,0:0:0:0:
256,192,175512,1,0,0:0:0:0:
256,192,175767,1,0,0:0:0:0:
256,192,175853,1,8,0:0:0:0:
256,192,176023,1,0,0:0:0:0:
256,192,176194,1,0,0:0:0:0:
256,192,176535,1,8,0:0:0:0:
256,192,176875,1,0,0:0:0:0:
256,192,177046,1,0,0:0:0:0:
256,192,177216,1,8,0:0:0:0:
256,192,177557,1,0,0:0:0:0:
256,192,177898,1,8,0:0:0:0:
256,192,178239,1,0,0:0:0:0:
256,192,178495,1,0,0:0:0:0:
256,192,178580,1,8,0:0:0:0:
256,192,178750,1,0,0:0:0:0:
256,192,178921,1,0,0:0:0:0:
256,192,179091,1,8,0:0:0:0:
256,192,179262,1,8,0:0:0:0:
256,192,179432,1,0,0:0:0:0:
256,192,179603,1,8,0:0:0:0:
256,192,179773,1,0,0:0:0:0:
256,192,179944,1,8,0:0:0:0:
256,192,180114,1,8,0:0:0:0:
256,192,180199,1,8,0:0:0:0:
256,192,180285,1,0,0:0:0:0:
256,192,180625,1,8,0:0:0:0:
256,192,180966,1,0,0:0:0:0:
256,192,181222,1,0,0:0:0:0:
256,192,181307,1,8,0:0:0:0:
256,192,181478,1,0,0:0:0:0:
256,192,181648,1,0,0:0:0:0:
256,192,181989,1,8,0:0:0:0:
256,192,182330,1,0,0:0:0:0:
256,192,182500,1,0,0:0:0:0:
256,192,182671,1,8,0:0:0:0:
256,192,182841,1,0,0:0:0:0:
256,192,182927,1,0,0:0:0:0:
256,192,183012,1,0,0:0:0:0:
256,192,183353,1,8,0:0:0:0:
256,192,183694,1,0,0:0:0:0:
256,192,183864,1,0,0:0:0:0:
256,192,183949,1,0,0:0:0:0:
256,192,184035,1,8,0:0:0:0:
256,192,184205,1,0,0:0:0:0:
256,192,184290,1,8,0:0:0:0:
256,192,184375,1,0,0:0:0:0:
256,192,184546,1,8,0:0:0:0:
256,192,184716,1,8,0:0:0:0:
256,192,184802,1,8,0:0:0:0:
256,192,184887,1,0,0:0:0:0:
256,192,185057,1,8,0:0:0:0:
256,192,185142,1,8,0:0:0:0:
256,192,185228,1,0,0:0:0:0:
256,192,185313,1,0,0:0:0:0:
256,192,185398,1,8,0:0:0:0:
256,192,185483,1,0,0:0:0:0:
256,192,185569,1,8,0:0:0:0:
256,192,185654,1,8,0:0:0:0:
256,192,185739,1,0,0:0:0:0:
256,192,185910,1,0,0:0:0:0:
256,192,186080,1,8,0:0:0:0:
256,192,186421,1,0,0:0:0:0:
256,192,186591,1,0,0:0:0:0:
256,192,186676,1,0,0:0:0:0:
256,192,186762,1,8,0:0:0:0:
256,192,186932,1,0,0:0:0:0:
256,192,187017,1,0,0:0:0:0:
256,192,187103,1,0,0:0:0:0:
256,192,187273,1,0,0:0:0:0:
256,192,187444,1,8,0:0:0:0:
256,192,187784,1,0,0:0:0:0:
256,192,187955,1,0,0:0:0:0:
256,192,188125,1,8,0:0:0:0:
256,192,188296,1,0,0:0:0:0:
256,192,188381,1,8,0:0:0:0:
256,192,188466,1,0,0:0:0:0:
256,192,188637,1,0,0:0:0:0:
256,192,188807,1,8,0:0:0:0:
256,192,189148,1,0,0:0:0:0:
256,192,189319,1,0,0:0:0:0:
256,192,189404,1,0,0:0:0:0:
256,192,189489,1,8,0:0:0:0:
256,192,189660,1,0,0:0:0:0:
256,192,189745,1,8,0:0:0:0:
256,192,189830,1,0,0:0:0:0:
256,192,190000,1,8,0:0:0:0:
256,192,190171,1,8,0:0:0:0:
256,192,190341,1,0,0:0:0:0:
256,192,190427,1,0,0:0:0:0:
256,192,190512,1,8,0:0:0:0:
256,192,190682,1,0,0:0:0:0:
256,192,190853,1,8,0:0:0:0:
256,192,190938,1,0,0:0:0:0:
256,192,191023,1,8,0:0:0:0:
256,192,191108,1,8,0:0:0:0:
256,192,191194,1,0,0:0:0:0:
256,192,191364,1,0,0:0:0:0:
256,192,191535,1,8,0:0:0:0:
256,192,191876,1,0,0:0:0:0:
256,192,192046,1,0,0:0:0:0:
256,192,192132,1,0,0:0:0:0:
256,192,192217,1,8,0:0:0:0:
256,192,192388,1,0,0:0:0:0:
256,192,192472,1,0,0:0:0:0:
256,192,192558,1,0,0:0:0:0:
256,192,192728,1,0,0:0:0:0:
256,192,192899,1,8,0:0:0:0:
256,192,193240,1,0,0:0:0:0:
256,192,193410,1,0,0:0:0:0:
256,192,193495,1,0,0:0:0:0:
256,192,193581,1,8,0:0:0:0:
256,192,193751,1,0,0:0:0:0:
256,192,193837,1,8,0:0:0:0:
256,192,193922,1,0,0:0:0:0:
256,192,194091,1,0,0:0:0:0:
256,192,194263,1,8,0:0:0:0:
256,192,194604,1,0,0:0:0:0:
256,192,194774,1,0,0:0:0:0:
256,192,194859,1,0,0:0:0:0:
256,192,194945,1,8,0:0:0:0:
256,192,195115,1,0,0:0:0:0:
256,192,195200,1,8,0:0:0:0:
256,192,195285,1,0,0:0:0:0:
256,192,195456,1,8,0:0:0:0:
256,192,195540,1,0,0:0:0:0:
256,192,195626,1,8,0:0:0:0:
256,192,195712,1,8,0:0:0:0:
256,192,195797,1,0,0:0:0:0:
256,192,195967,1,8,0:0:0:0:
256,192,196052,1,8,0:0:0:0:
256,192,196138,1,0,0:0:0:0:
256,192,196223,1,0,0:0:0:0:
256,192,196308,1,8,0:0:0:0:
256,192,196393,1,0,0:0:0:0:
256,192,196479,1,8,0:0:0:0:
256,192,196564,1,8,0:0:0:0:
256,192,196649,1,0,0:0:0:0:
256,192,196819,1,0,0:0:0:0:
256,192,196989,1,8,0:0:0:0:
256,192,197160,1,0,0:0:0:0:
256,192,197245,1,0,0:0:0:0:
256,192,197330,1,8,0:0:0:0:
256,192,197415,1,8,0:0:0:0:
256,192,197500,1,8,0:0:0:0:
256,192,197586,1,0,0:0:0:0:
256,192,197671,1,8,0:0:0:0:
256,192,197841,1,0,0:0:0:0:
256,192,197927,1,8,0:0:0:0:
256,192,197969,1,8,0:0:0:0:
256,192,198012,1,0,0:0:0:0:
256,192,198182,1,0,0:0:0:0:
256,192,198353,1,8,0:0:0:0:
256,192,198523,1,8,0:0:0:0:
256,192,198608,1,0,0:0:0:0:
256,192,198694,1,0,0:0:0:0:
256,192,198779,1,8,0:0:0:0:
256,192,198864,1,8,0:0:0:0:
256,192,198949,1,0,0:0:0:0:
256,192,199035,1,8,0:0:0:0:
256,192,199205,1,8,0:0:0:0:
256,192,199262,1,8,0:0:0:0:
256,192,199319,1,8,0:0:0:0:
256,192,199375,1,0,0:0:0:0:
256,192,199546,1,0,0:0:0:0:
256,192,199631,1,0,0:0:0:0:
256,192,199716,1,8,0:0:0:0:
256,192,199887,1,0,0:0:0:0:
256,192,199972,1,0,0:0:0:0:
256,192,200057,1,0,0:0:0:0:
256,192,200142,1,8,0:0:0:0:
256,192,200228,1,8,0:0:0:0:
256,192,200313,1,0,0:0:0:0:
256,192,200398,1,8,0:0:0:0:
256,192,200569,1,8,0:0:0:0:
256,192,200625,1,8,0:0:0:0:
256,192,200682,1,8,0:0:0:0:
256,192,200739,1,0,0:0:0:0:
256,192,200910,1,0,0:0:0:0:
256,192,200995,1,0,0:0:0:0:
256,192,201080,1,8,0:0:0:0:
256,192,201250,1,0,0:0:0:0:
256,192,201336,1,8,0:0:0:0:
256,192,201421,1,8,0:0:0:0:
256,192,201506,1,8,0:0:0:0:
256,192,201591,1,0,0:0:0:0:
256,192,201677,1,0,0:0:0:0:
256,192,201762,1,8,0:0:0:0:
256,192,201847,1,0,0:0:0:0:
256,192,201932,1,8,0:0:0:0:
256,192,201989,1,8,0:0:0:0:
256,192,202046,1,0,0:0:0:0:
256,192,202103,1,0,0:0:0:0:
256,192,202273,1,0,0:0:0:0:
256,192,202444,1,8,0:0:0:0:
256,192,202614,1,8,0:0:0:0:
256,192,202699,1,0,0:0:0:0:
256,192,202785,1,0,0:0:0:0:
256,192,202870,1,8,0:0:0:0:
256,192,202955,1,0,0:0:0:0:
256,192,203040,1,0,0:0:0:0:
256,192,203125,1,8,0:0:0:0:
256,192,203211,1,0,0:0:0:0:
256,192,203296,1,8,0:0:0:0:
256,192,203381,1,8,0:0:0:0:
256,192,203424,1,8,0:0:0:0:
256,192,203466,1,0,0:0:0:0:
256,192,203637,1,0,0:0:0:0:
256,192,203722,1,0,0:0:0:0:
256,192,203807,1,8,0:0:0:0:
256,192,203978,1,8,0:0:0:0:
256,192,204063,1,8,0:0:0:0:
256,192,204148,1,0,0:0:0:0:
256,192,204233,1,8,0:0:0:0:
256,192,204319,1,0,0:0:0:0:
256,192,204489,1,8,0:0:0:0:
256,192,204574,1,0,0:0:0:0:
256,192,204660,1,8,0:0:0:0:
256,192,204702,1,8,0:0:0:0:
256,192,204745,1,8,0:0:0:0:
256,192,204830,1,0,0:0:0:0:
256,192,205000,1,0,0:0:0:0:
256,192,205086,1,0,0:0:0:0:
256,192,205171,1,8,0:0:0:0:
256,192,205341,1,0,0:0:0:0:
256,192,205427,1,0,0:0:0:0:
256,192,205512,1,0,0:0:0:0:
256,192,205597,1,8,0:0:0:0:
256,192,205682,1,0,0:0:0:0:
256,192,205767,1,0,0:0:0:0:
256,192,205853,1,8,0:0:0:0:
256,192,205938,1,8,0:0:0:0:
256,192,206023,1,8,0:0:0:0:
256,192,206080,1,8,0:0:0:0:
256,192,206137,1,8,0:0:0:0:
256,192,206194,1,0,0:0:0:0:
256,192,206364,1,8,0:0:0:0:
256,192,206449,1,0,0:0:0:0:
256,192,206535,1,8,0:0:0:0:
256,192,206620,1,8,0:0:0:0:
256,192,206705,1,8,0:0:0:0:
256,192,206790,1,0,0:0:0:0:
256,192,206875,1,8,0:0:0:0:
256,192,206961,1,8,0:0:0:0:
256,192,207046,1,0,0:0:0:0:
256,192,207131,1,0,0:0:0:0:
256,192,207216,1,8,0:0:0:0:
256,192,207302,1,0,0:0:0:0:
256,192,207387,1,8,0:0:0:0:
256,192,207444,1,8,0:0:0:0:
256,192,207500,1,8,0:0:0:0:
256,192,207557,1,0,0:0:0:0:
256,192,207728,1,0,0:0:0:0:
256,192,207898,1,8,0:0:0:0:
256,192,208069,1,0,0:0:0:0:
256,192,208154,1,0,0:0:0:0:
256,192,208239,1,8,0:0:0:0:
256,192,208324,1,8,0:0:0:0:
256,192,208410,1,8,0:0:0:0:
256,192,208495,1,0,0:0:0:0:
256,192,208580,1,8,0:0:0:0:
256,192,208665,1,0,0:0:0:0:
256,192,208750,1,8,0:0:0:0:
256,192,208793,1,8,0:0:0:0:
256,192,208836,1,8,0:0:0:0:
256,192,208878,1,8,0:0:0:0:
256,192,208921,1,0,0:0:0:0:
256,192,209091,1,0,0:0:0:0:
256,192,209177,1,0,0:0:0:0:
256,192,209262,1,8,0:0:0:0:
256,192,209432,1,0,0:0:0:0:
256,192,209475,1,0,0:0:0:0:
256,192,209517,1,0,0:0:0:0:
256,192,209603,1,8,0:0:0:0:
256,192,209688,1,8,0:0:0:0:
256,192,209773,1,0,0:0:0:0:
256,192,209858,1,0,0:0:0:0:
256,192,209944,1,8,0:0:0:0:
256,192,210000,1,8,0:0:0:0:
256,192,210057,1,8,0:0:0:0:
256,192,210114,1,8,0:0:0:0:
256,192,210199,1,8,0:0:0:0:
256,192,210285,1,0,0:0:0:0:
256,192,210455,1,0,0:0:0:0:
256,192,210625,1,8,0:0:0:0:
256,192,210796,1,8,0:0:0:0:
256,192,210881,1,8,0:0:0:0:
256,192,210966,1,0,0:0:0:0:
256,192,211052,1,8,0:0:0:0:
256,192,211137,1,8,0:0:0:0:
256,192,211222,1,0,0:0:0:0:
256,192,211307,1,8,0:0:0:0:
256,192,211364,1,0,0:0:0:0:
256,192,211421,1,0,0:0:0:0:
256,192,211478,1,8,0:0:0:0:
256,192,211535,1,8,0:0:0:0:
256,192,211591,1,8,0:0:0:0:
256,192,211648,1,0,0:0:0:0:
256,192,211819,1,8,0:0:0:0:
256,192,211904,1,0,0:0:0:0:
256,192,211989,1,8,0:0:0:0:
256,192,212074,1,0,0:0:0:0:
256,192,212160,1,0,0:0:0:0:
256,192,212245,1,0,0:0:0:0:
256,192,212330,1,8,0:0:0:0:
256,192,212373,1,8,0:0:0:0:
256,192,212415,1,8,0:0:0:0:
256,192,212500,1,0,0:0:0:0:
256,192,212586,1,0,0:0:0:0:
256,192,212671,1,8,0:0:0:0:
256,192,212756,1,0,0:0:0:0:
256,192,212841,1,8,0:0:0:0:
256,192,212898,1,8,0:0:0:0:
256,192,212955,1,8,0:0:0:0:
256,192,213012,1,0,0:0:0:0:
256,192,213182,1,0,0:0:0:0:
256,192,213353,1,8,0:0:0:0:
256,192,213523,1,0,0:0:0:0:
256,192,213608,1,8,0:0:0:0:
256,192,213694,1,0,0:0:0:0:
256,192,213779,1,8,0:0:0:0:
256,192,213864,1,0,0:0:0:0:
256,192,213949,1,0,0:0:0:0:
256,192,214035,1,8,0:0:0:0:
256,192,214120,1,0,0:0:0:0:
256,192,214205,1,8,0:0:0:0:
256,192,214262,1,8,0:0:0:0:
256,192,214319,1,8,0:0:0:0:
256,192,214375,1,0,0:0:0:0:
256,192,214546,1,0,0:0:0:0:
256,192,214631,1,0,0:0:0:0:
256,192,214716,1,8,0:0:0:0:
256,192,214887,1,0,0:0:0:0:
256,192,214972,1,8,0:0:0:0:
256,192,215057,1,8,0:0:0:0:
256,192,215142,1,8,0:0:0:0:
256,192,215228,1,8,0:0:0:0:
256,192,215313,1,0,0:0:0:0:
256,192,215398,1,8,0:0:0:0:
256,192,215483,1,0,0:0:0:0:
256,192,215569,1,8,0:0:0:0:
256,192,215611,1,8,0:0:0:0:
256,192,215654,1,8,0:0:0:0:
256,192,215739,1,0,0:0:0:0:
256,192,215910,1,0,0:0:0:0:
256,192,216080,1,8,0:0:0:0:
256,192,216165,1,0,0:0:0:0:
256,192,216336,1,0,0:0:0:0:
256,192,216421,1,0,0:0:0:0:
256,192,216506,1,8,0:0:0:0:
256,192,216591,1,0,0:0:0:0:
256,192,216677,1,0,0:0:0:0:
256,192,216762,1,8,0:0:0:0:
256,192,216847,1,0,0:0:0:0:
256,192,216932,1,8,0:0:0:0:
256,192,216989,1,8,0:0:0:0:
256,192,217046,1,8,0:0:0:0:
256,192,217103,1,0,0:0:0:0:
256,192,217273,1,8,0:0:0:0:
256,192,217358,1,0,0:0:0:0:
256,192,217444,1,8,0:0:0:0:
256,192,217529,1,8,0:0:0:0:
256,192,217614,1,0,0:0:0:0:
256,192,217699,1,0,0:0:0:0:
256,192,217785,1,8,0:0:0:0:
256,192,217870,1,0,0:0:0:0:
256,192,217955,1,0,0:0:0:0:
256,192,218040,1,0,0:0:0:0:
256,192,218125,1,8,0:0:0:0:
256,192,218211,1,0,0:0:0:0:
256,192,218296,1,8,0:0:0:0:
256,192,218338,1,8,0:0:0:0:
256,192,218381,1,8,0:0:0:0:
256,192,218466,1,0,0:0:0:0:
256,192,218807,1,0,0:0:0:0:
256,192,219063,1,0,0:0:0:0:
256,192,219148,1,8,0:0:0:0:
256,192,219404,1,8,0:0:0:0:
256,192,219489,1,8,0:0:0:0:
256,192,219745,1,8,0:0:0:0:
256,192,219830,1,0,0:0:0:0:
256,192,220171,1,0,0:0:0:0:
256,192,220341,1,0,0:0:0:0:
256,192,220512,1,8,0:0:0:0:
256,192,220597,1,8,0:0:0:0:
256,192,220682,1,0,0:0:0:0:
256,192,220853,1,8,0:0:0:0:
256,192,221194,1,0,0:0:0:0:
256,192,221535,1,0,0:0:0:0:
256,192,221790,1,0,0:0:0:0:
256,192,221875,1,8,0:0:0:0:
256,192,222131,1,8,0:0:0:0:
256,192,222216,1,8,0:0:0:0:
256,192,222472,1,8,0:0:0:0:
256,192,222557,1,0,0:0:0:0:
256,192,222898,1,0,0:0:0:0:
256,192,223069,1,0,0:0:0:0:
256,192,223239,1,8,0:0:0:0:
256,192,223324,1,8,0:0:0:0:
256,192,223410,1,0,0:0:0:0:
256,192,223580,1,8,0:0:0:0:
256,192,223750,1,8,0:0:0:0:
256,192,223921,1,0,0:0:0:0:
256,192,224262,1,0,0:0:0:0:
256,192,224517,1,0,0:0:0:0:
256,192,224603,1,8,0:0:0:0:
256,192,224858,1,8,0:0:0:0:
256,192,224944,1,8,0:0:0:0:
256,192,225199,1,8,0:0:0:0:
256,192,225285,1,0,0:0:0:0:
256,192,225625,1,0,0:0:0:0:
256,192,225796,1,0,0:0:0:0:
256,192,225966,1,8,0:0:0:0:
256,192,226023,1,8,0:0:0:0:
256,192,226080,1,8,0:0:0:0:
256,192,226137,1,0,0:0:0:0:
256,192,226307,1,8,0:0:0:0:
256,192,226648,1,0,0:0:0:0:
256,192,226989,1,0,0:0:0:0:
256,192,227245,1,0,0:0:0:0:
256,192,227330,1,8,0:0:0:0:
256,192,227586,1,8,0:0:0:0:
256,192,227671,1,8,0:0:0:0:
256,192,227927,1,8,0:0:0:0:
256,192,228012,1,0,0:0:0:0:
256,192,228523,1,0,0:0:0:0:
256,192,228694,1,8,0:0:0:0:
256,192,228864,1,0,0:0:0:0:
256,192,229035,1,8,0:0:0:0:
256,192,229205,1,8,0:0:0:0:
256,192,229375,1,0,0:0:0:0:
256,192,229716,1,0,0:0:0:0:
256,192,229887,1,0,0:0:0:0:
256,192,230057,1,8,0:0:0:0:
256,192,230313,1,8,0:0:0:0:
256,192,230398,1,8,0:0:0:0:
256,192,230654,1,8,0:0:0:0:
256,192,230739,1,0,0:0:0:0:
256,192,230910,1,0,0:0:0:0:
256,192,231250,1,0,0:0:0:0:
256,192,231336,1,0,0:0:0:0:
256,192,231421,1,8,0:0:0:0:
256,192,231762,1,8,0:0:0:0:
256,192,232103,1,0,0:0:0:0:
256,192,232444,1,0,0:0:0:0:
256,192,232614,1,0,0:0:0:0:
256,192,232671,1,0,0:0:0:0:
256,192,232728,1,0,0:0:0:0:
256,192,232785,1,8,0:0:0:0:
256,192,233040,1,0,0:0:0:0:
256,192,233125,1,0,0:0:0:0:
256,192,233466,1,0,0:0:0:0:
256,192,233637,1,0,0:0:0:0:
256,192,233978,1,0,0:0:0:0:
256,192,234148,1,8,0:0:0:0:
256,192,234319,1,0,0:0:0:0:
256,192,234489,1,8,0:0:0:0:
256,192,234660,1,8,0:0:0:0:
256,192,234830,1,0,0:0:0:0:
256,192,235171,1,0,0:0:0:0:
256,192,235341,1,0,0:0:0:0:
256,192,235427,1,0,0:0:0:0:
256,192,235512,1,8,0:0:0:0:
256,192,235767,1,0,0:0:0:0:
256,192,235853,1,8,0:0:0:0:
256,192,235938,1,8,0:0:0:0:
256,192,236023,1,0,0:0:0:0:
256,192,236108,1,8,0:0:0:0:
256,192,236194,1,0,0:0:0:0:
256,192,236279,1,0,0:0:0:0:
256,192,236364,1,0,0:0:0:0:
256,192,236705,1,0,0:0:0:0:
256,192,236790,1,0,0:0:0:0:
256,192,236875,1,8,0:0:0:0:
256,192,237131,1,0,0:0:0:0:
256,192,237216,1,8,0:0:0:0:
256,192,237557,1,0,0:0:0:0:
256,192,237728,1,8,0:0:0:0:
256,192,237813,1,0,0:0:0:0:
256,192,237983,1,8,0:0:0:0:
256,192,238069,1,0,0:0:0:0:
256,192,238154,1,0,0:0:0:0:
256,192,238239,1,8,0:0:0:0:
256,192,238410,1,8,0:0:0:0:
256,192,238523,1,8,0:0:0:0:
256,192,238580,1,0,0:0:0:0:
256,192,238750,1,8,0:0:0:0:
256,192,238921,1,0,0:0:0:0:
256,192,239177,1,8,0:0:0:0:
256,192,239262,1,8,0:0:0:0:
256,192,239432,1,8,0:0:0:0:
256,192,239603,1,0,0:0:0:0:
256,192,239688,1,8,0:0:0:0:
256,192,239858,1,8,0:0:0:0:
256,192,239944,1,0,0:0:0:0:
256,192,240029,1,8,0:0:0:0:
256,192,240114,1,8,0:0:0:0:
256,192,240285,1,0,0:0:0:0:
256,192,240625,1,0,0:0:0:0:
256,192,240796,1,0,0:0:0:0:
256,192,240966,1,8,0:0:0:0:
256,192,241222,1,8,0:0:0:0:
256,192,241307,1,8,0:0:0:0:
256,192,241563,1,8,0:0:0:0:
256,192,241648,1,0,0:0:0:0:
256,192,241819,1,0,0:0:0:0:
256,192,242160,1,0,0:0:0:0:
256,192,242245,1,0,0:0:0:0:
256,192,242330,1,8,0:0:0:0:
256,192,242671,1,8,0:0:0:0:
256,192,243012,1,0,0:0:0:0:
256,192,243353,1,0,0:0:0:0:
256,192,243523,1,0,0:0:0:0:
256,192,243580,1,0,0:0:0:0:
256,192,243637,1,0,0:0:0:0:
256,192,243694,1,8,0:0:0:0:
256,192,244035,1,8,0:0:0:0:
256,192,244375,1,0,0:0:0:0:
256,192,244546,1,0,0:0:0:0:
256,192,244887,1,0,0:0:0:0:
256,192,244972,1,0,0:0:0:0:
256,192,245057,1,8,0:0:0:0:
256,192,245228,1,0,0:0:0:0:
256,192,245398,1,8,0:0:0:0:
256,192,245569,1,8,0:0:0:0:
256,192,245739,1,0,0:0:0:0:
256,192,246080,1,0,0:0:0:0:
256,192,246250,1,0,0:0:0:0:
256,192,246336,1,0,0:0:0:0:
256,192,246421,1,8,0:0:0:0:
256,192,246677,1,8,0:0:0:0:
256,192,246762,1,0,0:0:0:0:
256,192,246847,1,0,0:0:0:0:
256,192,246932,1,8,0:0:0:0:
256,192,246989,1,0,0:0:0:0:
256,192,247046,1,0,0:0:0:0:
256,192,247103,1,0,0:0:0:0:
256,192,247188,1,0,0:0:0:0:
256,192,247273,1,0,0:0:0:0:
256,192,247529,1,8,0:0:0:0:
256,192,247614,1,0,0:0:0:0:
256,192,247785,1,8,0:0:0:0:
256,192,248040,1,8,0:0:0:0:
256,192,248125,1,8,0:0:0:0:
256,192,248296,1,8,0:0:0:0:
256,192,248466,1,0,0:0:0:0:
256,192,248637,1,8,0:0:0:0:
256,192,248722,1,0,0:0:0:0:
256,192,248892,1,8,0:0:0:0:
256,192,248978,1,0,0:0:0:0:
256,192,249063,1,0,0:0:0:0:
256,192,249148,1,8,0:0:0:0:
256,192,249319,1,8,0:0:0:0:
256,192,249432,1,8,0:0:0:0:
256,192,249489,1,0,0:0:0:0:
256,192,249660,1,8,0:0:0:0:
256,192,249830,1,0,0:0:0:0:
256,192,250000,1,0,0:0:0:0:
256,192,250086,1,8,0:0:0:0:
256,192,250171,1,8,0:0:0:0:
256,192,250341,1,8,0:0:0:0:
256,192,250512,1,8,0:0:0:0:
256,192,250597,1,8,0:0:0:0:
256,192,250767,1,8,0:0:0:0:
256,192,250853,1,8,0:0:0:0:
256,192,250938,1,0,0:0:0:0:
256,192,251023,1,8,0:0:0:0:
256,192,251108,1,8,0:0:0:0:
256,192,251194,1,0,0:0:0:0:
