osu file format v14

[General]
AudioFilename: 05 - Three Hundred CC.mp3
AudioLeadIn: 0
PreviewTime: 151098
Countdown: 0
SampleSet: Soft
StackLeniency: 1
Mode: 0
LetterboxInBreaks: 0
WidescreenStoryboard: 1

[Editor]
Bookmarks: 13714,27428,41142,54857,68571,82285,96000,109714,123428,137142,150857,164571,177928,178151,178285,183454,184258,185008,192000,205714,219428,233142,246857
DistanceSpacing: 0.8
BeatDivisor: 12
GridSize: 16
TimelineZoom: 8

[Metadata]
Title:Three Hundred CC
TitleUnicode:Three Hundred CC
Artist:The Flashbulb
ArtistUnicode:The Flashbulb
Creator:TyTy
Version:slider velocity
Source:
Tags:
BeatmapID:1303943
BeatmapSetID:618599

[Difficulty]
HPDrainRate:1
CircleSize:3
OverallDifficulty:6.1
ApproachRate:10
SliderMultiplier:2.29999990463257
SliderTickRate:1

[Events]
//Background and Video events
0,0,"ss+(2016-06-22+at+01.35.58).jpg",0,0
//Break Periods
//Storyboard Layer 0 (Background)
//Storyboard Layer 1 (Fail)
//Storyboard Layer 2 (Pass)
//Storyboard Layer 3 (Foreground)
//Storyboard Sound Samples

[TimingPoints]
0,107.142857142857,6,2,1,27,1,0
178928,-66.6666666666667,6,2,1,25,0,0
184258,-50,6,2,1,35,0,0

[Colours]
Combo1 : 255,0,128
Combo2 : 255,255,0
Combo3 : 0,255,0
Combo4 : 0,0,255

[HitObjects]
256,188,164624,5,2,0:1:0:0:
256,188,164678,2,2,B|256:80|256:80|39:80,1,229.999990463257,2|2,0:1|0:1,0:1:0:0:
32,56,164839,1,2,0:1:0:0:
32,56,164892,1,2,0:1:0:0:
32,56,164946,1,2,0:1:0:0:
32,56,164999,2,2,L|120:129,1,114.999995231629,2|2,0:1|0:1,0:1:0:0:
128,160,165107,2,2,L|216:233,1,114.999995231629,2|2,0:1|0:1,0:1:0:0:
224,264,165214,2,2,L|312:337,1,114.999995231629,2|2,0:1|0:1,0:1:0:0:
216,176,165428,5,2,0:1:0:0:
224,328,165642,1,2,0:1:0:0:
320,216,165857,1,2,0:1:0:0:
88,248,165964,2,2,P|152:184|120:88,1,172.499992847443,2|2,0:1|0:1,0:1:0:0:
96,96,166178,5,2,0:1:0:0:
192,192,166249,1,2,0:1:0:0:
320,288,166320,1,2,0:1:0:0:
480,336,166392,6,2,P|456:338|366:256,1,153.333326975505,2|2,0:1|0:1,0:1:0:0:
512,168,166499,2,2,P|499:241|436:281,1,153.333326975505,2|2,0:1|0:1,0:1:0:0:
224,184,166607,6,2,P|225:160|324:87,1,153.333326975505,2|2,0:1|0:1,0:1:0:0:
64,192,166821,1,2,0:1:0:0:
408,160,166928,2,2,B|255:164|255:164|258:28|258:28|196:28|196:28,1,344.999985694885,2|2,0:1|0:1,0:1:0:0:
240,100,167142,6,2,B|370:100|370:100|284:155|284:155|370:187|370:187|240:187|240:187|240:165,1,459.999980926514,2|2,0:1|0:1,0:1:0:0:
224,160,167410,2,2,L|88:158,1,114.999995231628,2|2,0:1|0:1,0:1:0:0:
120,240,167517,6,2,L|-2:143,1,153.333326975505,2|2,0:1|0:1,0:1:0:0:
48,48,167624,2,2,B|80:32|80:32|152:128,1,153.333326975505,2|2,0:1|0:1,0:1:0:0:
192,208,167785,5,2,0:1:0:0:
232,296,167892,1,2,0:1:0:0:
128,160,168013,6,2,B|128:51|128:51|194:136|194:136|263:51|263:51|263:160|263:160,1,431.249982118607,2|2,0:1|0:1,0:1:0:0:
231,193,168321,2,2,L|231:321,1,114.999995231628,2|2,0:1|0:1,0:1:0:0:
304,216,168428,2,2,L|304:101,1,114.999995231628,2|2,0:1|0:1,0:1:0:0:
368,161,168571,2,2,L|371:46,2,114.999995231629,2|2|2,0:1|0:1|0:1,0:1:0:0:
464,212,168749,1,2,0:1:0:0:
464,212,168892,6,2,B|368:276|368:276|368:212|368:148|368:148,1,229.999990463257,2|2,0:1|0:1,0:1:0:0:
448,128,169071,2,2,B|448:224|448:224|288:222|288:222|288:96,1,344.999985694885,2|2,0:1|0:1,0:1:0:0:
192,0,169285,2,2,B|188:72|188:72|224:64|224:64|224:192|224:192,1,229.999990463257,2|2,0:1|0:1,0:1:0:0:
288,32,169499,1,2,0:1:0:0:
384,96,169714,2,2,L|512:96,1,114.999995231628,2|2,0:1|0:1,0:1:0:0:
384,160,169821,2,2,B|192:160|192:160|192:0,1,344.999985694885,2|2,0:1|0:1,0:1:0:0:
256,32,170035,2,2,L|352:96,1,114.999995231628,2|2,0:1|0:1,0:1:0:0:
448,160,170142,2,2,B|448:224|448:224|320:224|320:224|320:352|320:352|480:352|480:352|480:256|480:256,1,459.999980926514,2|2,0:1|0:1,0:1:0:0:
280,376,170571,5,2,0:1:0:0:
264,304,170642,1,2,0:1:0:0:
208,288,170714,1,2,0:1:0:0:
80,272,170785,1,2,0:1:0:0:
144,312,170857,1,2,0:1:0:0:
88,208,170928,1,2,0:1:0:0:
144,192,170999,6,2,B|144:64|144:64|278:64|278:64|278:140|278:140|380:141|380:141|381:64|380:63|380:63|380:141|380:141|508:140,1,689.999971389771,2|2,0:1|0:1,0:1:0:0:
238,99,171428,1,2,0:1:0:0:
416,192,171535,6,2,L|320:256,1,114.999995231628,2|2,0:1|0:1,0:1:0:0:
416,192,171642,2,2,P|378:234|320:256,1,114.999995231628,2|2,0:1|0:1,0:1:0:0:
128,192,171749,2,2,P|166:147|224:128,1,114.999995231628,2|2,0:1|0:1,0:1:0:0:
192,256,171857,2,2,P|155:292|96:320,1,114.999995231628,2|2,0:1|0:1,0:1:0:0:
328,152,171964,6,2,B|351:87|351:87|232:48,1,153.333326975505,2|2,0:1|0:1,0:1:0:0:
240,144,172071,6,2,B|260:195|260:195|308:281,1,153.333326975505,2|2,0:1|0:1,0:1:0:0:
16,128,172178,2,2,L|160:64,1,153.333326975505,2|2,0:1|0:1,0:1:0:0:
400,160,172285,2,2,P|312:200|264:240,1,153.333326975505,2|2,0:1|0:1,0:1:0:0:
240,304,172392,6,2,P|201:227|216:203,1,114.999995231628,2|2,0:1|0:1,0:1:0:0:
256,224,172499,2,2,P|299:187|306:132,1,114.999995231629,2|2,0:1|0:1,0:1:0:0:
288,112,172607,2,2,P|319:63|373:49,1,114.999995231628,2|2,0:1|0:1,0:1:0:0:
384,48,172714,2,2,B|369:166|287:57|224:44|288:108|308:213|275:259|230:249|207:234|197:231|235:119|209:82|155:149|83:144|147:259|221:403|130:356|101:338|73:198|-32:204|132:434|23:369,1,574.999976158142,2|2,0:1|0:1,0:1:0:0:
96,352,173035,5,2,0:1:0:0:
96,352,173089,1,2,0:1:0:0:
86,353,173142,2,2,B|320:352|320:352|64:354,1,459.999980926514,2|2,0:1|0:1,0:1:0:0:
384,352,173410,1,2,0:1:0:0:
256,196,173464,5,2,0:1:0:0:
272,208,173571,2,2,B|272:316|272:316|489:316,1,229.999990463257,2|2,0:1|0:1,0:1:0:0:
464,272,173732,1,2,0:1:0:0:
464,272,173785,1,2,0:1:0:0:
464,272,173839,1,2,0:1:0:0:
464,272,173892,2,2,L|376:199,1,114.999995231629,2|2,0:1|0:1,0:1:0:0:
384,208,174000,2,2,L|296:135,1,114.999995231629,2|2,0:1|0:1,0:1:0:0:
288,144,174107,2,2,L|200:71,1,114.999995231629,2|2,0:1|0:1,0:1:0:0:
0,232,174214,5,2,0:1:0:0:
256,16,174428,1,2,0:1:0:0:
0,0,174642,1,2,0:1:0:0:
512,368,174857,2,2,P|521:285|400:336,1,229.999990463257,2|2,0:1|0:1,0:1:0:0:
416,288,175071,5,2,0:1:0:0:
276,252,175142,1,2,0:1:0:0:
152,220,175213,1,2,0:1:0:0:
72,152,175285,6,2,P|145:137|185:74,1,153.333326975505,2|2,0:1|0:1,0:1:0:0:
72,152,175392,2,2,P|85:79|148:39,1,153.333326975505,2|2,0:1|0:1,0:1:0:0:
192,160,175607,2,2,P|262:187|290:256,1,153.333326975505,2|2,0:1|0:1,0:1:0:0:
206,199,175714,6,2,P|140:163|70:188,1,153.333326975505,2|2,0:1|0:1,0:1:0:0:
108,192,175821,2,2,B|261:188|261:188|258:324|258:324|320:324|320:324,1,344.999985694885,2|2,0:1|0:1,0:1:0:0:
400,240,176142,1,2,0:1:0:0:
160,204,176303,2,2,L|296:206,1,114.999995231628,2|2,0:1|0:1,0:1:0:0:
416,224,176517,2,2,B|320:224|320:224|430:56,1,287.499988079071,2|2,0:1|0:1,0:1:0:0:
416,96,176678,1,2,0:1:0:0:
384,148,176785,1,2,0:1:0:0:
384,224,176906,6,2,B|384:333|384:333|318:248|318:248|249:333|249:333|249:224|249:224,1,431.249982118607,2|2,0:1|0:1,0:1:0:0:
300,164,177160,6,2,B|332:68|332:68|268:68,1,158.124993443489,2|2,0:1|0:1,0:1:0:0:
272,144,177285,2,2,B|208:204|208:204|272:259,1,153.333326975505,2|2,0:1|0:1,0:1:0:0:
304,320,177392,1,2,0:1:0:0:
224,352,177482,1,2,0:1:0:0:
144,384,177589,1,2,0:1:0:0:
255,233,177696,5,2,0:1:0:0:
72,284,177749,2,2,B|123:105|123:105|123:169|123:233|123:233,1,287.499988079071,2|2,0:1|0:1,0:1:0:0:
140,280,177910,2,2,B|314:275|314:275|256:200|256:200|244:324,1,388.124983906746,2|2,0:1|0:1,0:1:0:0:
256,192,178151,1,2,0:1:0:0:
328,213,178204,6,2,P|192:172|320:233,1,416.874982714653,2|2,0:1|0:1,0:1:0:0:
292,160,178446,6,2,P|222:217|300:171,23,258.749989271164,2|2|2|2|2|2|2|2|2|2|2|2|2|2|2|2|2|2|2|2|2|2|2|2,0:1|0:1|0:1|0:1|0:1|0:1|0:1|0:1|0:1|0:1|0:1|0:1|0:1|0:1|0:1|0:1|0:1|0:1|0:1|0:1|0:1|0:1|0:1|0:1,0:1:0:0:
256,192,178464,12,0,181428,0:0:0:0:
404,104,181339,6,12,B|428:117|456:88|456:88|460:68|392:64|308:52|348:92|352:28|337:-10|337:-10|328:-86|328:-86|384:-28|392:24|460:52|492:56|492:44|440:36|492:-16|496:40|512:56|468:12|468:12|444:-16|444:-16|491:-21|564:24|564:24|552:44|485:121|484:126|496:140|484:164|460:171|468:216|468:216|488:236|544:212|584:168|584:148|577:114|577:114|520:136|520:136|584:236|584:236|608:228|428:236|432:276|420:296|412:296|393:289|482:300|482:300|508:340|508:340|576:360|590:360|616:328|626:323|564:332|564:332|588:328|588:328|620:296|620:292|360:228|324:220|358:192|352:188|352:180|396:140|404:132|420:100|420:208|436:172|436:172|436:168|440:156|444:148|384:224|372:284|372:284|368:296|372:324|420:346|420:346|464:344|454:352|468:356|474:355|520:344|404:352|376:364|324:332|324:332|313:312|304:336|300:356|272:300|272:300|312:280|312:280|344:268|320:228|284:168|276:168|276:168|316:155|346:154|364:148|352:112|352:112|332:92|344:56|340:40|332:28|320:100|312:100|308:108|313:116|300:105|260:72|293:46|308:28|317:16|304:-32|276:-20|276:-20|216:8|204:-4|264:-24|248:-24|240:-12|241:-1|232:-16|215:-58|215:-58|252:-32|196:-28|176:-16|176:-16|224:60|244:52|240:108|232:0|268:28|236:28|238:97|238:97|242:113|268:116|268:116|184:32|96:28|96:28|125:-8|132:-8|180:-16|180:-16|92:20|52:4|68:4|60:-12|11:-38|-49:-38|31:-54|107:-62|107:-62|88:32|88:32|67:70|47:62|140:60|140:48|52:24|12:20|-4:8|28:12|28:12|32:12|32:12|156:100|196:128|184:120|248:176|252:188|256:196|252:196|248:204|196:236|184:232|168:264|140:188|112:204|112:236|116:248|120:252|132:244|45:146|40:140|36:164|24:156|20:184|20:192|20:192|7:230|11:290|8:297|12:316|28:304|49:345|80:344|80:344|100:368|136:364|148:360|168:364|168:364|184:364|200:364|140:360|140:352|76:360|44:352|9:356|-24:364|-24:364|-40:372|-12:316|-28:284|-12:300|-44:328|-64:344|-68:360|-48:364|-60:312|-68:244|-48:264|-1:214|-28:216|-60:156|-60:156|-66:143|-69:125|-80:88|-84:60|-88:28|-80:4|-78:-10|-80:-17|-60:32|13:144|28:140|31:120|12:124|-20:152|-20:164|-36:116|-56:76|-56:76|-21:2|-21:2|16:72|76:128|76:144|136:160|156:164|160:176|176:176|176:176|140:180|140:188|62:215|68:228|76:268|76:268|104:264|104:264|100:283|93:296|84:316|156:312|196:344|236:364|244:364|260:364|236:348|272:364|304:364|264:355|228:292|228:292|188:280|176:268|156:260|156:260|148:276|172:276|232:228|256:228|256:228|268:216|272:248|272:248|252:252|252:252|244:260|268:236|268:236|268:244|284:220|308:212|264:220|240:216,1,7244.99997596741
256,192,181821,12,0,181892,0:0:0:0:
64,156,183749,5,0,0:0:0:0:
64,156,183857,1,0,0:0:0:0:
64,156,183964,1,0,0:0:0:0:
64,156,184071,1,0,0:0:0:0:
136,200,184178,2,12,L|392:184,1,172.499999427796
512,296,184392,1,0,0:0:0:0:
192,48,184499,1,0,0:0:0:0:
0,192,184607,1,0,0:0:0:0:
456,40,184714,1,0,0:0:0:0:
336,304,184821,1,0,0:0:0:0:
240,192,184928,5,12,0:2:0:0:
208,144,184982,1,0,0:0:0:0:
160,80,185036,1,0,0:0:0:0:
128,160,185089,1,12,0:0:0:0:
192,112,185143,1,0,0:0:0:0:
256,80,185196,1,12,0:0:0:0:
