osu file format v14

[General]
AudioFilename: 05 - Three Hundred CC.mp3
AudioLeadIn: 0
PreviewTime: 164571
Countdown: 0
SampleSet: None
StackLeniency: 1
Mode: 0
LetterboxInBreaks: 0
WidescreenStoryboard: 1

[Editor]
Bookmarks: 13714,27428,41142,54857,68571,82285,96000,109714,123428,137142,150857,164571,177928,178151,178285,183454,184258,185008,192000,205714,219428,233142,246857
DistanceSpacing: 0.8
BeatDivisor: 16
GridSize: 16
TimelineZoom: 8

[Metadata]
Title:Three Hundred CC
TitleUnicode:Three Hundred CC
Artist:The Flashbulb
ArtistUnicode:The Flashbulb
Creator:TyTy
Version:ez
Source:
Tags:
BeatmapID:1303942
BeatmapSetID:618599

[Difficulty]
HPDrainRate:1
CircleSize:3
OverallDifficulty:6.1
ApproachRate:10
SliderMultiplier:1.39999990463257
SliderTickRate:1

[Events]
//Background and Video events
0,0,"ss+(2016-06-22+at+01.35.58).jpg",0,0
//Break Periods
//Storyboard Layer 0 (Background)
//Storyboard Layer 1 (Fail)
//Storyboard Layer 2 (Pass)
//Storyboard Layer 3 (Foreground)
//Storyboard Sound Samples

[TimingPoints]
0,214.285714285714,6,2,1,27,1,0
166044,-66.6666666666667,6,2,1,27,0,0
178928,-66.6666666666667,6,2,1,25,0,0
184258,-50,6,2,1,35,0,0

[Colours]
Combo1 : 255,0,128
Combo2 : 255,255,0
Combo3 : 0,255,0
Combo4 : 0,0,255

[HitObjects]
132,248,164571,5,0,0:0:0:0:
300,147,164678,1,0,0:0:0:0:
256,304,164785,1,0,0:0:0:0:
200,214,164892,1,0,0:0:0:0:
352,288,164999,2,0,L|442:226,1,104.999992847443
384,80,165214,1,0,0:0:0:0:
240,80,165267,2,0,L|148:139,1,104.999992847443
99,248,165535,1,0,0:0:0:0:
289,259,165642,1,0,0:0:0:0:
99,124,165749,1,0,0:0:0:0:
155,304,165857,1,0,0:0:0:0:
304,112,165964,1,0,0:0:0:0:
244,214,166285,2,0,B|289:214|289:214|323:192,3,78.749997639656
132,113,166714,1,0,0:0:0:0:
345,79,166821,1,0,0:0:0:0:
87,236,166928,1,0,0:0:0:0:
244,136,167035,1,0,0:0:0:0:
166,225,167142,6,0,L|222:270,1,65.6249980330467
345,203,167249,2,0,L|289:158,1,65.6249980330467
166,225,167357,6,0,L|222:270,1,65.6249980330467
32,16,167571,6,0,B|34:13|23:25,1,13.1249996066093,12|12,0:0|0:0,0:0:0:0:
177,169,167785,5,0,0:0:0:0:
267,214,167892,1,0,0:0:0:0:
368,259,167999,1,0,0:0:0:0:
288,144,168107,2,0,L|208:64,1,104.999996852875
176,224,168321,2,0,L|256:292,1,104.999996852875
368,64,168535,2,0,L|288:144,1,104.999996852875
128,256,168749,2,0,L|48:176,1,104.999996852875
368,64,168963,2,0,L|400:176,1,104.999996852875
482,365,169285,6,12,L|464:384,1,26.2499992132187
211,192,169499,5,0,0:0:0:0:
278,270,169607,2,0,L|323:270,1,39.374998819828
390,124,169714,1,0,0:0:0:0:
99,180,169821,2,0,L|76:214,1,39.374998819828
166,124,169928,1,0,0:0:0:0:
208,272,170035,1,0,0:0:0:0:
288,80,170142,1,0,0:0:0:0:
368,112,170249,1,0,0:0:0:0:
144,288,170356,1,0,0:0:0:0:
192,224,170571,5,0,0:0:0:0:
320,32,170651,1,0,0:0:0:0:
240,288,170732,1,0,0:0:0:0:
240,32,170812,1,0,0:0:0:0:
144,160,170892,1,0,0:0:0:0:
400,32,170999,6,12,L|423:43,1,13.1249996066093
79,272,171428,1,0,0:0:0:0:
319,128,171535,1,0,0:0:0:0:
256,352,171642,1,0,0:0:0:0:
175,223,171749,1,0,0:0:0:0:
447,303,171856,2,0,P|512:255|496:240,1,131.249996066093
399,64,172071,1,0,0:0:0:0:
224,64,172124,2,0,L|175:79,2,39.374998819828
31,272,172392,1,0,0:0:0:0:
303,288,172499,1,0,0:0:0:0:
31,95,172606,1,0,0:0:0:0:
111,352,172714,1,0,0:0:0:0:
239,223,173142,2,0,B|303:223|303:223|352:192,3,118.124996459484
79,79,173571,1,0,0:0:0:0:
384,31,173678,1,0,0:0:0:0:
15,255,173785,1,0,0:0:0:0:
239,112,173892,1,0,0:0:0:0:
128,240,173999,6,0,L|207:303,1,91.8749972462653
384,208,174214,2,0,L|303:143,1,91.8749972462653
464,368,174428,2,0,P|480:351|480:351,1,13.1249996066093,12|12,0:0|0:0,0:0:0:0:
143,160,174642,5,0,0:0:0:0:
271,223,174749,1,0,0:0:0:0:
416,288,174856,1,0,0:0:0:0:
336,128,174964,2,0,L|256:47,1,104.999996852875
169,249,175178,2,0,L|256:335,1,118.124996459484
336,95,175392,2,0,L|271:160,1,78.749997639656
79,272,175606,2,0,L|5:197,1,104.999996852875
341,85,175820,2,0,L|416:160,1,104.999996852875
464,368,176142,6,12,L|496:337,1,39.374998819828
191,192,176356,5,0,0:0:0:0:
288,303,176464,2,0,L|352:303,1,52.4999984264373
447,95,176571,1,0,0:0:0:0:
32,256,176678,2,0,L|60:211,1,52.4999984264373
128,95,176785,1,0,0:0:0:0:
191,288,176892,1,0,0:0:0:0:
239,95,176999,1,0,0:0:0:0:
352,288,177106,1,0,0:0:0:0:
352,95,177213,1,0,0:0:0:0:
128,96,177428,1,0,0:0:0:0:
176,304,177508,1,0,0:0:0:0:
256,64,177589,1,0,0:0:0:0:
400,32,177669,1,0,0:0:0:0:
368,272,177749,1,0,0:0:0:0:
496,352,177856,6,12,L|464:367,1,26.2499992132187
