osu file format v14

[General]
AudioFilename: audio.mp3
AudioLeadIn: 0
PreviewTime: 105636
Countdown: 0
SampleSet: Normal
StackLeniency: 0.7
Mode: 1
LetterboxInBreaks: 0
WidescreenStoryboard: 1

[Editor]
Bookmarks: 21240,42339,63438,84537,203218
DistanceSpacing: 0.8
BeatDivisor: 3
GridSize: 8
TimelineZoom: 2.599999

[Metadata]
Title:The Bridgeport Run
TitleUnicode:The Bridgeport Run
Artist:The Flashbulb
ArtistUnicode:The Flashbulb
Creator:Faputa
Version:Muzukashii
Source:
Tags:benn jordan idm intelligent dance music osu! Featured Artist FA Mappers' Guild MG Hardscrabble Breakcore Electronic Instrumental
BeatmapID:3304122
BeatmapSetID:1215016

[Difficulty]
HPDrainRate:7
CircleSize:2
OverallDifficulty:5
ApproachRate:10
SliderMultiplier:1.4
SliderTickRate:1

[Events]
//Background and Video events
0,0,"BG.jpg",0,0
//Break Periods
2,191385,192219
//Storyboard Layer 0 (Background)
//Storyboard Layer 1 (Fail)
//Storyboard Layer 2 (Pass)
//Storyboard Layer 3 (Foreground)
//Storyboard Layer 4 (Overlay)
//Storyboard Sound Samples

[TimingPoints]
142,329.67032967033,4,1,0,85,1,0
42174,-100,4,1,0,95,0,0
63603,-100,4,1,0,85,0,0
84372,-100,4,1,0,95,0,0
105636,-100,4,1,0,90,0,1
125416,-100,4,1,0,90,0,0
126735,-100,4,1,0,95,0,0
147834,-100,4,1,0,90,0,1
167614,-100,4,1,0,90,0,0
168933,-100,4,1,0,95,0,1
179482,-100,4,1,0,95,0,0
191350,-100,4,1,0,70,0,0
203054,-100,4,1,0,85,0,0
213685,-100,4,1,0,80,0,0
214757,-100,4,1,0,75,0,0
216240,-100,4,1,0,70,0,0
216488,-100,4,1,0,35,0,0
217559,-100,4,1,0,25,0,0
218878,-100,4,1,0,15,0,0
220196,-100,4,1,0,5,0,0

[HitObjects]
256,192,142,5,0,0:0:0:0:
256,192,471,1,0,0:0:0:0:
256,192,801,1,8,0:0:0:0:
256,192,966,1,8,0:0:0:0:
256,192,1460,1,8,0:0:0:0:
256,192,1625,1,0,0:0:0:0:
256,192,1955,1,8,0:0:0:0:
256,192,2120,1,0,0:0:0:0:
256,192,2449,1,8,0:0:0:0:
256,192,2614,1,0,0:0:0:0:
256,192,2779,1,0,0:0:0:0:
256,192,3109,1,0,0:0:0:0:
256,192,3438,1,0,0:0:0:0:
256,192,3603,1,8,0:0:0:0:
256,192,4098,1,8,0:0:0:0:
256,192,4262,1,8,0:0:0:0:
256,192,4592,1,8,0:0:0:0:
256,192,4757,1,8,0:0:0:0:
256,192,5087,1,8,0:0:0:0:
256,192,5251,1,0,0:0:0:0:
256,192,5416,1,0,0:0:0:0:
256,192,5746,1,0,0:0:0:0:
256,192,6076,1,8,0:0:0:0:
256,192,6240,1,8,0:0:0:0:
256,192,6735,1,8,0:0:0:0:
256,192,6900,1,0,0:0:0:0:
256,192,7229,1,8,0:0:0:0:
256,192,7394,1,0,0:0:0:0:
256,192,7724,1,8,0:0:0:0:
256,192,7889,1,0,0:0:0:0:
256,192,8054,1,0,0:0:0:0:
256,192,8383,1,0,0:0:0:0:
256,192,8713,1,0,0:0:0:0:
256,192,8878,1,8,0:0:0:0:
256,192,9372,1,8,0:0:0:0:
256,192,9537,1,8,0:0:0:0:
256,192,9867,1,8,0:0:0:0:
256,192,10032,1,8,0:0:0:0:
256,192,10361,1,8,0:0:0:0:
256,192,10526,1,0,0:0:0:0:
256,192,10691,1,8,0:0:0:0:
256,192,11021,1,0,0:0:0:0:
256,192,11350,1,8,0:0:0:0:
256,192,11515,1,8,0:0:0:0:
256,192,12010,1,8,0:0:0:0:
256,192,12174,1,0,0:0:0:0:
256,192,12504,1,8,0:0:0:0:
256,192,12669,1,0,0:0:0:0:
256,192,12999,1,8,0:0:0:0:
256,192,13163,1,0,0:0:0:0:
256,192,13328,1,8,0:0:0:0:
256,192,13658,1,0,0:0:0:0:
256,192,13988,1,8,0:0:0:0:
256,192,14152,1,8,0:0:0:0:
256,192,14647,1,8,0:0:0:0:
256,192,14812,1,8,0:0:0:0:
256,192,15142,1,8,0:0:0:0:
256,192,15306,1,8,0:0:0:0:
256,192,15636,1,8,0:0:0:0:
256,192,15801,1,0,0:0:0:0:
256,192,15966,1,0,0:0:0:0:
256,192,16295,1,0,0:0:0:0:
256,192,16625,1,8,0:0:0:0:
256,192,16790,1,8,0:0:0:0:
256,192,17284,1,8,0:0:0:0:
256,192,17449,1,0,0:0:0:0:
256,192,17779,1,8,0:0:0:0:
256,192,17944,1,0,0:0:0:0:
256,192,18273,1,8,0:0:0:0:
256,192,18438,1,0,0:0:0:0:
256,192,18603,1,0,0:0:0:0:
256,192,18933,1,0,0:0:0:0:
256,192,19262,1,8,0:0:0:0:
256,192,19427,1,8,0:0:0:0:
256,192,19922,1,8,0:0:0:0:
256,192,20087,1,8,0:0:0:0:
256,192,20416,1,8,0:0:0:0:
256,192,20581,1,8,0:0:0:0:
256,192,20911,1,8,0:0:0:0:
256,192,21076,1,8,0:0:0:0:
256,192,21240,1,4,0:0:0:0:
256,192,21570,1,0,0:0:0:0:
256,192,21900,1,8,0:0:0:0:
256,192,22065,1,8,0:0:0:0:
256,192,22229,1,0,0:0:0:0:
256,192,22394,1,0,0:0:0:0:
256,192,22559,1,8,0:0:0:0:
256,192,22724,1,0,0:0:0:0:
256,192,23054,1,8,0:0:0:0:
256,192,23218,1,0,0:0:0:0:
256,192,23548,1,8,0:0:0:0:
256,192,23713,1,0,0:0:0:0:
256,192,23878,1,8,0:0:0:0:
256,192,24207,1,0,0:0:0:0:
256,192,24537,1,8,0:0:0:0:
256,192,24702,1,8,0:0:0:0:
256,192,25196,1,8,0:0:0:0:
256,192,25361,1,8,0:0:0:0:
256,192,25691,1,8,0:0:0:0:
256,192,25856,1,8,0:0:0:0:
256,192,26185,1,8,0:0:0:0:
256,192,26350,1,0,0:0:0:0:
256,192,26515,1,0,0:0:0:0:
256,192,26845,1,0,0:0:0:0:
256,192,27174,1,8,0:0:0:0:
256,192,27339,1,8,0:0:0:0:
256,192,27504,1,0,0:0:0:0:
256,192,27669,1,0,0:0:0:0:
256,192,27834,1,8,0:0:0:0:
256,192,27999,1,0,0:0:0:0:
256,192,28328,1,8,0:0:0:0:
256,192,28493,1,0,0:0:0:0:
256,192,28823,1,8,0:0:0:0:
256,192,28988,1,0,0:0:0:0:
256,192,29152,1,8,0:0:0:0:
256,192,29482,1,0,0:0:0:0:
256,192,29812,1,8,0:0:0:0:
256,192,29977,1,8,0:0:0:0:
256,192,30471,1,8,0:0:0:0:
256,192,30636,1,8,0:0:0:0:
256,192,30966,1,8,0:0:0:0:
256,192,31131,1,8,0:0:0:0:
256,192,31460,1,8,0:0:0:0:
256,192,31625,1,0,0:0:0:0:
256,192,31790,1,0,0:0:0:0:
256,192,32120,1,0,0:0:0:0:
256,192,32449,1,8,0:0:0:0:
256,192,32614,1,8,0:0:0:0:
256,192,32779,1,0,0:0:0:0:
256,192,32944,1,0,0:0:0:0:
256,192,33109,1,8,0:0:0:0:
256,192,33273,1,0,0:0:0:0:
256,192,33603,1,8,0:0:0:0:
256,192,33768,1,0,0:0:0:0:
256,192,33933,1,8,0:0:0:0:
256,192,34098,1,8,0:0:0:0:
256,192,34427,1,0,0:0:0:0:
256,192,34757,1,0,0:0:0:0:
256,192,35087,1,8,0:0:0:0:
256,192,35251,1,8,0:0:0:0:
256,192,35746,1,8,0:0:0:0:
256,192,35911,1,0,0:0:0:0:
256,192,36076,1,8,0:0:0:0:
256,192,36240,1,8,0:0:0:0:
256,192,36570,1,8,0:0:0:0:
256,192,36735,1,8,0:0:0:0:
256,192,36900,1,0,0:0:0:0:
256,192,37065,1,8,0:0:0:0:
256,192,37394,1,0,0:0:0:0:
256,192,37724,1,8,0:0:0:0:
256,192,37889,1,8,0:0:0:0:
256,192,38054,1,0,0:0:0:0:
256,192,38218,1,0,0:0:0:0:
256,192,38383,1,8,0:0:0:0:
256,192,38548,1,0,0:0:0:0:
256,192,38878,1,8,0:0:0:0:
256,192,39043,1,0,0:0:0:0:
256,192,39207,1,8,0:0:0:0:
256,192,39372,1,8,0:0:0:0:
256,192,39702,1,8,0:0:0:0:
256,192,39867,1,8,0:0:0:0:
256,192,40032,1,0,0:0:0:0:
256,192,40361,1,0,0:0:0:0:
256,192,40526,1,8,0:0:0:0:
256,192,40691,1,0,0:0:0:0:
256,192,41021,1,8,0:0:0:0:
256,192,41350,1,0,0:0:0:0:
256,192,42339,1,4,0:0:0:0:
256,192,42669,1,0,0:0:0:0:
256,192,42999,1,8,0:0:0:0:
256,192,43328,1,0,0:0:0:0:
256,192,43493,1,8,0:0:0:0:
256,192,43658,1,0,0:0:0:0:
256,192,43823,1,8,0:0:0:0:
256,192,43988,1,8,0:0:0:0:
256,192,44317,1,8,0:0:0:0:
256,192,44482,1,0,0:0:0:0:
256,192,44647,1,8,0:0:0:0:
256,192,44812,1,0,0:0:0:0:
256,192,44977,1,12,0:0:0:0:
256,192,45306,1,12,0:0:0:0:
256,192,45636,1,0,0:0:0:0:
256,192,46131,1,8,0:0:0:0:
256,192,46295,1,0,0:0:0:0:
256,192,46625,1,0,0:0:0:0:
256,192,46707,1,0,0:0:0:0:
256,192,46790,1,0,0:0:0:0:
256,192,46955,1,8,0:0:0:0:
256,192,47120,1,0,0:0:0:0:
256,192,47284,1,0,0:0:0:0:
256,192,47449,1,8,0:0:0:0:
256,192,47614,1,0,0:0:0:0:
256,192,47779,1,8,0:0:0:0:
256,192,48273,1,8,0:0:0:0:
256,192,48438,1,8,0:0:0:0:
256,192,48603,1,0,0:0:0:0:
256,192,48933,1,0,0:0:0:0:
256,192,49098,1,8,0:0:0:0:
256,192,49262,1,8,0:0:0:0:
256,192,49427,1,0,0:0:0:0:
256,192,49592,1,8,0:0:0:0:
256,192,49674,1,8,0:0:0:0:
256,192,49757,1,8,0:0:0:0:
256,192,49922,1,0,0:0:0:0:
256,192,50087,1,8,0:0:0:0:
256,192,50251,1,0,0:0:0:0:
256,192,50416,1,8,0:0:0:0:
256,192,50911,1,8,0:0:0:0:
256,192,51076,1,8,0:0:0:0:
256,192,51240,1,0,0:0:0:0:
256,192,51570,1,0,0:0:0:0:
256,192,51735,1,8,0:0:0:0:
256,192,51900,1,8,0:0:0:0:
256,192,52065,1,0,0:0:0:0:
256,192,52229,1,8,0:0:0:0:
256,192,52394,1,8,0:0:0:0:
256,192,52477,1,8,0:0:0:0:
256,192,52559,1,8,0:0:0:0:
256,192,52724,1,0,0:0:0:0:
256,192,52889,1,0,0:0:0:0:
256,192,53383,1,8,0:0:0:0:
256,192,53548,1,0,0:0:0:0:
256,192,53713,1,0,0:0:0:0:
256,192,53878,1,8,0:0:0:0:
256,192,54043,1,8,0:0:0:0:
256,192,54372,1,8,0:0:0:0:
256,192,54537,1,8,0:0:0:0:
256,192,54702,1,0,0:0:0:0:
256,192,54784,1,0,0:0:0:0:
256,192,54867,1,0,0:0:0:0:
256,192,55032,1,0,0:0:0:0:
256,192,55196,1,12,0:0:0:0:
256,192,55526,1,8,0:0:0:0:
256,192,56021,1,8,0:0:0:0:
256,192,56185,1,0,0:0:0:0:
256,192,56515,1,8,0:0:0:0:
256,192,56680,1,0,0:0:0:0:
256,192,57010,1,0,0:0:0:0:
256,192,57174,1,8,0:0:0:0:
256,192,57257,1,8,0:0:0:0:
256,192,57339,1,8,0:0:0:0:
256,192,57504,1,0,0:0:0:0:
256,192,57669,1,8,0:0:0:0:
256,192,57834,1,0,0:0:0:0:
256,192,57999,1,8,0:0:0:0:
256,192,58163,1,0,0:0:0:0:
256,192,58246,1,0,0:0:0:0:
256,192,58328,1,0,0:0:0:0:
256,192,58493,1,8,0:0:0:0:
256,192,58988,1,8,0:0:0:0:
256,192,59152,1,0,0:0:0:0:
256,192,59482,1,0,0:0:0:0:
256,192,59812,1,8,0:0:0:0:
256,192,59977,1,0,0:0:0:0:
256,192,60059,1,0,0:0:0:0:
256,192,60142,1,0,0:0:0:0:
256,192,60306,1,8,0:0:0:0:
256,192,60471,1,0,0:0:0:0:
256,192,60636,1,8,0:0:0:0:
256,192,60801,1,0,0:0:0:0:
256,192,60966,1,0,0:0:0:0:
256,192,61131,1,8,0:0:0:0:
256,192,61625,1,8,0:0:0:0:
256,192,61790,1,0,0:0:0:0:
256,192,62120,1,0,0:0:0:0:
256,192,62449,1,8,0:0:0:0:
256,192,62614,1,0,0:0:0:0:
256,192,62779,1,8,0:0:0:0:
256,192,62944,1,8,0:0:0:0:
256,192,63026,1,8,0:0:0:0:
256,192,63109,1,8,0:0:0:0:
256,192,63273,1,0,0:0:0:0:
256,192,63438,1,12,0:0:0:0:
256,192,63768,1,0,0:0:0:0:
256,192,64098,1,8,0:0:0:0:
256,192,64262,1,8,0:0:0:0:
256,192,64592,1,0,0:0:0:0:
256,192,64757,1,8,0:0:0:0:
256,192,64922,1,0,0:0:0:0:
256,192,65087,1,8,0:0:0:0:
256,192,65251,1,8,0:0:0:0:
256,192,65581,1,8,0:0:0:0:
256,192,65746,1,8,0:0:0:0:
256,192,65911,1,0,0:0:0:0:
256,192,66076,1,0,0:0:0:0:
256,192,66405,1,0,0:0:0:0:
256,192,66735,1,8,0:0:0:0:
256,192,66900,1,0,0:0:0:0:
256,192,67394,1,8,0:0:0:0:
256,192,67559,1,8,0:0:0:0:
256,192,67724,1,0,0:0:0:0:
256,192,67889,1,8,0:0:0:0:
256,192,68054,1,0,0:0:0:0:
256,192,68218,1,8,0:0:0:0:
256,192,68383,1,8,0:0:0:0:
256,192,68713,1,8,0:0:0:0:
256,192,69043,1,0,0:0:0:0:
256,192,69372,1,8,0:0:0:0:
256,192,69537,1,8,0:0:0:0:
256,192,69867,1,0,0:0:0:0:
256,192,70032,1,8,0:0:0:0:
256,192,70196,1,0,0:0:0:0:
256,192,70361,1,8,0:0:0:0:
256,192,70526,1,8,0:0:0:0:
256,192,70856,1,8,0:0:0:0:
256,192,71021,1,8,0:0:0:0:
256,192,71185,1,0,0:0:0:0:
256,192,71350,1,0,0:0:0:0:
256,192,71680,1,0,0:0:0:0:
256,192,72010,1,8,0:0:0:0:
256,192,72174,1,8,0:0:0:0:
256,192,72669,1,8,0:0:0:0:
256,192,72834,1,0,0:0:0:0:
256,192,72999,1,8,0:0:0:0:
256,192,73163,1,8,0:0:0:0:
256,192,73328,1,0,0:0:0:0:
256,192,73493,1,8,0:0:0:0:
256,192,73658,1,8,0:0:0:0:
256,192,73988,1,12,0:0:0:0:
256,192,74318,1,0,0:0:0:0:
256,192,74648,1,8,0:0:0:0:
256,192,74812,1,8,0:0:0:0:
256,192,75142,1,0,0:0:0:0:
256,192,75307,1,8,0:0:0:0:
256,192,75472,1,0,0:0:0:0:
256,192,75637,1,8,0:0:0:0:
256,192,75801,1,8,0:0:0:0:
256,192,76131,1,8,0:0:0:0:
256,192,76296,1,8,0:0:0:0:
256,192,76460,1,0,0:0:0:0:
256,192,76626,1,0,0:0:0:0:
256,192,76955,1,0,0:0:0:0:
256,192,77285,1,8,0:0:0:0:
256,192,77450,1,8,0:0:0:0:
256,192,77944,1,8,0:0:0:0:
256,192,78109,1,8,0:0:0:0:
256,192,78274,1,0,0:0:0:0:
256,192,78439,1,8,0:0:0:0:
256,192,78604,1,0,0:0:0:0:
256,192,78768,1,8,0:0:0:0:
256,192,78933,1,8,0:0:0:0:
256,192,79263,1,8,0:0:0:0:
256,192,79592,1,0,0:0:0:0:
256,192,79922,1,8,0:0:0:0:
256,192,80087,1,8,0:0:0:0:
256,192,80417,1,0,0:0:0:0:
256,192,80582,1,8,0:0:0:0:
256,192,80746,1,0,0:0:0:0:
256,192,80911,1,8,0:0:0:0:
256,192,81076,1,8,0:0:0:0:
256,192,81406,1,8,0:0:0:0:
256,192,81571,1,8,0:0:0:0:
256,192,81735,1,0,0:0:0:0:
256,192,81900,1,0,0:0:0:0:
256,192,82065,1,8,0:0:0:0:
256,192,82559,1,0,0:0:0:0:
256,192,82724,1,8,0:0:0:0:
256,192,82889,1,8,0:0:0:0:
256,192,83054,1,0,0:0:0:0:
256,192,83218,1,8,0:0:0:0:
256,192,83548,1,0,0:0:0:0:
256,192,84538,1,4,0:0:0:0:
256,192,84867,1,0,0:0:0:0:
256,192,85196,1,8,0:0:0:0:
256,192,85361,1,8,0:0:0:0:
256,192,85526,1,0,0:0:0:0:
256,192,85691,1,8,0:0:0:0:
256,192,86021,1,8,0:0:0:0:
256,192,86185,1,8,0:0:0:0:
256,192,86515,1,12,0:0:0:0:
256,192,86845,1,0,0:0:0:0:
256,192,87010,1,8,0:0:0:0:
256,192,87092,1,8,0:0:0:0:
256,192,87174,1,8,0:0:0:0:
256,192,87504,1,0,0:0:0:0:
256,192,87834,1,4,0:0:0:0:
256,192,88328,1,8,0:0:0:0:
256,192,88493,1,0,0:0:0:0:
256,192,88658,1,8,0:0:0:0:
256,192,88823,1,0,0:0:0:0:
256,192,88905,1,0,0:0:0:0:
256,192,88988,1,0,0:0:0:0:
256,192,89152,1,8,0:0:0:0:
256,192,89317,1,0,0:0:0:0:
256,192,89482,1,12,0:0:0:0:
256,192,89812,1,0,0:0:0:0:
256,192,89977,1,8,0:0:0:0:
256,192,90471,1,8,0:0:0:0:
256,192,90636,1,0,0:0:0:0:
256,192,90801,1,8,0:0:0:0:
256,192,91131,1,8,0:0:0:0:
256,192,91295,1,0,0:0:0:0:
256,192,91460,1,8,0:0:0:0:
256,192,91625,1,0,0:0:0:0:
256,192,91790,1,8,0:0:0:0:
256,192,91872,1,8,0:0:0:0:
256,192,91955,1,8,0:0:0:0:
256,192,92120,1,0,0:0:0:0:
256,192,92284,1,8,0:0:0:0:
256,192,92449,1,0,0:0:0:0:
256,192,92614,1,8,0:0:0:0:
256,192,93109,1,12,0:0:0:0:
256,192,93273,1,12,0:0:0:0:
256,192,93603,1,8,0:0:0:0:
256,192,93768,1,0,0:0:0:0:
256,192,93933,1,8,0:0:0:0:
256,192,94098,1,0,0:0:0:0:
256,192,94180,1,0,0:0:0:0:
256,192,94262,1,0,0:0:0:0:
256,192,94427,1,8,0:0:0:0:
256,192,94592,1,0,0:0:0:0:
256,192,94757,1,8,0:0:0:0:
256,192,94839,1,8,0:0:0:0:
256,192,94922,1,8,0:0:0:0:
256,192,95087,1,4,0:0:0:0:
256,192,95251,1,4,0:0:0:0:
256,192,95581,1,8,0:0:0:0:
256,192,95746,1,8,0:0:0:0:
256,192,96240,1,8,0:0:0:0:
256,192,96405,1,0,0:0:0:0:
256,192,96570,1,8,0:0:0:0:
256,192,96735,1,0,0:0:0:0:
256,192,97065,1,0,0:0:0:0:
256,192,97229,1,8,0:0:0:0:
256,192,97394,1,8,0:0:0:0:
256,192,97477,1,8,0:0:0:0:
256,192,97559,1,8,0:0:0:0:
256,192,97724,1,0,0:0:0:0:
256,192,98054,1,8,0:0:0:0:
256,192,98218,1,8,0:0:0:0:
256,192,98383,1,0,0:0:0:0:
256,192,98548,1,0,0:0:0:0:
256,192,98713,1,8,0:0:0:0:
256,192,98878,1,0,0:0:0:0:
256,192,99043,1,8,0:0:0:0:
256,192,99125,1,8,0:0:0:0:
256,192,99207,1,8,0:0:0:0:
256,192,99372,1,0,0:0:0:0:
256,192,99867,1,8,0:0:0:0:
256,192,100032,1,0,0:0:0:0:
256,192,100361,1,8,0:0:0:0:
256,192,100526,1,0,0:0:0:0:
256,192,100691,1,8,0:0:0:0:
256,192,101021,1,0,0:0:0:0:
256,192,101185,1,0,0:0:0:0:
256,192,101350,1,8,0:0:0:0:
256,192,101680,1,0,0:0:0:0:
256,192,101845,1,8,0:0:0:0:
256,192,101927,1,8,0:0:0:0:
256,192,102010,1,8,0:0:0:0:
256,192,102174,1,8,0:0:0:0:
256,192,102504,1,8,0:0:0:0:
256,192,102669,1,0,0:0:0:0:
256,192,102834,1,8,0:0:0:0:
256,192,102999,1,0,0:0:0:0:
256,192,103163,1,0,0:0:0:0:
256,192,103328,1,8,0:0:0:0:
256,192,103411,1,8,0:0:0:0:
256,192,103493,1,8,0:0:0:0:
256,192,103658,1,0,0:0:0:0:
256,192,103823,1,8,0:0:0:0:
256,192,103988,1,0,0:0:0:0:
256,192,104317,1,0,0:0:0:0:
256,192,104647,1,8,0:0:0:0:
256,192,104729,1,8,0:0:0:0:
256,192,104812,1,8,0:0:0:0:
256,192,104977,1,0,0:0:0:0:
256,192,105142,1,8,0:0:0:0:
256,192,105224,1,8,0:0:0:0:
256,192,105306,1,8,0:0:0:0:
256,192,105471,1,8,0:0:0:0:
256,192,105636,1,4,0:0:0:0:
256,192,105966,1,8,0:0:0:0:
256,192,106460,1,0,0:0:0:0:
256,192,106625,1,8,0:0:0:0:
256,192,106790,1,8,0:0:0:0:
256,192,106955,1,0,0:0:0:0:
256,192,107284,1,8,0:0:0:0:
256,192,107449,1,0,0:0:0:0:
256,192,107614,1,8,0:0:0:0:
256,192,107779,1,8,0:0:0:0:
256,192,107944,1,0,0:0:0:0:
256,192,108273,1,8,0:0:0:0:
256,192,108603,1,8,0:0:0:0:
256,192,108933,1,0,0:0:0:0:
256,192,109098,1,0,0:0:0:0:
256,192,109262,1,8,0:0:0:0:
256,192,109592,1,8,0:0:0:0:
256,192,109757,1,8,0:0:0:0:
256,192,109839,1,8,0:0:0:0:
256,192,109922,1,8,0:0:0:0:
256,192,110087,1,0,0:0:0:0:
256,192,110251,1,8,0:0:0:0:
256,192,110416,1,0,0:0:0:0:
256,192,110581,1,8,0:0:0:0:
256,192,110911,1,0,0:0:0:0:
256,192,111240,1,8,0:0:0:0:
256,192,111735,1,0,0:0:0:0:
256,192,111900,1,8,0:0:0:0:
256,192,112229,1,0,0:0:0:0:
256,192,112394,1,8,0:0:0:0:
256,192,112559,1,8,0:0:0:0:
256,192,112724,1,0,0:0:0:0:
256,192,112889,1,8,0:0:0:0:
256,192,113218,1,8,0:0:0:0:
256,192,113383,1,0,0:0:0:0:
256,192,113548,1,8,0:0:0:0:
256,192,113878,1,0,0:0:0:0:
256,192,114043,1,0,0:0:0:0:
256,192,114207,1,8,0:0:0:0:
256,192,114372,1,0,0:0:0:0:
256,192,114537,1,8,0:0:0:0:
256,192,114867,1,8,0:0:0:0:
256,192,115032,1,8,0:0:0:0:
256,192,115114,1,8,0:0:0:0:
256,192,115196,1,8,0:0:0:0:
256,192,115361,1,0,0:0:0:0:
256,192,115526,1,8,0:0:0:0:
256,192,115856,1,8,0:0:0:0:
256,192,116021,1,8,0:0:0:0:
256,192,116185,1,0,0:0:0:0:
256,192,116515,1,8,0:0:0:0:
256,192,117010,1,0,0:0:0:0:
256,192,117174,1,8,0:0:0:0:
256,192,117339,1,8,0:0:0:0:
256,192,117504,1,0,0:0:0:0:
256,192,117834,1,8,0:0:0:0:
256,192,117999,1,0,0:0:0:0:
256,192,118163,1,8,0:0:0:0:
256,192,118328,1,0,0:0:0:0:
256,192,118493,1,8,0:0:0:0:
256,192,118823,1,0,0:0:0:0:
256,192,119152,1,0,0:0:0:0:
256,192,119482,1,8,0:0:0:0:
256,192,119647,1,0,0:0:0:0:
256,192,119812,1,8,0:0:0:0:
256,192,120142,1,8,0:0:0:0:
256,192,120306,1,8,0:0:0:0:
256,192,120389,1,8,0:0:0:0:
256,192,120471,1,8,0:0:0:0:
256,192,120636,1,0,0:0:0:0:
256,192,120801,1,8,0:0:0:0:
256,192,120966,1,0,0:0:0:0:
256,192,121131,1,8,0:0:0:0:
256,192,121460,1,0,0:0:0:0:
256,192,121789,1,8,0:0:0:0:
256,192,122284,1,0,0:0:0:0:
256,192,122449,1,8,0:0:0:0:
256,192,122778,1,0,0:0:0:0:
256,192,122943,1,8,0:0:0:0:
256,192,123108,1,8,0:0:0:0:
256,192,123273,1,0,0:0:0:0:
256,192,123438,1,8,0:0:0:0:
256,192,123767,1,8,0:0:0:0:
256,192,123933,1,0,0:0:0:0:
256,192,124097,1,8,0:0:0:0:
256,192,124262,1,0,0:0:0:0:
256,192,124427,1,8,0:0:0:0:
256,192,124510,1,8,0:0:0:0:
256,192,124592,1,8,0:0:0:0:
256,192,124756,1,0,0:0:0:0:
256,192,124922,1,0,0:0:0:0:
256,192,125087,1,8,0:0:0:0:
256,192,125416,1,0,0:0:0:0:
256,192,125581,1,0,0:0:0:0:
256,192,125746,1,0,0:0:0:0:
256,192,125828,1,0,0:0:0:0:
256,192,125911,1,0,0:0:0:0:
256,192,126076,1,8,0:0:0:0:
256,192,126240,1,8,0:0:0:0:
256,192,126405,1,0,0:0:0:0:
256,192,126735,1,12,0:0:0:0:
256,192,127065,1,8,0:0:0:0:
256,192,127394,1,0,0:0:0:0:
256,192,127724,1,8,0:0:0:0:
256,192,128218,1,8,0:0:0:0:
256,192,128383,1,0,0:0:0:0:
256,192,128548,1,8,0:0:0:0:
256,192,128713,1,0,0:0:0:0:
256,192,128878,1,8,0:0:0:0:
256,192,129043,1,8,0:0:0:0:
256,192,129207,1,0,0:0:0:0:
256,192,129290,1,0,0:0:0:0:
256,192,129372,1,0,0:0:0:0:
256,192,130196,1,0,0:0:0:0:
256,192,130361,1,8,0:0:0:0:
256,192,130444,1,8,0:0:0:0:
256,192,130526,1,8,0:0:0:0:
256,192,130691,1,0,0:0:0:0:
256,192,130856,1,8,0:0:0:0:
256,192,131021,1,0,0:0:0:0:
256,192,131350,1,8,0:0:0:0:
256,192,131515,1,0,0:0:0:0:
256,192,131680,1,8,0:0:0:0:
256,192,131845,1,0,0:0:0:0:
256,192,131927,1,0,0:0:0:0:
256,192,132010,1,0,0:0:0:0:
256,192,132339,1,8,0:0:0:0:
256,192,132669,1,0,0:0:0:0:
256,192,132834,1,0,0:0:0:0:
256,192,132999,1,8,0:0:0:0:
256,192,133493,1,8,0:0:0:0:
256,192,133658,1,8,0:0:0:0:
256,192,133988,1,0,0:0:0:0:
256,192,134111,1,0,0:0:0:0:
256,192,134235,1,0,0:0:0:0:
256,192,134359,1,0,0:0:0:0:
256,192,134729,1,0,0:0:0:0:
256,192,134977,1,8,0:0:0:0:
256,192,135306,1,8,0:0:0:0:
256,192,135471,1,0,0:0:0:0:
256,192,135636,1,8,0:0:0:0:
256,192,135966,1,0,0:0:0:0:
256,192,136048,1,0,0:0:0:0:
256,192,136131,1,0,0:0:0:0:
256,192,136295,1,8,0:0:0:0:
256,192,136460,1,0,0:0:0:0:
256,192,136625,1,8,0:0:0:0:
256,192,136955,1,8,0:0:0:0:
256,192,137284,1,0,0:0:0:0:
256,192,137779,1,8,0:0:0:0:
256,192,137944,1,0,0:0:0:0:
256,192,138109,1,8,0:0:0:0:
256,192,138273,1,8,0:0:0:0:
256,192,138438,1,0,0:0:0:0:
256,192,138521,1,0,0:0:0:0:
256,192,138603,1,0,0:0:0:0:
256,192,138768,1,0,0:0:0:0:
256,192,138933,1,8,0:0:0:0:
256,192,139262,1,8,0:0:0:0:
256,192,139427,1,0,0:0:0:0:
256,192,139592,1,8,0:0:0:0:
256,192,139674,1,8,0:0:0:0:
256,192,139757,1,8,0:0:0:0:
256,192,139922,1,0,0:0:0:0:
256,192,140251,1,8,0:0:0:0:
256,192,140416,1,8,0:0:0:0:
256,192,140581,1,0,0:0:0:0:
256,192,140911,1,8,0:0:0:0:
256,192,141076,1,8,0:0:0:0:
256,192,141240,1,0,0:0:0:0:
256,192,141405,1,8,0:0:0:0:
256,192,141488,1,8,0:0:0:0:
256,192,141570,1,8,0:0:0:0:
256,192,141735,1,0,0:0:0:0:
256,192,141900,1,0,0:0:0:0:
256,192,142065,1,8,0:0:0:0:
256,192,142229,1,0,0:0:0:0:
256,192,142559,1,8,0:0:0:0:
256,192,142642,1,8,0:0:0:0:
256,192,142724,1,8,0:0:0:0:
256,192,142889,1,4,0:0:0:0:
256,192,143218,1,0,0:0:0:0:
256,192,143878,1,8,0:0:0:0:
256,192,144043,1,0,0:0:0:0:
256,192,144207,1,12,0:0:0:0:
256,192,144537,1,8,0:0:0:0:
256,192,144620,1,8,0:0:0:0:
256,192,144702,1,8,0:0:0:0:
256,192,144867,1,0,0:0:0:0:
256,192,145032,1,8,0:0:0:0:
256,192,145196,1,0,0:0:0:0:
256,192,145526,1,8,0:0:0:0:
256,192,145856,1,0,0:0:0:0:
256,192,145938,1,0,0:0:0:0:
256,192,146021,1,0,0:0:0:0:
256,192,146185,1,8,0:0:0:0:
256,192,146350,1,8,0:0:0:0:
256,192,146515,1,0,0:0:0:0:
256,192,146680,1,0,0:0:0:0:
256,192,146845,1,8,0:0:0:0:
256,192,147174,1,8,0:0:0:0:
256,192,147339,1,8,0:0:0:0:
256,192,147422,1,8,0:0:0:0:
256,192,147504,1,8,0:0:0:0:
256,192,147834,1,4,0:0:0:0:
256,192,148163,1,8,0:0:0:0:
256,192,148658,1,0,0:0:0:0:
256,192,148823,1,8,0:0:0:0:
256,192,148988,1,8,0:0:0:0:
256,192,149152,1,0,0:0:0:0:
256,192,149482,1,8,0:0:0:0:
256,192,149647,1,8,0:0:0:0:
256,192,149812,1,0,0:0:0:0:
256,192,149977,1,0,0:0:0:0:
256,192,150142,1,8,0:0:0:0:
256,192,150306,1,0,0:0:0:0:
256,192,150471,1,8,0:0:0:0:
256,192,150801,1,8,0:0:0:0:
256,192,151131,1,0,0:0:0:0:
256,192,151213,1,0,0:0:0:0:
256,192,151295,1,0,0:0:0:0:
256,192,151460,1,8,0:0:0:0:
256,192,151790,1,8,0:0:0:0:
256,192,151955,1,8,0:0:0:0:
256,192,152037,1,8,0:0:0:0:
256,192,152120,1,8,0:0:0:0:
256,192,152284,1,0,0:0:0:0:
256,192,152449,1,8,0:0:0:0:
256,192,152614,1,0,0:0:0:0:
256,192,152779,1,8,0:0:0:0:
256,192,152944,1,8,0:0:0:0:
256,192,153109,1,0,0:0:0:0:
256,192,153438,1,8,0:0:0:0:
256,192,153933,1,0,0:0:0:0:
256,192,154098,1,8,0:0:0:0:
256,192,154262,1,8,0:0:0:0:
256,192,154427,1,0,0:0:0:0:
256,192,154757,1,8,0:0:0:0:
256,192,154922,1,0,0:0:0:0:
256,192,155087,1,8,0:0:0:0:
256,192,155251,1,0,0:0:0:0:
256,192,155416,1,8,0:0:0:0:
256,192,155581,1,8,0:0:0:0:
256,192,155746,1,8,0:0:0:0:
256,192,156076,1,8,0:0:0:0:
256,192,156240,1,0,0:0:0:0:
256,192,156323,1,0,0:0:0:0:
256,192,156405,1,0,0:0:0:0:
256,192,156570,1,0,0:0:0:0:
256,192,156735,1,8,0:0:0:0:
256,192,157065,1,8,0:0:0:0:
256,192,157229,1,0,0:0:0:0:
256,192,157394,1,8,0:0:0:0:
256,192,157559,1,0,0:0:0:0:
256,192,157724,1,8,0:0:0:0:
256,192,157806,1,8,0:0:0:0:
256,192,157889,1,8,0:0:0:0:
256,192,158054,1,0,0:0:0:0:
256,192,158218,1,8,0:0:0:0:
256,192,158383,1,0,0:0:0:0:
256,192,158713,1,8,0:0:0:0:
256,192,159207,1,0,0:0:0:0:
256,192,159372,1,8,0:0:0:0:
256,192,159537,1,8,0:0:0:0:
256,192,159702,1,0,0:0:0:0:
256,192,160032,1,8,0:0:0:0:
256,192,160196,1,8,0:0:0:0:
256,192,160361,1,0,0:0:0:0:
256,192,160526,1,0,0:0:0:0:
256,192,160691,1,8,0:0:0:0:
256,192,160856,1,0,0:0:0:0:
256,192,161021,1,8,0:0:0:0:
256,192,161350,1,8,0:0:0:0:
256,192,161515,1,8,0:0:0:0:
256,192,161598,1,8,0:0:0:0:
256,192,161680,1,8,0:0:0:0:
256,192,161845,1,0,0:0:0:0:
256,192,162010,1,8,0:0:0:0:
256,192,162339,1,8,0:0:0:0:
256,192,162504,1,8,0:0:0:0:
256,192,162587,1,8,0:0:0:0:
256,192,162669,1,8,0:0:0:0:
256,192,162834,1,0,0:0:0:0:
256,192,162999,1,8,0:0:0:0:
256,192,163163,1,0,0:0:0:0:
256,192,163328,1,8,0:0:0:0:
256,192,163493,1,8,0:0:0:0:
256,192,163658,1,0,0:0:0:0:
256,192,163988,1,8,0:0:0:0:
256,192,164482,1,0,0:0:0:0:
256,192,164647,1,8,0:0:0:0:
256,192,164812,1,8,0:0:0:0:
256,192,164977,1,0,0:0:0:0:
256,192,165306,1,8,0:0:0:0:
256,192,165471,1,0,0:0:0:0:
256,192,165636,1,8,0:0:0:0:
256,192,165801,1,0,0:0:0:0:
256,192,165966,1,8,0:0:0:0:
256,192,166131,1,8,0:0:0:0:
256,192,166295,1,8,0:0:0:0:
256,192,166625,1,8,0:0:0:0:
256,192,166790,1,0,0:0:0:0:
256,192,166955,1,8,0:0:0:0:
256,192,167037,1,8,0:0:0:0:
256,192,167120,1,8,0:0:0:0:
256,192,167284,1,8,0:0:0:0:
256,192,167614,1,0,0:0:0:0:
256,192,167779,1,0,0:0:0:0:
256,192,167944,1,0,0:0:0:0:
256,192,168026,1,0,0:0:0:0:
256,192,168109,1,0,0:0:0:0:
256,192,168273,1,8,0:0:0:0:
256,192,168438,1,0,0:0:0:0:
256,192,168603,1,8,0:0:0:0:
256,192,168933,1,12,0:0:0:0:
256,192,169427,1,0,0:0:0:0:
256,192,169592,1,8,0:0:0:0:
256,192,169674,1,8,0:0:0:0:
256,192,169757,1,8,0:0:0:0:
256,192,169922,1,0,0:0:0:0:
256,192,170087,1,12,0:0:0:0:
256,192,170416,1,8,0:0:0:0:
256,192,170581,1,8,0:0:0:0:
256,192,170911,1,0,0:0:0:0:
256,192,170993,1,0,0:0:0:0:
256,192,171076,1,0,0:0:0:0:
256,192,171240,1,8,0:0:0:0:
256,192,171405,1,8,0:0:0:0:
256,192,171570,1,0,0:0:0:0:
256,192,171900,1,8,0:0:0:0:
256,192,172065,1,0,0:0:0:0:
256,192,172229,1,0,0:0:0:0:
256,192,172394,1,8,0:0:0:0:
256,192,172477,1,8,0:0:0:0:
256,192,172724,1,0,0:0:0:0:
256,192,173054,1,8,0:0:0:0:
256,192,173136,1,8,0:0:0:0:
256,192,173218,1,8,0:0:0:0:
256,192,173383,1,0,0:0:0:0:
256,192,173548,1,8,0:0:0:0:
256,192,174207,1,0,0:0:0:0:
256,192,174537,1,8,0:0:0:0:
256,192,174702,1,8,0:0:0:0:
256,192,174867,1,0,0:0:0:0:
256,192,175032,1,8,0:0:0:0:
256,192,175196,1,0,0:0:0:0:
256,192,175526,1,8,0:0:0:0:
256,192,175691,1,8,0:0:0:0:
256,192,175856,1,0,0:0:0:0:
256,192,176021,1,8,0:0:0:0:
256,192,176103,1,8,0:0:0:0:
256,192,176185,1,8,0:0:0:0:
256,192,176350,1,8,0:0:0:0:
256,192,176680,1,8,0:0:0:0:
256,192,176845,1,0,0:0:0:0:
256,192,177010,1,8,0:0:0:0:
256,192,177174,1,8,0:0:0:0:
256,192,177339,1,0,0:0:0:0:
256,192,177504,1,8,0:0:0:0:
256,192,177834,1,0,0:0:0:0:
256,192,177999,1,8,0:0:0:0:
256,192,178328,1,8,0:0:0:0:
256,192,178493,1,0,0:0:0:0:
256,192,178658,1,0,0:0:0:0:
256,192,178823,1,8,0:0:0:0:
256,192,178905,1,8,0:0:0:0:
256,192,178988,1,8,0:0:0:0:
256,192,179152,1,0,0:0:0:0:
256,192,179317,1,8,0:0:0:0:
256,192,179482,1,0,0:0:0:0:
256,192,179812,1,8,0:0:0:0:
256,192,180142,1,8,0:0:0:0:
256,192,180306,1,0,0:0:0:0:
256,192,180471,1,8,0:0:0:0:
256,192,180554,1,8,0:0:0:0:
256,192,180636,1,8,0:0:0:0:
256,192,180801,1,0,0:0:0:0:
256,192,180966,1,8,0:0:0:0:
256,192,181131,1,0,0:0:0:0:
256,192,181213,1,0,0:0:0:0:
256,192,181295,1,0,0:0:0:0:
256,192,181460,1,8,0:0:0:0:
256,192,181625,1,0,0:0:0:0:
256,192,181790,1,8,0:0:0:0:
256,192,181955,1,8,0:0:0:0:
256,192,182120,1,0,0:0:0:0:
256,192,182449,1,8,0:0:0:0:
256,192,182779,1,8,0:0:0:0:
256,192,182944,1,0,0:0:0:0:
256,192,183109,1,8,0:0:0:0:
256,192,183191,1,8,0:0:0:0:
256,192,183273,1,8,0:0:0:0:
256,192,183438,1,0,0:0:0:0:
256,192,183603,1,0,0:0:0:0:
256,192,183768,1,8,0:0:0:0:
256,192,183933,1,0,0:0:0:0:
256,192,184098,1,0,0:0:0:0:
256,192,184262,1,8,0:0:0:0:
256,192,184757,1,0,0:0:0:0:
256,192,185087,1,8,0:0:0:0:
256,192,185169,1,8,0:0:0:0:
256,192,185251,1,8,0:0:0:0:
256,192,185416,1,0,0:0:0:0:
256,192,185581,1,0,0:0:0:0:
256,192,185746,1,8,0:0:0:0:
256,192,186076,1,0,0:0:0:0:
256,192,186240,1,8,0:0:0:0:
256,192,186405,1,0,0:0:0:0:
256,192,186570,1,8,0:0:0:0:
256,192,186652,1,8,0:0:0:0:
256,192,186735,1,8,0:0:0:0:
256,192,186900,1,0,0:0:0:0:
256,192,187229,1,8,0:0:0:0:
256,192,187394,1,0,0:0:0:0:
256,192,187559,1,0,0:0:0:0:
256,192,187724,1,8,0:0:0:0:
256,192,187889,1,8,0:0:0:0:
256,192,188054,1,0,0:0:0:0:
256,192,188218,1,8,0:0:0:0:
256,192,188383,1,0,0:0:0:0:
256,192,188548,1,8,0:0:0:0:
256,192,188878,1,8,0:0:0:0:
256,192,188960,1,8,0:0:0:0:
256,192,189043,1,8,0:0:0:0:
256,192,189207,1,0,0:0:0:0:
256,192,189372,1,8,0:0:0:0:
256,192,189537,1,8,0:0:0:0:
256,192,189702,1,0,0:0:0:0:
256,192,189784,1,0,0:0:0:0:
256,192,189867,1,0,0:0:0:0:
256,192,190032,1,8,0:0:0:0:
256,192,190196,12,0,191185,0:0:0:0:
256,192,192669,5,8,0:0:0:0:
256,192,193328,1,0,0:0:0:0:
256,192,193988,1,0,0:0:0:0:
256,192,194647,1,8,0:0:0:0:
256,192,195306,1,8,0:0:0:0:
256,192,197284,1,8,0:0:0:0:
256,192,197614,1,0,0:0:0:0:
256,192,197944,1,8,0:0:0:0:
256,192,200581,1,0,0:0:0:0:
256,192,203218,1,0,0:0:0:0:
256,192,203548,1,0,0:0:0:0:
256,192,203878,1,8,0:0:0:0:
256,192,204372,1,8,0:0:0:0:
256,192,204537,1,0,0:0:0:0:
256,192,204702,1,0,0:0:0:0:
256,192,204867,1,8,0:0:0:0:
256,192,205032,1,0,0:0:0:0:
256,192,205196,1,0,0:0:0:0:
256,192,205361,1,8,0:0:0:0:
256,192,205526,1,0,0:0:0:0:
256,192,205856,1,8,0:0:0:0:
256,192,206185,1,0,0:0:0:0:
256,192,206515,1,8,0:0:0:0:
256,192,207010,1,8,0:0:0:0:
256,192,207174,1,8,0:0:0:0:
256,192,207339,1,0,0:0:0:0:
256,192,207504,1,8,0:0:0:0:
256,192,207669,1,8,0:0:0:0:
256,192,207834,1,0,0:0:0:0:
256,192,207999,1,8,0:0:0:0:
256,192,208163,1,8,0:0:0:0:
256,192,208493,1,0,0:0:0:0:
256,192,208823,1,0,0:0:0:0:
256,192,209152,1,8,0:0:0:0:
256,192,209647,1,8,0:0:0:0:
256,192,209812,1,0,0:0:0:0:
256,192,209977,1,0,0:0:0:0:
256,192,210142,1,8,0:0:0:0:
256,192,210306,1,0,0:0:0:0:
256,192,210471,1,0,0:0:0:0:
256,192,210636,1,8,0:0:0:0:
256,192,210801,1,0,0:0:0:0:
256,192,211131,1,8,0:0:0:0:
256,192,211460,1,0,0:0:0:0:
256,192,211790,1,8,0:0:0:0:
256,192,212284,1,8,0:0:0:0:
256,192,212449,1,8,0:0:0:0:
256,192,212614,1,0,0:0:0:0:
256,192,212779,1,8,0:0:0:0:
256,192,212944,1,8,0:0:0:0:
256,192,213109,1,0,0:0:0:0:
256,192,213273,1,8,0:0:0:0:
256,192,213438,1,8,0:0:0:0:
256,192,213768,5,0,0:0:0:0:
256,192,216405,1,8,0:0:0:0:
256,192,216570,12,0,221680,0:0:0:0:
