osu file format v14

[General]
AudioFilename: audio.mp3
AudioLeadIn: 0
PreviewTime: 105636
Countdown: 0
SampleSet: Normal
StackLeniency: 0.7
Mode: 1
LetterboxInBreaks: 0
WidescreenStoryboard: 1

[Editor]
Bookmarks: 21240,42339,63438,84537,203218
DistanceSpacing: 0.8
BeatDivisor: 4
GridSize: 8
TimelineZoom: 1.199999

[Metadata]
Title:The Bridgeport Run
TitleUnicode:The Bridgeport Run
Artist:The Flashbulb
ArtistUnicode:The Flashbulb
Creator:Faputa
Version:Kantan
Source:
Tags:benn jordan idm intelligent dance music osu! Featured Artist FA Mappers' Guild MG Hardscrabble Breakcore Electronic Instrumental
BeatmapID:3306979
BeatmapSetID:1215016

[Difficulty]
HPDrainRate:8
CircleSize:2
OverallDifficulty:3
ApproachRate:10
SliderMultiplier:1.4
SliderTickRate:1

[Events]
//Background and Video events
0,0,"BG.jpg",0,0
//Break Periods
2,191185,192219
//Storyboard Layer 0 (Background)
//Storyboard Layer 1 (Fail)
//Storyboard Layer 2 (Pass)
//Storyboard Layer 3 (Foreground)
//Storyboard Layer 4 (Overlay)
//Storyboard Sound Samples

[TimingPoints]
142,329.67032967033,4,1,0,85,1,0
42174,-100,4,1,0,95,0,0
63603,-100,4,1,0,85,0,0
84372,-100,4,1,0,95,0,0
105636,-100,4,1,0,90,0,1
125416,-100,4,1,0,90,0,0
126735,-100,4,1,0,95,0,0
147834,-100,4,1,0,90,0,1
167614,-100,4,1,0,90,0,0
168933,-100,4,1,0,95,0,1
179482,-100,4,1,0,95,0,0
191350,-100,4,1,0,70,0,0
203054,-100,4,1,0,85,0,0
213685,-100,4,1,0,80,0,0
214757,-100,4,1,0,75,0,0
216240,-100,4,1,0,70,0,0
216488,-100,4,1,0,35,0,0
217559,-100,4,1,0,25,0,0
218878,-100,4,1,0,15,0,0
220196,-100,4,1,0,5,0,0

[HitObjects]
256,192,142,5,0,0:0:0:0:
256,192,471,1,0,0:0:0:0:
256,192,801,1,8,0:0:0:0:
256,192,1460,1,0,0:0:0:0:
256,192,2779,1,0,0:0:0:0:
256,192,3109,1,0,0:0:0:0:
256,192,3438,1,8,0:0:0:0:
256,192,4098,1,8,0:0:0:0:
256,192,5416,1,0,0:0:0:0:
256,192,5746,1,0,0:0:0:0:
256,192,6076,1,8,0:0:0:0:
256,192,6735,1,0,0:0:0:0:
256,192,8054,1,0,0:0:0:0:
256,192,8383,1,0,0:0:0:0:
256,192,8713,1,8,0:0:0:0:
256,192,9372,1,8,0:0:0:0:
256,192,10691,1,8,0:0:0:0:
256,192,11021,1,0,0:0:0:0:
256,192,11350,1,8,0:0:0:0:
256,192,12010,1,0,0:0:0:0:
256,192,13328,1,0,0:0:0:0:
256,192,13658,1,0,0:0:0:0:
256,192,13988,1,8,0:0:0:0:
256,192,14647,1,8,0:0:0:0:
256,192,15966,1,0,0:0:0:0:
256,192,16295,1,0,0:0:0:0:
256,192,16625,1,8,0:0:0:0:
256,192,17284,1,0,0:0:0:0:
256,192,18603,1,0,0:0:0:0:
256,192,18933,1,0,0:0:0:0:
256,192,19262,1,8,0:0:0:0:
256,192,19922,1,8,0:0:0:0:
256,192,21240,1,4,0:0:0:0:
256,192,21570,1,0,0:0:0:0:
256,192,21900,1,8,0:0:0:0:
256,192,22559,1,0,0:0:0:0:
256,192,23548,1,8,0:0:0:0:
256,192,23878,1,0,0:0:0:0:
256,192,24207,1,0,0:0:0:0:
256,192,24537,1,8,0:0:0:0:
256,192,25196,1,8,0:0:0:0:
256,192,26185,1,8,0:0:0:0:
256,192,26515,1,0,0:0:0:0:
256,192,26845,1,0,0:0:0:0:
256,192,27174,1,8,0:0:0:0:
256,192,27834,1,0,0:0:0:0:
256,192,28823,1,8,0:0:0:0:
256,192,29152,1,0,0:0:0:0:
256,192,29482,1,0,0:0:0:0:
256,192,29812,1,8,0:0:0:0:
256,192,30471,1,8,0:0:0:0:
256,192,31460,1,8,0:0:0:0:
256,192,31790,1,0,0:0:0:0:
256,192,32120,1,0,0:0:0:0:
256,192,32449,1,8,0:0:0:0:
256,192,33109,1,0,0:0:0:0:
256,192,33768,1,8,0:0:0:0:
256,192,34427,1,0,0:0:0:0:
256,192,34757,1,0,0:0:0:0:
256,192,35087,1,8,0:0:0:0:
256,192,35746,1,8,0:0:0:0:
256,192,36405,1,0,0:0:0:0:
256,192,37065,1,0,0:0:0:0:
256,192,37394,1,0,0:0:0:0:
256,192,37724,1,8,0:0:0:0:
256,192,38383,1,0,0:0:0:0:
256,192,39043,1,8,0:0:0:0:
256,192,39702,1,8,0:0:0:0:
256,192,40032,1,0,0:0:0:0:
256,192,40361,1,8,0:0:0:0:
256,192,41021,1,8,0:0:0:0:
256,192,41350,1,0,0:0:0:0:
256,192,42339,1,4,0:0:0:0:
256,192,42999,1,8,0:0:0:0:
256,192,43658,1,0,0:0:0:0:
256,192,43988,1,8,0:0:0:0:
256,192,44317,1,8,0:0:0:0:
256,192,44977,1,4,0:0:0:0:
256,192,45636,1,0,0:0:0:0:
256,192,46625,1,0,0:0:0:0:
256,192,46955,1,8,0:0:0:0:
256,192,47614,1,0,0:0:0:0:
256,192,48273,1,8,0:0:0:0:
256,192,48603,1,0,0:0:0:0:
256,192,49592,1,0,0:0:0:0:
256,192,49922,1,8,0:0:0:0:
256,192,50251,1,0,0:0:0:0:
256,192,50911,1,8,0:0:0:0:
256,192,51570,1,8,0:0:0:0:
256,192,51900,1,8,0:0:0:0:
256,192,52229,1,0,0:0:0:0:
256,192,52889,1,0,0:0:0:0:
256,192,53218,1,0,0:0:0:0:
256,192,53548,1,8,0:0:0:0:
256,192,54537,1,8,0:0:0:0:
256,192,54867,1,0,0:0:0:0:
256,192,55196,1,12,0:0:0:0:
256,192,56185,1,0,0:0:0:0:
256,192,56515,1,8,0:0:0:0:
256,192,57174,1,8,0:0:0:0:
256,192,57504,1,0,0:0:0:0:
256,192,57834,1,8,0:0:0:0:
256,192,58493,1,8,0:0:0:0:
256,192,59152,1,0,0:0:0:0:
256,192,59482,1,0,0:0:0:0:
256,192,59812,1,8,0:0:0:0:
256,192,60471,1,8,0:0:0:0:
256,192,60801,1,0,0:0:0:0:
256,192,61460,1,8,0:0:0:0:
256,192,61790,1,0,0:0:0:0:
256,192,62120,1,0,0:0:0:0:
256,192,63109,1,0,0:0:0:0:
256,192,63438,1,12,0:0:0:0:
256,192,63768,1,0,0:0:0:0:
256,192,64098,1,8,0:0:0:0:
256,192,64757,1,8,0:0:0:0:
256,192,65416,1,0,0:0:0:0:
256,192,66076,1,0,0:0:0:0:
256,192,66405,1,8,0:0:0:0:
256,192,67394,1,0,0:0:0:0:
256,192,68054,1,8,0:0:0:0:
256,192,68713,1,0,0:0:0:0:
256,192,69043,1,0,0:0:0:0:
256,192,69372,1,8,0:0:0:0:
256,192,70032,1,0,0:0:0:0:
256,192,70691,1,8,0:0:0:0:
256,192,71350,1,0,0:0:0:0:
256,192,71680,1,0,0:0:0:0:
256,192,72010,1,8,0:0:0:0:
256,192,72669,1,8,0:0:0:0:
256,192,73328,1,0,0:0:0:0:
256,192,73988,1,0,0:0:0:0:
256,192,74318,1,8,0:0:0:0:
256,192,75307,1,8,0:0:0:0:
256,192,75966,1,0,0:0:0:0:
256,192,76626,1,0,0:0:0:0:
256,192,76955,1,0,0:0:0:0:
256,192,77285,1,8,0:0:0:0:
256,192,77944,1,0,0:0:0:0:
256,192,78604,1,8,0:0:0:0:
256,192,79263,1,0,0:0:0:0:
256,192,79592,1,0,0:0:0:0:
256,192,79922,1,8,0:0:0:0:
256,192,80582,1,8,0:0:0:0:
256,192,81240,1,0,0:0:0:0:
256,192,81900,1,0,0:0:0:0:
256,192,82229,1,8,0:0:0:0:
256,192,82559,1,0,0:0:0:0:
256,192,83218,1,8,0:0:0:0:
256,192,83548,1,0,0:0:0:0:
256,192,84538,1,4,0:0:0:0:
256,192,85196,1,8,0:0:0:0:
256,192,85856,1,0,0:0:0:0:
256,192,86185,1,0,0:0:0:0:
256,192,86515,1,12,0:0:0:0:
256,192,87174,1,8,0:0:0:0:
256,192,87834,1,4,0:0:0:0:
256,192,88823,1,0,0:0:0:0:
256,192,89152,1,0,0:0:0:0:
256,192,89482,1,12,0:0:0:0:
256,192,90142,1,0,0:0:0:0:
256,192,90471,1,8,0:0:0:0:
256,192,90801,1,0,0:0:0:0:
256,192,91131,1,8,0:0:0:0:
256,192,91790,1,0,0:0:0:0:
256,192,92449,1,8,0:0:0:0:
256,192,93109,1,8,0:0:0:0:
256,192,93768,1,0,0:0:0:0:
256,192,94098,1,0,0:0:0:0:
256,192,94427,1,8,0:0:0:0:
256,192,94757,1,8,0:0:0:0:
256,192,95746,1,8,0:0:0:0:
256,192,96405,1,0,0:0:0:0:
256,192,96735,1,0,0:0:0:0:
256,192,97065,1,8,0:0:0:0:
256,192,97394,1,8,0:0:0:0:
256,192,97724,1,0,0:0:0:0:
256,192,98383,1,0,0:0:0:0:
256,192,98713,1,8,0:0:0:0:
256,192,99043,1,8,0:0:0:0:
256,192,100032,1,0,0:0:0:0:
256,192,100361,1,8,0:0:0:0:
256,192,101021,1,0,0:0:0:0:
256,192,101350,1,8,0:0:0:0:
256,192,101680,1,0,0:0:0:0:
256,192,102010,1,8,0:0:0:0:
256,192,102669,1,8,0:0:0:0:
256,192,102999,1,0,0:0:0:0:
256,192,103658,1,0,0:0:0:0:
256,192,103988,1,0,0:0:0:0:
256,192,104317,1,8,0:0:0:0:
256,192,104977,1,0,0:0:0:0:
256,192,105306,1,8,0:0:0:0:
256,192,105636,1,4,0:0:0:0:
256,192,105966,1,8,0:0:0:0:
256,192,106955,1,0,0:0:0:0:
256,192,107284,1,0,0:0:0:0:
256,192,107614,1,8,0:0:0:0:
256,192,108273,1,0,0:0:0:0:
256,192,108603,1,8,0:0:0:0:
256,192,109592,1,8,0:0:0:0:
256,192,109922,1,8,0:0:0:0:
256,192,110251,1,0,0:0:0:0:
256,192,110911,1,0,0:0:0:0:
256,192,111240,1,8,0:0:0:0:
256,192,111900,1,8,0:0:0:0:
256,192,112229,1,0,0:0:0:0:
256,192,112889,1,8,0:0:0:0:
256,192,113218,1,0,0:0:0:0:
256,192,113548,1,8,0:0:0:0:
256,192,114207,1,8,0:0:0:0:
256,192,114867,1,0,0:0:0:0:
256,192,115196,1,0,0:0:0:0:
256,192,115526,1,8,0:0:0:0:
256,192,116185,1,0,0:0:0:0:
256,192,116515,1,8,0:0:0:0:
256,192,117504,1,0,0:0:0:0:
256,192,118163,1,8,0:0:0:0:
256,192,118823,1,0,0:0:0:0:
256,192,119152,1,0,0:0:0:0:
256,192,119482,1,8,0:0:0:0:
256,192,120142,1,8,0:0:0:0:
256,192,120471,1,8,0:0:0:0:
256,192,120801,1,0,0:0:0:0:
256,192,121131,1,0,0:0:0:0:
256,192,121460,1,8,0:0:0:0:
256,192,122449,1,8,0:0:0:0:
256,192,122778,1,0,0:0:0:0:
256,192,123108,1,8,0:0:0:0:
256,192,123767,1,8,0:0:0:0:
256,192,124097,1,8,0:0:0:0:
256,192,124427,1,0,0:0:0:0:
256,192,124756,1,0,0:0:0:0:
256,192,125087,1,8,0:0:0:0:
256,192,125416,1,0,0:0:0:0:
256,192,126076,1,0,0:0:0:0:
256,192,126735,1,12,0:0:0:0:
256,192,127724,1,8,0:0:0:0:
256,192,128383,1,0,0:0:0:0:
256,192,128713,1,8,0:0:0:0:
256,192,129043,1,8,0:0:0:0:
256,192,129372,1,0,0:0:0:0:
256,192,130361,1,8,0:0:0:0:
256,192,130691,1,0,0:0:0:0:
256,192,131021,1,8,0:0:0:0:
256,192,131680,1,8,0:0:0:0:
256,192,132010,1,0,0:0:0:0:
256,192,132339,1,8,0:0:0:0:
256,192,132669,1,0,0:0:0:0:
256,192,132999,1,8,0:0:0:0:
256,192,133658,1,0,0:0:0:0:
256,192,134317,1,8,0:0:0:0:
256,192,134647,1,0,0:0:0:0:
256,192,135306,1,8,0:0:0:0:
256,192,135966,1,0,0:0:0:0:
256,192,136295,1,0,0:0:0:0:
256,192,136625,1,8,0:0:0:0:
256,192,137284,1,0,0:0:0:0:
256,192,138273,1,8,0:0:0:0:
256,192,138603,1,0,0:0:0:0:
256,192,138933,1,8,0:0:0:0:
256,192,139262,1,8,0:0:0:0:
256,192,139592,1,8,0:0:0:0:
256,192,139922,1,0,0:0:0:0:
256,192,140581,1,0,0:0:0:0:
256,192,140911,1,8,0:0:0:0:
256,192,141570,1,8,0:0:0:0:
256,192,141900,1,0,0:0:0:0:
256,192,142229,1,0,0:0:0:0:
256,192,142559,1,8,0:0:0:0:
256,192,142889,1,4,0:0:0:0:
256,192,143878,1,0,0:0:0:0:
256,192,144207,1,12,0:0:0:0:
256,192,144867,1,8,0:0:0:0:
256,192,145196,1,0,0:0:0:0:
256,192,145526,1,8,0:0:0:0:
256,192,146185,1,8,0:0:0:0:
256,192,146515,1,0,0:0:0:0:
256,192,146845,1,0,0:0:0:0:
256,192,147174,1,8,0:0:0:0:
256,192,147504,1,8,0:0:0:0:
256,192,147834,1,4,0:0:0:0:
256,192,148163,1,8,0:0:0:0:
256,192,149152,1,8,0:0:0:0:
256,192,149482,1,8,0:0:0:0:
256,192,149812,1,0,0:0:0:0:
256,192,150471,1,0,0:0:0:0:
256,192,150801,1,8,0:0:0:0:
256,192,151460,1,8,0:0:0:0:
256,192,151790,1,0,0:0:0:0:
256,192,152120,1,0,0:0:0:0:
256,192,152449,1,8,0:0:0:0:
256,192,152779,1,8,0:0:0:0:
256,192,153109,1,0,0:0:0:0:
256,192,154098,1,8,0:0:0:0:
256,192,154427,1,0,0:0:0:0:
256,192,155087,1,0,0:0:0:0:
256,192,155416,1,8,0:0:0:0:
256,192,155746,1,8,0:0:0:0:
256,192,156405,1,0,0:0:0:0:
256,192,157065,1,8,0:0:0:0:
256,192,157394,1,0,0:0:0:0:
256,192,157724,1,8,0:0:0:0:
256,192,158054,1,8,0:0:0:0:
256,192,158383,1,0,0:0:0:0:
256,192,158713,1,8,0:0:0:0:
256,192,159702,1,0,0:0:0:0:
256,192,160032,1,0,0:0:0:0:
256,192,160361,1,8,0:0:0:0:
256,192,161021,1,8,0:0:0:0:
256,192,161350,1,0,0:0:0:0:
256,192,161680,1,8,0:0:0:0:
256,192,162010,1,8,0:0:0:0:
256,192,162339,1,0,0:0:0:0:
256,192,162999,1,0,0:0:0:0:
256,192,163328,1,8,0:0:0:0:
256,192,163658,1,0,0:0:0:0:
256,192,164647,1,8,0:0:0:0:
256,192,164977,1,0,0:0:0:0:
256,192,165636,1,8,0:0:0:0:
256,192,165966,1,8,0:0:0:0:
256,192,166295,1,8,0:0:0:0:
256,192,166955,1,0,0:0:0:0:
256,192,167284,1,0,0:0:0:0:
256,192,167614,1,0,0:0:0:0:
256,192,168603,1,0,0:0:0:0:
256,192,168933,1,12,0:0:0:0:
256,192,169922,1,8,0:0:0:0:
256,192,170251,1,0,0:0:0:0:
256,192,170581,1,8,0:0:0:0:
256,192,170911,1,8,0:0:0:0:
256,192,171570,1,0,0:0:0:0:
256,192,172229,1,8,0:0:0:0:
256,192,172559,1,8,0:0:0:0:
256,192,172889,1,0,0:0:0:0:
256,192,173218,1,0,0:0:0:0:
256,192,173548,1,8,0:0:0:0:
256,192,174207,1,0,0:0:0:0:
256,192,175196,1,8,0:0:0:0:
256,192,175526,1,0,0:0:0:0:
256,192,175856,1,0,0:0:0:0:
256,192,176185,1,8,0:0:0:0:
256,192,176845,1,0,0:0:0:0:
256,192,177174,1,8,0:0:0:0:
256,192,177504,1,8,0:0:0:0:
256,192,178163,1,0,0:0:0:0:
256,192,178493,1,0,0:0:0:0:
256,192,178823,1,8,0:0:0:0:
256,192,179152,1,8,0:0:0:0:
256,192,179482,1,0,0:0:0:0:
256,192,180471,1,8,0:0:0:0:
256,192,180801,1,0,0:0:0:0:
256,192,181460,1,0,0:0:0:0:
256,192,181790,1,8,0:0:0:0:
256,192,182120,1,0,0:0:0:0:
256,192,182779,1,0,0:0:0:0:
256,192,183109,1,0,0:0:0:0:
256,192,183438,1,8,0:0:0:0:
256,192,183768,1,8,0:0:0:0:
256,192,184098,1,0,0:0:0:0:
256,192,184757,1,8,0:0:0:0:
256,192,185746,1,8,0:0:0:0:
256,192,186076,1,0,0:0:0:0:
256,192,186735,1,0,0:0:0:0:
256,192,187065,1,8,0:0:0:0:
256,192,187394,1,0,0:0:0:0:
256,192,188054,1,0,0:0:0:0:
256,192,188383,1,0,0:0:0:0:
256,192,188713,1,8,0:0:0:0:
256,192,189043,1,8,0:0:0:0:
256,192,189372,1,0,0:0:0:0:
256,192,189702,1,0,0:0:0:0:
256,192,190032,1,8,0:0:0:0:
256,192,192669,5,8,0:0:0:0:
256,192,195306,1,0,0:0:0:0:
256,192,197944,1,8,0:0:0:0:
256,192,200581,1,0,0:0:0:0:
256,192,203218,1,0,0:0:0:0:
256,192,203548,1,0,0:0:0:0:
256,192,203878,1,8,0:0:0:0:
256,192,204537,1,8,0:0:0:0:
256,192,205196,1,0,0:0:0:0:
256,192,205856,1,0,0:0:0:0:
256,192,206185,1,0,0:0:0:0:
256,192,206515,1,8,0:0:0:0:
256,192,207174,1,0,0:0:0:0:
256,192,208493,1,0,0:0:0:0:
256,192,208823,1,0,0:0:0:0:
256,192,209152,1,8,0:0:0:0:
256,192,209812,1,8,0:0:0:0:
256,192,210471,1,0,0:0:0:0:
256,192,211131,1,8,0:0:0:0:
256,192,211460,1,0,0:0:0:0:
256,192,211790,1,8,0:0:0:0:
256,192,212449,1,0,0:0:0:0:
256,192,213109,1,8,0:0:0:0:
256,192,213768,5,0,0:0:0:0:
256,192,216405,1,8,0:0:0:0:
256,192,216735,12,0,221680,0:0:0:0:
