osu file format v14

[General]
AudioFilename: audio.mp3
AudioLeadIn: 0
PreviewTime: 105636
Countdown: 0
SampleSet: Normal
StackLeniency: 0.7
Mode: 1
LetterboxInBreaks: 0
WidescreenStoryboard: 1

[Editor]
Bookmarks: 21240,42339,63438,84537,203218
DistanceSpacing: 0.8
BeatDivisor: 16
GridSize: 8
TimelineZoom: 2.599999

[Metadata]
Title:The Bridgeport Run
TitleUnicode:The Bridgeport Run
Artist:The Flashbulb
ArtistUnicode:The Flashbulb
Creator:Faputa
Version:Hell Oni
Source:
Tags:benn jordan idm intelligent dance music osu! Featured Artist FA Mappers' Guild MG Hardscrabble Breakcore Electronic Instrumental
BeatmapID:3301943
BeatmapSetID:1215016

[Difficulty]
HPDrainRate:5.5
CircleSize:2
OverallDifficulty:6.5
ApproachRate:10
SliderMultiplier:1.4
SliderTickRate:1

[Events]
//Background and Video events
0,0,"BG.jpg",0,0
//Break Periods
2,191413,192219
//Storyboard Layer 0 (Background)
//Storyboard Layer 1 (Fail)
//Storyboard Layer 2 (Pass)
//Storyboard Layer 3 (Foreground)
//Storyboard Layer 4 (Overlay)
//Storyboard Sound Samples

[TimingPoints]
142,329.67032967033,4,1,0,85,1,0
42174,-95.2380952380952,4,1,0,95,0,0
63603,-100,4,1,0,85,0,0
84372,-90.9090909090909,4,1,0,95,0,0
105636,-90.9090909090909,4,1,0,90,0,1
105718,-100,4,1,0,90,0,1
125416,-100,4,1,0,90,0,0
125499,-98.7717730027113,4,1,0,90,0,0
125581,-97.5733507664387,4,1,0,90,0,0
125663,-96.4035684744906,4,1,0,90,0,0
125746,-95.261593097726,4,1,0,90,0,0
125828,-94.1463561594312,4,1,0,90,0,0
125911,-93.0569294377221,4,1,0,90,0,0
125993,-91.9923425574055,4,1,0,90,0,0
126076,-90.9519209955233,4,1,0,90,0,0
126240,-88.9401183970856,4,1,0,90,0,0
126282,-88.4509583661339,4,1,0,90,0,0
126405,-87.0153138250801,4,1,0,90,0,0
126735,-83.4053399434845,4,1,0,95,0,0
128713,-83.3333333333333,4,1,0,95,0,0
128878,-84.8909406086001,4,1,0,95,0,0
128919,-85.2895195385496,4,1,0,95,0,0
129043,-86.5079591647829,4,1,0,95,0,0
129084,-86.9218285918925,4,1,0,95,0,0
129207,-88.1876986979086,4,1,0,95,0,0
129290,-89.0522701204699,4,1,0,95,0,0
129372,-89.9339614920764,4,1,0,95,0,0
129455,-90.8333689097362,4,1,0,95,0,0
130279,-90.0900900900901,4,1,0,95,0,0
130361,-89.2857142857143,4,1,0,95,0,0
130444,-88.4955752212389,4,1,0,95,0,0
130526,-87.0337168619123,4,1,0,95,0,0
130609,-85.2174194631473,4,1,0,95,0,0
130691,-83.4753109246644,4,1,0,95,0,0
141900,-83.3333333333333,4,1,0,95,0,0
141941,-83.91606044306,4,1,0,95,0,0
142065,-85.7142612244968,4,1,0,95,0,0
142120,-86.5384282544507,4,1,0,95,0,0
142174,-87.3786747101649,4,1,0,95,0,0
142229,-88.2353200692118,4,1,0,95,0,0
142394,-90.9090909090909,4,1,0,95,0,0
142559,-83.4753109246644,4,1,0,95,0,0
147834,-90.9090909090909,4,1,0,90,0,1
147916,-100,4,1,0,90,0,1
167449,-95.2380952380952,4,1,0,90,0,1
167614,-90.9090909090909,4,1,0,90,0,0
167696,-90.3980951313394,4,1,0,90,0,0
167779,-89.8928926184451,4,1,0,90,0,0
167861,-89.3932256025774,4,1,0,90,0,0
167944,-88.8991616809054,4,1,0,90,0,0
168026,-88.4104508225708,4,1,0,90,0,0
168109,-87.9270838279232,4,1,0,90,0,0
168191,-87.4490499972454,4,1,0,90,0,0
168273,-86.9761102717917,4,1,0,90,0,0
168438,-86.0454870862933,4,1,0,90,0,0
168521,-85.5875672076372,4,1,0,90,0,0
168603,-85.1345679548378,4,1,0,90,0,0
168644,-84.9098257650375,4,1,0,90,0,0
168768,-84.2426626746877,4,1,0,90,0,0
168933,-83.3693210902706,4,1,0,95,0,1
179482,-83.3333333333333,4,1,0,95,0,0
179647,-80,4,1,0,95,0,0
184262,-87.719298245614,4,1,0,95,0,0
184317,-86.2068965517241,4,1,0,95,0,0
184427,-84.5396435977705,4,1,0,95,0,0
184510,-83.3809299475117,4,1,0,95,0,0
184592,-82.253549857578,4,1,0,95,0,0
184633,-81.7011486364487,4,1,0,95,0,0
184757,-80.0877762027182,4,1,0,95,0,0
189372,-80,4,1,0,95,0,0
189455,-78.8297254281834,4,1,0,95,0,0
189537,-77.6932561476731,4,1,0,95,0,0
189620,-76.5890309189918,4,1,0,95,0,0
189702,-75.5157537189621,4,1,0,95,0,0
189784,-74.4721414613222,4,1,0,95,0,0
189867,-73.4570349802401,4,1,0,95,0,0
189949,-72.4691770472724,4,1,0,95,0,0
190032,-71.4285714285714,4,1,0,95,0,0
190087,-72.992700729927,4,1,0,95,0,0
190196,-74.4680930285205,4,1,0,95,0,0
190251,-75.5395411728269,4,1,0,95,0,0
190306,-76.6423301720927,4,1,0,95,0,0
190361,-77.7777950617322,4,1,0,95,0,0
190485,-80.459779363193,4,1,0,95,0,0
190636,-84.0000134400021,4,1,0,95,0,0
190801,-88.6076285851754,4,1,0,95,0,0
190993,-93.7499707031342,4,1,0,95,0,0
191185,-100,4,1,0,95,0,0
191350,-111.111111111111,4,1,0,70,0,0
192504,-133.333333333333,4,1,0,70,0,0
203054,-100,4,1,0,85,0,0
213685,-100,4,1,0,80,0,0
214757,-111.111111111111,4,1,0,75,0,0
216240,-111.111111111111,4,1,0,70,0,0
216488,-111.111111111111,4,1,0,35,0,0
217559,-111.111111111111,4,1,0,25,0,0
218878,-111.111111111111,4,1,0,15,0,0
220196,-111.111111111111,4,1,0,5,0,0

[HitObjects]
256,192,142,5,0,0:0:0:0:
256,192,471,1,0,0:0:0:0:
256,192,801,1,8,0:0:0:0:
256,192,966,1,8,0:0:0:0:
256,192,1295,1,0,0:0:0:0:
256,192,1378,1,0,0:0:0:0:
256,192,1460,1,8,0:0:0:0:
256,192,1790,1,0,0:0:0:0:
256,192,1872,1,0,0:0:0:0:
256,192,1955,1,8,0:0:0:0:
256,192,2284,1,0,0:0:0:0:
256,192,2367,1,0,0:0:0:0:
256,192,2449,1,8,0:0:0:0:
256,192,2779,1,0,0:0:0:0:
256,192,3109,1,0,0:0:0:0:
256,192,3438,1,0,0:0:0:0:
256,192,3603,1,8,0:0:0:0:
256,192,3933,1,0,0:0:0:0:
256,192,4015,1,0,0:0:0:0:
256,192,4098,1,8,0:0:0:0:
256,192,4427,1,0,0:0:0:0:
256,192,4510,1,0,0:0:0:0:
256,192,4592,1,8,0:0:0:0:
256,192,4922,1,0,0:0:0:0:
256,192,5004,1,0,0:0:0:0:
256,192,5087,1,8,0:0:0:0:
256,192,5416,1,0,0:0:0:0:
256,192,5746,1,0,0:0:0:0:
256,192,6076,1,8,0:0:0:0:
256,192,6240,1,8,0:0:0:0:
256,192,6570,1,0,0:0:0:0:
256,192,6652,1,0,0:0:0:0:
256,192,6735,1,8,0:0:0:0:
256,192,7065,1,0,0:0:0:0:
256,192,7147,1,0,0:0:0:0:
256,192,7229,1,8,0:0:0:0:
256,192,7559,1,0,0:0:0:0:
256,192,7642,1,0,0:0:0:0:
256,192,7724,1,8,0:0:0:0:
256,192,8054,1,0,0:0:0:0:
256,192,8383,1,0,0:0:0:0:
256,192,8713,1,0,0:0:0:0:
256,192,8878,1,8,0:0:0:0:
256,192,9207,1,0,0:0:0:0:
256,192,9290,1,0,0:0:0:0:
256,192,9372,1,8,0:0:0:0:
256,192,9702,1,0,0:0:0:0:
256,192,9784,1,0,0:0:0:0:
256,192,9867,1,8,0:0:0:0:
256,192,10196,1,0,0:0:0:0:
256,192,10279,1,0,0:0:0:0:
256,192,10361,1,8,0:0:0:0:
256,192,10526,1,0,0:0:0:0:
256,192,10691,1,8,0:0:0:0:
256,192,10938,1,8,0:0:0:0:
256,192,11021,1,0,0:0:0:0:
256,192,11350,1,8,0:0:0:0:
256,192,11515,1,8,0:0:0:0:
256,192,11845,1,8,0:0:0:0:
256,192,11927,1,8,0:0:0:0:
256,192,12010,1,0,0:0:0:0:
256,192,12339,1,8,0:0:0:0:
256,192,12422,1,8,0:0:0:0:
256,192,12504,1,0,0:0:0:0:
256,192,12834,1,8,0:0:0:0:
256,192,12916,1,8,0:0:0:0:
256,192,12999,1,0,0:0:0:0:
256,192,13328,1,8,0:0:0:0:
256,192,13576,1,8,0:0:0:0:
256,192,13658,1,0,0:0:0:0:
256,192,13905,1,0,0:0:0:0:
256,192,13988,1,8,0:0:0:0:
256,192,14152,1,8,0:0:0:0:
256,192,14482,1,0,0:0:0:0:
256,192,14565,1,0,0:0:0:0:
256,192,14647,1,8,0:0:0:0:
256,192,14977,1,0,0:0:0:0:
256,192,15059,1,0,0:0:0:0:
256,192,15142,1,8,0:0:0:0:
256,192,15471,1,0,0:0:0:0:
256,192,15554,1,0,0:0:0:0:
256,192,15636,1,8,0:0:0:0:
256,192,15966,1,0,0:0:0:0:
256,192,16213,1,8,0:0:0:0:
256,192,16295,1,0,0:0:0:0:
256,192,16625,1,8,0:0:0:0:
256,192,16790,1,8,0:0:0:0:
256,192,17120,1,8,0:0:0:0:
256,192,17202,1,8,0:0:0:0:
256,192,17284,1,0,0:0:0:0:
256,192,17614,1,8,0:0:0:0:
256,192,17696,1,8,0:0:0:0:
256,192,17779,1,0,0:0:0:0:
256,192,18109,1,8,0:0:0:0:
256,192,18191,1,8,0:0:0:0:
256,192,18273,1,0,0:0:0:0:
256,192,18603,1,0,0:0:0:0:
256,192,18850,1,8,0:0:0:0:
256,192,18933,1,0,0:0:0:0:
256,192,19180,1,0,0:0:0:0:
256,192,19262,1,8,0:0:0:0:
256,192,19427,1,8,0:0:0:0:
256,192,19757,1,0,0:0:0:0:
256,192,19839,1,0,0:0:0:0:
256,192,19922,1,8,0:0:0:0:
256,192,20251,1,0,0:0:0:0:
256,192,20334,1,0,0:0:0:0:
256,192,20416,1,8,0:0:0:0:
256,192,20746,1,0,0:0:0:0:
256,192,20828,1,0,0:0:0:0:
256,192,20911,1,8,0:0:0:0:
256,192,21240,1,4,0:0:0:0:
256,192,21488,1,8,0:0:0:0:
256,192,21570,1,0,0:0:0:0:
256,192,21900,1,8,0:0:0:0:
256,192,22065,1,8,0:0:0:0:
256,192,22229,1,0,0:0:0:0:
256,192,22394,1,8,0:0:0:0:
256,192,22477,1,8,0:0:0:0:
256,192,22559,1,0,0:0:0:0:
256,192,22724,1,8,0:0:0:0:
256,192,22889,1,0,0:0:0:0:
256,192,22971,1,8,0:0:0:0:
256,192,23218,1,0,0:0:0:0:
256,192,23383,1,8,0:0:0:0:
256,192,23466,1,8,0:0:0:0:
256,192,23548,1,8,0:0:0:0:
256,192,23713,1,0,0:0:0:0:
256,192,23878,1,8,0:0:0:0:
256,192,24125,1,0,0:0:0:0:
256,192,24207,1,8,0:0:0:0:
256,192,24455,1,0,0:0:0:0:
256,192,24537,1,8,0:0:0:0:
256,192,24702,1,8,0:0:0:0:
256,192,25032,1,8,0:0:0:0:
256,192,25114,1,8,0:0:0:0:
256,192,25196,1,0,0:0:0:0:
256,192,25361,1,8,0:0:0:0:
256,192,25526,1,8,0:0:0:0:
256,192,25609,1,8,0:0:0:0:
256,192,25691,1,0,0:0:0:0:
256,192,25856,1,8,0:0:0:0:
256,192,26021,1,0,0:0:0:0:
256,192,26103,1,0,0:0:0:0:
256,192,26185,1,8,0:0:0:0:
256,192,26515,1,0,0:0:0:0:
256,192,26762,1,8,0:0:0:0:
256,192,26845,1,0,0:0:0:0:
256,192,27174,1,8,0:0:0:0:
256,192,27339,1,8,0:0:0:0:
256,192,27504,1,0,0:0:0:0:
256,192,27669,1,8,0:0:0:0:
256,192,27751,1,8,0:0:0:0:
256,192,27834,1,0,0:0:0:0:
256,192,27999,1,8,0:0:0:0:
256,192,28163,1,0,0:0:0:0:
256,192,28246,1,8,0:0:0:0:
256,192,28493,1,0,0:0:0:0:
256,192,28658,1,8,0:0:0:0:
256,192,28740,1,8,0:0:0:0:
256,192,28823,1,8,0:0:0:0:
256,192,28988,1,0,0:0:0:0:
256,192,29152,1,8,0:0:0:0:
256,192,29400,1,0,0:0:0:0:
256,192,29482,1,8,0:0:0:0:
256,192,29729,1,0,0:0:0:0:
256,192,29812,1,8,0:0:0:0:
256,192,29977,1,8,0:0:0:0:
256,192,30307,1,8,0:0:0:0:
256,192,30389,1,8,0:0:0:0:
256,192,30471,1,0,0:0:0:0:
256,192,30636,1,8,0:0:0:0:
256,192,30801,1,8,0:0:0:0:
256,192,30884,1,8,0:0:0:0:
256,192,30966,1,0,0:0:0:0:
256,192,31131,1,8,0:0:0:0:
256,192,31296,1,0,0:0:0:0:
256,192,31378,1,0,0:0:0:0:
256,192,31460,1,8,0:0:0:0:
256,192,31790,1,0,0:0:0:0:
256,192,31872,1,0,0:0:0:0:
256,192,32037,1,8,0:0:0:0:
256,192,32120,1,8,0:0:0:0:
256,192,32202,1,0,0:0:0:0:
256,192,32449,1,8,0:0:0:0:
256,192,32614,1,8,0:0:0:0:
256,192,32944,1,8,0:0:0:0:
256,192,33026,1,8,0:0:0:0:
256,192,33109,1,0,0:0:0:0:
256,192,33273,1,0,0:0:0:0:
256,192,33356,1,0,0:0:0:0:
256,192,33438,1,8,0:0:0:0:
256,192,33521,1,8,0:0:0:0:
256,192,33603,1,0,0:0:0:0:
256,192,33768,1,0,0:0:0:0:
256,192,33850,1,0,0:0:0:0:
256,192,33933,1,8,0:0:0:0:
256,192,34015,1,0,0:0:0:0:
256,192,34098,1,8,0:0:0:0:
256,192,34262,1,0,0:0:0:0:
256,192,34345,1,8,0:0:0:0:
256,192,34427,1,0,0:0:0:0:
256,192,34510,1,0,0:0:0:0:
256,192,34674,1,8,0:0:0:0:
256,192,34757,1,8,0:0:0:0:
256,192,34839,1,0,0:0:0:0:
256,192,35004,1,0,0:0:0:0:
256,192,35087,1,8,0:0:0:0:
256,192,35251,1,8,0:0:0:0:
256,192,35581,1,8,0:0:0:0:
256,192,35663,1,8,0:0:0:0:
256,192,35746,1,0,0:0:0:0:
256,192,35828,1,0,0:0:0:0:
256,192,35911,1,8,0:0:0:0:
256,192,36076,1,8,0:0:0:0:
256,192,36158,1,8,0:0:0:0:
256,192,36240,1,0,0:0:0:0:
256,192,36323,1,0,0:0:0:0:
256,192,36405,1,0,0:0:0:0:
256,192,36570,1,8,0:0:0:0:
256,192,36652,1,8,0:0:0:0:
256,192,36735,1,8,0:0:0:0:
256,192,36900,1,0,0:0:0:0:
256,192,37065,1,8,0:0:0:0:
256,192,37147,1,8,0:0:0:0:
256,192,37312,1,0,0:0:0:0:
256,192,37394,1,0,0:0:0:0:
256,192,37477,1,8,0:0:0:0:
256,192,37724,1,8,0:0:0:0:
256,192,37889,1,8,0:0:0:0:
256,192,38218,1,0,0:0:0:0:
256,192,38301,1,0,0:0:0:0:
256,192,38383,1,8,0:0:0:0:
256,192,38548,1,0,0:0:0:0:
256,192,38631,1,0,0:0:0:0:
256,192,38713,1,8,0:0:0:0:
256,192,38795,1,8,0:0:0:0:
256,192,38878,1,0,0:0:0:0:
256,192,39043,1,8,0:0:0:0:
256,192,39125,1,8,0:0:0:0:
256,192,39207,1,0,0:0:0:0:
256,192,39290,1,0,0:0:0:0:
256,192,39372,1,8,0:0:0:0:
256,192,39537,1,0,0:0:0:0:
256,192,39620,1,0,0:0:0:0:
256,192,39702,1,8,0:0:0:0:
256,192,39784,1,0,0:0:0:0:
256,192,39867,1,8,0:0:0:0:
256,192,39908,1,8,0:0:0:0:
256,192,40032,1,0,0:0:0:0:
256,192,40114,1,0,0:0:0:0:
256,192,40361,1,0,0:0:0:0:
256,192,40402,1,0,0:0:0:0:
256,192,40526,1,8,0:0:0:0:
256,192,40567,1,8,0:0:0:0:
256,192,40691,1,8,0:0:0:0:
256,192,40856,1,0,0:0:0:0:
256,192,41021,1,8,0:0:0:0:
256,192,41103,1,8,0:0:0:0:
256,192,41185,1,8,0:0:0:0:
256,192,41268,1,8,0:0:0:0:
256,192,41350,1,0,0:0:0:0:
256,192,41433,1,0,0:0:0:0:
256,192,41515,1,0,0:0:0:0:
256,192,41598,1,0,0:0:0:0:
256,192,41680,1,8,0:0:0:0:
256,192,41762,1,8,0:0:0:0:
256,192,41845,1,0,0:0:0:0:
256,192,41927,1,0,0:0:0:0:
256,192,42010,1,8,0:0:0:0:
256,192,42339,1,4,0:0:0:0:
256,192,42669,1,0,0:0:0:0:
256,192,42710,1,0,0:0:0:0:
256,192,42999,1,8,0:0:0:0:
256,192,43040,1,8,0:0:0:0:
256,192,43163,1,8,0:0:0:0:
256,192,43328,1,0,0:0:0:0:
256,192,43383,1,0,0:0:0:0:
256,192,43438,1,0,0:0:0:0:
256,192,43493,1,8,0:0:0:0:
256,192,43576,1,8,0:0:0:0:
256,192,43658,1,0,0:0:0:0:
256,192,43823,1,8,0:0:0:0:
256,192,43864,1,8,0:0:0:0:
256,192,43988,1,8,0:0:0:0:
256,192,44029,1,8,0:0:0:0:
256,192,44152,1,0,0:0:0:0:
256,192,44317,1,8,0:0:0:0:
256,192,44359,1,8,0:0:0:0:
256,192,44482,1,0,0:0:0:0:
256,192,44565,1,0,0:0:0:0:
256,192,44647,1,8,0:0:0:0:
256,192,44688,1,8,0:0:0:0:
256,192,44812,1,0,0:0:0:0:
256,192,44977,1,12,0:0:0:0:
256,192,45306,1,12,0:0:0:0:
256,192,45636,1,0,0:0:0:0:
256,192,45718,1,0,0:0:0:0:
256,192,45801,1,8,0:0:0:0:
256,192,45883,1,8,0:0:0:0:
256,192,45966,1,0,0:0:0:0:
256,192,46131,1,8,0:0:0:0:
256,192,46172,1,8,0:0:0:0:
256,192,46295,1,0,0:0:0:0:
256,192,46460,1,8,0:0:0:0:
256,192,46515,1,8,0:0:0:0:
256,192,46570,1,8,0:0:0:0:
256,192,46625,1,0,0:0:0:0:
256,192,46707,1,0,0:0:0:0:
256,192,46790,1,8,0:0:0:0:
256,192,46872,1,0,0:0:0:0:
256,192,46955,1,8,0:0:0:0:
256,192,47037,1,8,0:0:0:0:
256,192,47120,1,0,0:0:0:0:
256,192,47284,1,0,0:0:0:0:
256,192,47339,1,0,0:0:0:0:
256,192,47394,1,0,0:0:0:0:
256,192,47449,1,8,0:0:0:0:
256,192,47532,1,8,0:0:0:0:
256,192,47614,1,0,0:0:0:0:
256,192,47779,1,8,0:0:0:0:
256,192,47820,1,8,0:0:0:0:
256,192,47944,1,0,0:0:0:0:
256,192,48109,1,0,0:0:0:0:
256,192,48150,1,0,0:0:0:0:
256,192,48273,1,8,0:0:0:0:
256,192,48315,1,8,0:0:0:0:
256,192,48438,1,8,0:0:0:0:
256,192,48603,1,0,0:0:0:0:
256,192,48685,1,0,0:0:0:0:
256,192,48768,1,0,0:0:0:0:
256,192,48850,1,0,0:0:0:0:
256,192,48933,1,0,0:0:0:0:
256,192,49015,1,0,0:0:0:0:
256,192,49098,1,8,0:0:0:0:
256,192,49262,1,8,0:0:0:0:
256,192,49427,1,8,0:0:0:0:
256,192,49510,1,8,0:0:0:0:
256,192,49592,1,0,0:0:0:0:
256,192,49674,1,0,0:0:0:0:
256,192,49757,1,8,0:0:0:0:
256,192,49839,1,8,0:0:0:0:
256,192,49922,1,0,0:0:0:0:
256,192,50004,1,8,0:0:0:0:
256,192,50087,1,0,0:0:0:0:
256,192,50169,1,8,0:0:0:0:
256,192,50251,1,0,0:0:0:0:
256,192,50416,1,8,0:0:0:0:
256,192,50457,1,8,0:0:0:0:
256,192,50581,1,8,0:0:0:0:
256,192,50746,1,0,0:0:0:0:
256,192,50828,1,0,0:0:0:0:
256,192,50911,1,8,0:0:0:0:
256,192,50952,1,8,0:0:0:0:
256,192,51076,1,8,0:0:0:0:
256,192,51117,1,8,0:0:0:0:
256,192,51240,1,0,0:0:0:0:
256,192,51570,1,8,0:0:0:0:
256,192,51652,1,8,0:0:0:0:
256,192,51735,1,0,0:0:0:0:
256,192,51900,1,0,0:0:0:0:
256,192,51982,1,8,0:0:0:0:
256,192,52065,1,0,0:0:0:0:
256,192,52229,1,8,0:0:0:0:
256,192,52271,1,8,0:0:0:0:
256,192,52394,1,0,0:0:0:0:
256,192,52477,1,0,0:0:0:0:
256,192,52559,1,8,0:0:0:0:
256,192,52642,1,8,0:0:0:0:
256,192,52724,1,0,0:0:0:0:
256,192,52889,1,0,0:0:0:0:
256,192,52930,1,0,0:0:0:0:
256,192,53218,1,0,0:0:0:0:
256,192,53383,1,8,0:0:0:0:
256,192,53424,1,8,0:0:0:0:
256,192,53548,1,0,0:0:0:0:
256,192,53631,1,0,0:0:0:0:
256,192,53713,1,8,0:0:0:0:
256,192,53795,1,8,0:0:0:0:
256,192,53878,1,0,0:0:0:0:
256,192,54043,1,8,0:0:0:0:
256,192,54098,1,8,0:0:0:0:
256,192,54152,1,8,0:0:0:0:
256,192,54207,1,0,0:0:0:0:
256,192,54372,1,8,0:0:0:0:
256,192,54413,1,8,0:0:0:0:
256,192,54537,1,8,0:0:0:0:
256,192,54578,1,8,0:0:0:0:
256,192,54702,1,8,0:0:0:0:
256,192,54784,1,8,0:0:0:0:
256,192,54867,1,0,0:0:0:0:
256,192,55032,1,8,0:0:0:0:
256,192,55196,1,12,0:0:0:0:
256,192,55361,1,0,0:0:0:0:
256,192,55526,1,8,0:0:0:0:
256,192,55856,1,0,0:0:0:0:
256,192,55938,1,0,0:0:0:0:
256,192,56021,1,8,0:0:0:0:
256,192,56103,1,8,0:0:0:0:
256,192,56185,1,0,0:0:0:0:
256,192,56268,1,8,0:0:0:0:
256,192,56515,1,8,0:0:0:0:
256,192,56570,1,8,0:0:0:0:
256,192,56625,1,8,0:0:0:0:
256,192,56680,1,0,0:0:0:0:
256,192,56845,1,0,0:0:0:0:
256,192,56927,1,0,0:0:0:0:
256,192,57010,1,8,0:0:0:0:
256,192,57174,1,8,0:0:0:0:
256,192,57257,1,8,0:0:0:0:
256,192,57339,1,8,0:0:0:0:
256,192,57504,1,0,0:0:0:0:
256,192,57669,1,8,0:0:0:0:
256,192,57724,1,8,0:0:0:0:
256,192,57779,1,8,0:0:0:0:
256,192,57834,1,0,0:0:0:0:
256,192,57916,1,0,0:0:0:0:
256,192,57999,1,8,0:0:0:0:
256,192,58081,1,8,0:0:0:0:
256,192,58163,1,0,0:0:0:0:
256,192,58246,1,0,0:0:0:0:
256,192,58328,1,0,0:0:0:0:
256,192,58411,1,0,0:0:0:0:
256,192,58493,1,8,0:0:0:0:
256,192,58823,1,0,0:0:0:0:
256,192,58988,1,8,0:0:0:0:
256,192,59152,1,0,0:0:0:0:
256,192,59235,1,8,0:0:0:0:
256,192,59400,1,8,0:0:0:0:
256,192,59482,1,0,0:0:0:0:
256,192,59647,1,0,0:0:0:0:
256,192,59812,1,8,0:0:0:0:
256,192,59853,1,8,0:0:0:0:
256,192,59977,1,0,0:0:0:0:
256,192,60059,1,0,0:0:0:0:
256,192,60142,1,0,0:0:0:0:
256,192,60224,1,0,0:0:0:0:
256,192,60306,1,8,0:0:0:0:
256,192,60361,1,8,0:0:0:0:
256,192,60416,1,8,0:0:0:0:
256,192,60471,1,0,0:0:0:0:
256,192,60636,1,8,0:0:0:0:
256,192,60677,1,8,0:0:0:0:
256,192,60801,1,0,0:0:0:0:
256,192,60966,1,0,0:0:0:0:
256,192,61007,1,0,0:0:0:0:
256,192,61131,1,8,0:0:0:0:
256,192,61172,1,8,0:0:0:0:
256,192,61378,1,8,0:0:0:0:
256,192,61460,1,0,0:0:0:0:
256,192,61543,1,0,0:0:0:0:
256,192,61625,1,8,0:0:0:0:
256,192,61680,1,8,0:0:0:0:
256,192,61735,1,8,0:0:0:0:
256,192,61790,1,0,0:0:0:0:
256,192,62120,1,0,0:0:0:0:
256,192,62202,1,0,0:0:0:0:
256,192,62284,1,8,0:0:0:0:
256,192,62449,1,8,0:0:0:0:
256,192,62490,1,8,0:0:0:0:
256,192,62614,1,0,0:0:0:0:
256,192,62655,1,0,0:0:0:0:
256,192,62779,1,8,0:0:0:0:
256,192,62861,1,8,0:0:0:0:
256,192,62944,1,0,0:0:0:0:
256,192,63026,1,0,0:0:0:0:
256,192,63109,1,8,0:0:0:0:
256,192,63163,1,8,0:0:0:0:
256,192,63218,1,8,0:0:0:0:
256,192,63273,1,0,0:0:0:0:
256,192,63356,1,0,0:0:0:0:
256,192,63438,1,12,0:0:0:0:
256,192,63685,1,0,0:0:0:0:
256,192,63768,1,0,0:0:0:0:
256,192,63933,1,0,0:0:0:0:
256,192,64015,1,0,0:0:0:0:
256,192,64098,1,8,0:0:0:0:
256,192,64262,1,8,0:0:0:0:
256,192,64427,1,0,0:0:0:0:
256,192,64592,1,8,0:0:0:0:
256,192,64674,1,8,0:0:0:0:
256,192,64757,1,8,0:0:0:0:
256,192,64922,1,0,0:0:0:0:
256,192,65087,1,8,0:0:0:0:
256,192,65169,1,8,0:0:0:0:
256,192,65251,1,8,0:0:0:0:
256,192,65416,1,0,0:0:0:0:
256,192,65581,1,8,0:0:0:0:
256,192,65663,1,8,0:0:0:0:
256,192,65746,1,8,0:0:0:0:
256,192,65911,1,0,0:0:0:0:
256,192,66076,1,0,0:0:0:0:
256,192,66323,1,8,0:0:0:0:
256,192,66405,1,0,0:0:0:0:
256,192,66570,1,8,0:0:0:0:
256,192,66652,1,0,0:0:0:0:
256,192,66735,1,8,0:0:0:0:
256,192,66900,1,8,0:0:0:0:
256,192,67065,1,0,0:0:0:0:
256,192,67229,1,8,0:0:0:0:
256,192,67312,1,0,0:0:0:0:
256,192,67394,1,8,0:0:0:0:
256,192,67559,1,0,0:0:0:0:
256,192,67724,1,8,0:0:0:0:
256,192,67806,1,0,0:0:0:0:
256,192,67889,1,8,0:0:0:0:
256,192,68054,1,0,0:0:0:0:
256,192,68218,1,8,0:0:0:0:
256,192,68301,1,0,0:0:0:0:
256,192,68383,1,8,0:0:0:0:
256,192,68548,1,0,0:0:0:0:
256,192,68713,1,8,0:0:0:0:
256,192,68960,1,0,0:0:0:0:
256,192,69043,1,8,0:0:0:0:
256,192,69207,1,0,0:0:0:0:
256,192,69290,1,0,0:0:0:0:
256,192,69372,1,8,0:0:0:0:
256,192,69537,1,8,0:0:0:0:
256,192,69702,1,0,0:0:0:0:
256,192,69867,1,8,0:0:0:0:
256,192,69949,1,8,0:0:0:0:
256,192,70032,1,8,0:0:0:0:
256,192,70196,1,0,0:0:0:0:
256,192,70361,1,8,0:0:0:0:
256,192,70444,1,8,0:0:0:0:
256,192,70526,1,8,0:0:0:0:
256,192,70691,1,0,0:0:0:0:
256,192,70856,1,8,0:0:0:0:
256,192,70938,1,8,0:0:0:0:
256,192,71021,1,8,0:0:0:0:
256,192,71185,1,0,0:0:0:0:
256,192,71350,1,0,0:0:0:0:
256,192,71598,1,8,0:0:0:0:
256,192,71680,1,0,0:0:0:0:
256,192,71845,1,8,0:0:0:0:
256,192,71927,1,0,0:0:0:0:
256,192,72010,1,8,0:0:0:0:
256,192,72174,1,8,0:0:0:0:
256,192,72339,1,0,0:0:0:0:
256,192,72504,1,8,0:0:0:0:
256,192,72587,1,0,0:0:0:0:
256,192,72669,1,8,0:0:0:0:
256,192,72834,1,0,0:0:0:0:
256,192,72999,1,8,0:0:0:0:
256,192,73081,1,0,0:0:0:0:
256,192,73163,1,8,0:0:0:0:
256,192,73328,1,0,0:0:0:0:
256,192,73493,1,8,0:0:0:0:
256,192,73576,1,0,0:0:0:0:
256,192,73658,1,8,0:0:0:0:
256,192,73823,1,0,0:0:0:0:
256,192,73988,1,12,0:0:0:0:
256,192,74235,1,0,0:0:0:0:
256,192,74318,1,0,0:0:0:0:
256,192,74483,1,0,0:0:0:0:
256,192,74565,1,0,0:0:0:0:
256,192,74648,1,8,0:0:0:0:
256,192,74812,1,8,0:0:0:0:
256,192,74977,1,0,0:0:0:0:
256,192,75142,1,8,0:0:0:0:
256,192,75224,1,8,0:0:0:0:
256,192,75307,1,8,0:0:0:0:
256,192,75472,1,0,0:0:0:0:
256,192,75637,1,8,0:0:0:0:
256,192,75719,1,8,0:0:0:0:
256,192,75801,1,8,0:0:0:0:
256,192,75966,1,0,0:0:0:0:
256,192,76131,1,8,0:0:0:0:
256,192,76213,1,8,0:0:0:0:
256,192,76296,1,8,0:0:0:0:
256,192,76461,1,0,0:0:0:0:
256,192,76626,1,0,0:0:0:0:
256,192,76873,1,8,0:0:0:0:
256,192,76955,1,0,0:0:0:0:
256,192,77120,1,8,0:0:0:0:
256,192,77202,1,0,0:0:0:0:
256,192,77285,1,8,0:0:0:0:
256,192,77450,1,8,0:0:0:0:
256,192,77615,1,0,0:0:0:0:
256,192,77779,1,8,0:0:0:0:
256,192,77862,1,0,0:0:0:0:
256,192,77944,1,8,0:0:0:0:
256,192,78109,1,0,0:0:0:0:
256,192,78274,1,8,0:0:0:0:
256,192,78356,1,0,0:0:0:0:
256,192,78439,1,8,0:0:0:0:
256,192,78604,1,0,0:0:0:0:
256,192,78768,1,8,0:0:0:0:
256,192,78851,1,0,0:0:0:0:
256,192,78933,1,8,0:0:0:0:
256,192,79098,1,0,0:0:0:0:
256,192,79263,1,8,0:0:0:0:
256,192,79510,1,0,0:0:0:0:
256,192,79593,1,8,0:0:0:0:
256,192,79757,1,0,0:0:0:0:
256,192,79840,1,0,0:0:0:0:
256,192,79922,1,8,0:0:0:0:
256,192,80087,1,8,0:0:0:0:
256,192,80252,1,0,0:0:0:0:
256,192,80417,1,8,0:0:0:0:
256,192,80499,1,8,0:0:0:0:
256,192,80582,1,8,0:0:0:0:
256,192,80746,1,0,0:0:0:0:
256,192,80911,1,8,0:0:0:0:
256,192,80994,1,8,0:0:0:0:
256,192,81076,1,8,0:0:0:0:
256,192,81241,1,0,0:0:0:0:
256,192,81406,1,8,0:0:0:0:
256,192,81488,1,8,0:0:0:0:
256,192,81571,1,8,0:0:0:0:
256,192,81735,1,0,0:0:0:0:
256,192,81900,1,0,0:0:0:0:
256,192,82065,1,8,0:0:0:0:
256,192,82120,1,8,0:0:0:0:
256,192,82174,1,8,0:0:0:0:
256,192,82230,1,0,0:0:0:0:
256,192,82395,1,8,0:0:0:0:
256,192,82560,1,0,0:0:0:0:
256,192,82600,1,0,0:0:0:0:
256,192,82724,1,8,0:0:0:0:
256,192,82765,1,8,0:0:0:0:
256,192,82889,1,0,0:0:0:0:
256,192,83054,1,0,0:0:0:0:
256,192,83219,1,8,0:0:0:0:
256,192,83301,1,8,0:0:0:0:
256,192,83383,1,8,0:0:0:0:
256,192,83466,1,8,0:0:0:0:
256,192,83548,1,0,0:0:0:0:
256,192,83631,1,0,0:0:0:0:
256,192,83713,1,0,0:0:0:0:
256,192,83796,1,0,0:0:0:0:
256,192,83878,1,8,0:0:0:0:
256,192,83960,1,8,0:0:0:0:
256,192,84043,1,0,0:0:0:0:
256,192,84125,1,0,0:0:0:0:
256,192,84208,1,8,0:0:0:0:
256,192,84538,1,4,0:0:0:0:
256,192,84702,1,8,0:0:0:0:
256,192,84784,1,0,0:0:0:0:
256,192,84949,1,8,0:0:0:0:
256,192,85032,1,0,0:0:0:0:
256,192,85114,1,0,0:0:0:0:
256,192,85196,1,8,0:0:0:0:
256,192,85238,1,8,0:0:0:0:
256,192,85361,1,8,0:0:0:0:
256,192,85526,1,0,0:0:0:0:
256,192,85691,1,8,0:0:0:0:
256,192,85746,1,8,0:0:0:0:
256,192,85801,1,8,0:0:0:0:
256,192,85856,1,0,0:0:0:0:
256,192,86021,1,8,0:0:0:0:
256,192,86062,1,8,0:0:0:0:
256,192,86185,1,8,0:0:0:0:
256,192,86227,1,8,0:0:0:0:
256,192,86350,1,0,0:0:0:0:
256,192,86515,1,12,0:0:0:0:
256,192,86680,1,0,0:0:0:0:
256,192,86762,1,0,0:0:0:0:
256,192,86845,1,0,0:0:0:0:
256,192,86927,1,0,0:0:0:0:
256,192,87010,1,8,0:0:0:0:
256,192,87065,1,8,0:0:0:0:
256,192,87120,1,8,0:0:0:0:
256,192,87174,1,0,0:0:0:0:
256,192,87422,1,0,0:0:0:0:
256,192,87669,1,0,0:0:0:0:
256,192,87834,1,4,0:0:0:0:
256,192,87999,1,8,0:0:0:0:
256,192,88081,1,8,0:0:0:0:
256,192,88163,1,0,0:0:0:0:
256,192,88328,1,8,0:0:0:0:
256,192,88370,1,8,0:0:0:0:
256,192,88493,1,0,0:0:0:0:
256,192,88576,1,0,0:0:0:0:
256,192,88658,1,8,0:0:0:0:
256,192,88713,1,8,0:0:0:0:
256,192,88768,1,8,0:0:0:0:
256,192,88823,1,0,0:0:0:0:
256,192,88905,1,0,0:0:0:0:
256,192,88988,1,8,0:0:0:0:
256,192,89152,1,8,0:0:0:0:
256,192,89235,1,8,0:0:0:0:
256,192,89317,1,0,0:0:0:0:
256,192,89482,1,12,0:0:0:0:
256,192,89812,1,0,0:0:0:0:
256,192,89977,1,8,0:0:0:0:
256,192,90018,1,8,0:0:0:0:
256,192,90142,1,0,0:0:0:0:
256,192,90306,1,0,0:0:0:0:
256,192,90471,1,8,0:0:0:0:
256,192,90512,1,8,0:0:0:0:
256,192,90636,1,0,0:0:0:0:
256,192,90801,1,8,0:0:0:0:
256,192,90856,1,8,0:0:0:0:
256,192,90911,1,8,0:0:0:0:
256,192,90966,1,0,0:0:0:0:
256,192,91048,1,0,0:0:0:0:
256,192,91131,1,8,0:0:0:0:
256,192,91213,1,8,0:0:0:0:
256,192,91295,1,0,0:0:0:0:
256,192,91337,1,0,0:0:0:0:
256,192,91460,1,8,0:0:0:0:
256,192,91625,1,8,0:0:0:0:
256,192,91707,1,8,0:0:0:0:
256,192,91790,1,0,0:0:0:0:
256,192,91872,1,0,0:0:0:0:
256,192,91955,1,8,0:0:0:0:
256,192,92037,1,8,0:0:0:0:
256,192,92120,1,0,0:0:0:0:
256,192,92202,1,8,0:0:0:0:
256,192,92284,1,0,0:0:0:0:
256,192,92367,1,8,0:0:0:0:
256,192,92449,1,0,0:0:0:0:
256,192,92614,1,8,0:0:0:0:
256,192,92669,1,8,0:0:0:0:
256,192,92724,1,8,0:0:0:0:
256,192,92779,1,0,0:0:0:0:
256,192,92944,1,0,0:0:0:0:
256,192,93109,1,12,0:0:0:0:
256,192,93273,1,12,0:0:0:0:
256,192,93438,1,0,0:0:0:0:
256,192,93603,1,8,0:0:0:0:
256,192,93658,1,8,0:0:0:0:
256,192,93713,1,8,0:0:0:0:
256,192,93768,1,0,0:0:0:0:
256,192,93850,1,0,0:0:0:0:
256,192,93933,1,8,0:0:0:0:
256,192,94098,1,0,0:0:0:0:
256,192,94152,1,0,0:0:0:0:
256,192,94207,1,0,0:0:0:0:
256,192,94262,1,8,0:0:0:0:
256,192,94345,1,0,0:0:0:0:
256,192,94427,1,8,0:0:0:0:
256,192,94468,1,8,0:0:0:0:
256,192,94592,1,0,0:0:0:0:
256,192,94647,1,0,0:0:0:0:
256,192,94702,1,0,0:0:0:0:
256,192,94757,1,8,0:0:0:0:
256,192,94839,1,0,0:0:0:0:
256,192,94922,1,8,0:0:0:0:
256,192,95087,1,4,0:0:0:0:
256,192,95251,1,4,0:0:0:0:
256,192,95416,1,0,0:0:0:0:
256,192,95581,1,8,0:0:0:0:
256,192,95622,1,8,0:0:0:0:
256,192,95746,1,8,0:0:0:0:
256,192,95787,1,8,0:0:0:0:
256,192,95911,1,8,0:0:0:0:
256,192,95993,1,8,0:0:0:0:
256,192,96076,1,0,0:0:0:0:
256,192,96240,1,8,0:0:0:0:
256,192,96323,1,8,0:0:0:0:
256,192,96405,1,0,0:0:0:0:
256,192,96488,1,0,0:0:0:0:
256,192,96570,1,8,0:0:0:0:
256,192,96735,1,0,0:0:0:0:
256,192,96859,1,0,0:0:0:0:
256,192,96982,1,0,0:0:0:0:
256,192,97106,1,0,0:0:0:0:
256,192,97229,1,8,0:0:0:0:
256,192,97394,1,0,0:0:0:0:
256,192,97459,1,8,0:0:0:0:
256,192,97525,1,8,0:0:0:0:
256,192,97591,1,8,0:0:0:0:
256,192,97657,1,8,0:0:0:0:
256,192,97724,1,0,0:0:0:0:
256,192,97889,1,0,0:0:0:0:
256,192,97971,1,0,0:0:0:0:
256,192,98054,1,8,0:0:0:0:
256,192,98218,1,8,0:0:0:0:
256,192,98273,1,8,0:0:0:0:
256,192,98328,1,8,0:0:0:0:
256,192,98383,1,0,0:0:0:0:
256,192,98466,1,0,0:0:0:0:
256,192,98548,1,0,0:0:0:0:
256,192,98631,1,0,0:0:0:0:
256,192,98713,1,8,0:0:0:0:
256,192,98754,1,8,0:0:0:0:
256,192,98878,1,0,0:0:0:0:
256,192,99043,1,8,0:0:0:0:
256,192,99125,1,8,0:0:0:0:
256,192,99207,1,8,0:0:0:0:
256,192,99290,1,8,0:0:0:0:
256,192,99372,1,0,0:0:0:0:
256,192,99496,1,0,0:0:0:0:
256,192,99620,1,0,0:0:0:0:
256,192,99743,1,0,0:0:0:0:
256,192,99867,1,8,0:0:0:0:
256,192,99908,1,8,0:0:0:0:
256,192,100032,1,0,0:0:0:0:
256,192,100087,1,0,0:0:0:0:
256,192,100142,1,0,0:0:0:0:
256,192,100196,1,8,0:0:0:0:
256,192,100361,1,8,0:0:0:0:
256,192,100444,1,8,0:0:0:0:
256,192,100526,1,0,0:0:0:0:
256,192,100691,1,8,0:0:0:0:
256,192,100773,1,8,0:0:0:0:
256,192,100856,1,8,0:0:0:0:
256,192,100938,1,0,0:0:0:0:
256,192,100979,1,0,0:0:0:0:
256,192,101185,1,0,0:0:0:0:
256,192,101350,1,0,0:0:0:0:
256,192,101433,1,8,0:0:0:0:
256,192,101474,1,8,0:0:0:0:
256,192,101598,1,0,0:0:0:0:
256,192,101680,1,0,0:0:0:0:
256,192,101762,1,8,0:0:0:0:
256,192,101845,1,8,0:0:0:0:
256,192,101927,1,0,0:0:0:0:
256,192,102010,1,8,0:0:0:0:
256,192,102174,1,8,0:0:0:0:
256,192,102339,1,0,0:0:0:0:
256,192,102504,1,8,0:0:0:0:
256,192,102587,1,8,0:0:0:0:
256,192,102669,1,0,0:0:0:0:
256,192,102710,1,0,0:0:0:0:
256,192,102834,1,8,0:0:0:0:
256,192,102889,1,8,0:0:0:0:
256,192,102944,1,8,0:0:0:0:
256,192,102999,1,0,0:0:0:0:
256,192,103163,1,0,0:0:0:0:
256,192,103328,1,8,0:0:0:0:
256,192,103411,1,8,0:0:0:0:
256,192,103493,1,0,0:0:0:0:
256,192,103576,1,0,0:0:0:0:
256,192,103658,1,8,0:0:0:0:
256,192,103823,1,8,0:0:0:0:
256,192,103905,1,8,0:0:0:0:
256,192,103988,1,0,0:0:0:0:
256,192,104152,1,8,0:0:0:0:
256,192,104317,1,0,0:0:0:0:
256,192,104400,1,0,0:0:0:0:
256,192,104482,1,8,0:0:0:0:
256,192,104565,1,0,0:0:0:0:
256,192,104647,1,8,0:0:0:0:
256,192,104702,1,8,0:0:0:0:
256,192,104757,1,8,0:0:0:0:
256,192,104812,1,0,0:0:0:0:
256,192,104977,1,8,0:0:0:0:
256,192,105142,1,8,0:0:0:0:
256,192,105224,1,8,0:0:0:0:
256,192,105306,1,0,0:0:0:0:
256,192,105361,1,0,0:0:0:0:
256,192,105416,1,0,0:0:0:0:
256,192,105471,1,8,0:0:0:0:
256,192,105554,1,8,0:0:0:0:
256,192,105636,1,4,0:0:0:0:
256,192,105801,1,0,0:0:0:0:
256,192,105883,1,0,0:0:0:0:
256,192,105966,1,8,0:0:0:0:
256,192,106131,1,0,0:0:0:0:
256,192,106213,1,0,0:0:0:0:
256,192,106295,1,8,0:0:0:0:
256,192,106378,1,8,0:0:0:0:
256,192,106460,1,0,0:0:0:0:
256,192,106625,1,8,0:0:0:0:
256,192,106790,1,8,0:0:0:0:
256,192,106872,1,8,0:0:0:0:
256,192,106955,1,0,0:0:0:0:
256,192,107120,1,0,0:0:0:0:
256,192,107202,1,0,0:0:0:0:
256,192,107284,1,8,0:0:0:0:
256,192,107449,1,0,0:0:0:0:
256,192,107614,1,8,0:0:0:0:
256,192,107696,1,8,0:0:0:0:
256,192,107779,1,0,0:0:0:0:
256,192,107861,1,0,0:0:0:0:
256,192,107944,1,8,0:0:0:0:
256,192,108109,1,8,0:0:0:0:
256,192,108273,1,0,0:0:0:0:
256,192,108438,1,0,0:0:0:0:
256,192,108521,1,0,0:0:0:0:
256,192,108603,1,8,0:0:0:0:
256,192,108768,1,0,0:0:0:0:
256,192,108850,1,0,0:0:0:0:
256,192,108933,1,8,0:0:0:0:
256,192,109015,1,8,0:0:0:0:
256,192,109098,1,0,0:0:0:0:
256,192,109262,1,8,0:0:0:0:
256,192,109427,1,0,0:0:0:0:
256,192,109510,1,0,0:0:0:0:
256,192,109592,1,8,0:0:0:0:
256,192,109757,1,8,0:0:0:0:
256,192,109839,1,8,0:0:0:0:
256,192,109922,1,8,0:0:0:0:
256,192,110087,1,0,0:0:0:0:
256,192,110169,1,0,0:0:0:0:
256,192,110251,1,8,0:0:0:0:
256,192,110334,1,8,0:0:0:0:
256,192,110416,1,0,0:0:0:0:
256,192,110499,1,0,0:0:0:0:
256,192,110581,1,8,0:0:0:0:
256,192,110746,1,8,0:0:0:0:
256,192,110787,1,8,0:0:0:0:
256,192,110911,1,0,0:0:0:0:
256,192,111076,1,0,0:0:0:0:
256,192,111158,1,0,0:0:0:0:
256,192,111240,1,8,0:0:0:0:
256,192,111405,1,0,0:0:0:0:
256,192,111488,1,0,0:0:0:0:
256,192,111570,1,8,0:0:0:0:
256,192,111652,1,8,0:0:0:0:
256,192,111735,1,0,0:0:0:0:
256,192,111900,1,8,0:0:0:0:
256,192,112065,1,8,0:0:0:0:
256,192,112147,1,8,0:0:0:0:
256,192,112229,1,0,0:0:0:0:
256,192,112394,1,8,0:0:0:0:
256,192,112477,1,8,0:0:0:0:
256,192,112559,1,8,0:0:0:0:
256,192,112724,1,0,0:0:0:0:
256,192,112889,1,8,0:0:0:0:
256,192,112971,1,8,0:0:0:0:
256,192,113054,1,0,0:0:0:0:
256,192,113136,1,0,0:0:0:0:
256,192,113218,1,8,0:0:0:0:
256,192,113383,1,0,0:0:0:0:
256,192,113466,1,0,0:0:0:0:
256,192,113548,1,8,0:0:0:0:
256,192,113713,1,0,0:0:0:0:
256,192,113878,1,8,0:0:0:0:
256,192,114043,1,0,0:0:0:0:
256,192,114125,1,0,0:0:0:0:
256,192,114207,1,8,0:0:0:0:
256,192,114290,1,8,0:0:0:0:
256,192,114372,1,0,0:0:0:0:
256,192,114537,1,8,0:0:0:0:
256,192,114702,1,0,0:0:0:0:
256,192,114867,1,8,0:0:0:0:
256,192,115032,1,8,0:0:0:0:
256,192,115114,1,8,0:0:0:0:
256,192,115196,1,8,0:0:0:0:
256,192,115361,1,0,0:0:0:0:
256,192,115444,1,0,0:0:0:0:
256,192,115526,1,8,0:0:0:0:
256,192,115609,1,8,0:0:0:0:
256,192,115691,1,0,0:0:0:0:
256,192,115856,1,8,0:0:0:0:
256,192,116021,1,8,0:0:0:0:
256,192,116062,1,8,0:0:0:0:
256,192,116185,1,0,0:0:0:0:
256,192,116350,1,0,0:0:0:0:
256,192,116433,1,0,0:0:0:0:
256,192,116515,1,8,0:0:0:0:
256,192,116680,1,0,0:0:0:0:
256,192,116762,1,0,0:0:0:0:
256,192,116845,1,8,0:0:0:0:
256,192,116927,1,8,0:0:0:0:
256,192,117010,1,0,0:0:0:0:
256,192,117174,1,8,0:0:0:0:
256,192,117339,1,8,0:0:0:0:
256,192,117422,1,8,0:0:0:0:
256,192,117504,1,0,0:0:0:0:
256,192,117669,1,0,0:0:0:0:
256,192,117751,1,0,0:0:0:0:
256,192,117834,1,8,0:0:0:0:
256,192,117999,1,0,0:0:0:0:
256,192,118163,1,8,0:0:0:0:
256,192,118246,1,8,0:0:0:0:
256,192,118328,1,0,0:0:0:0:
256,192,118411,1,0,0:0:0:0:
256,192,118493,1,8,0:0:0:0:
256,192,118658,1,8,0:0:0:0:
256,192,118740,1,8,0:0:0:0:
256,192,118823,1,0,0:0:0:0:
256,192,118988,1,0,0:0:0:0:
256,192,119070,1,0,0:0:0:0:
256,192,119152,1,8,0:0:0:0:
256,192,119317,1,0,0:0:0:0:
256,192,119400,1,0,0:0:0:0:
256,192,119482,1,8,0:0:0:0:
256,192,119565,1,8,0:0:0:0:
256,192,119647,1,0,0:0:0:0:
256,192,119812,1,8,0:0:0:0:
256,192,119977,1,0,0:0:0:0:
256,192,120059,1,0,0:0:0:0:
256,192,120142,1,8,0:0:0:0:
256,192,120306,1,8,0:0:0:0:
256,192,120389,1,8,0:0:0:0:
256,192,120471,1,8,0:0:0:0:
256,192,120636,1,0,0:0:0:0:
256,192,120718,1,0,0:0:0:0:
256,192,120801,1,8,0:0:0:0:
256,192,120883,1,8,0:0:0:0:
256,192,120966,1,0,0:0:0:0:
256,192,121131,1,8,0:0:0:0:
256,192,121295,1,8,0:0:0:0:
256,192,121337,1,8,0:0:0:0:
256,192,121460,1,0,0:0:0:0:
256,192,121625,1,0,0:0:0:0:
256,192,121707,1,0,0:0:0:0:
256,192,121789,1,8,0:0:0:0:
256,192,121954,1,0,0:0:0:0:
256,192,122037,1,0,0:0:0:0:
256,192,122119,1,8,0:0:0:0:
256,192,122201,1,8,0:0:0:0:
256,192,122284,1,0,0:0:0:0:
256,192,122449,1,8,0:0:0:0:
256,192,122614,1,8,0:0:0:0:
256,192,122696,1,8,0:0:0:0:
256,192,122778,1,0,0:0:0:0:
256,192,122943,1,8,0:0:0:0:
256,192,123026,1,8,0:0:0:0:
256,192,123108,1,8,0:0:0:0:
256,192,123273,1,0,0:0:0:0:
256,192,123438,1,8,0:0:0:0:
256,192,123520,1,8,0:0:0:0:
256,192,123603,1,0,0:0:0:0:
256,192,123685,1,0,0:0:0:0:
256,192,123767,1,8,0:0:0:0:
256,192,123932,1,8,0:0:0:0:
256,192,124097,1,8,0:0:0:0:
256,192,124262,1,0,0:0:0:0:
256,192,124345,1,0,0:0:0:0:
256,192,124427,1,8,0:0:0:0:
256,192,124510,1,8,0:0:0:0:
256,192,124592,1,8,0:0:0:0:
256,192,124674,1,8,0:0:0:0:
256,192,124756,1,0,0:0:0:0:
256,192,124839,1,0,0:0:0:0:
256,192,124921,1,8,0:0:0:0:
256,192,125004,1,8,0:0:0:0:
256,192,125169,1,0,0:0:0:0:
256,192,125251,1,8,0:0:0:0:
256,192,125416,1,0,0:0:0:0:
256,192,125499,1,0,0:0:0:0:
256,192,125581,1,0,0:0:0:0:
256,192,125663,1,0,0:0:0:0:
256,192,125746,1,0,0:0:0:0:
256,192,125828,1,0,0:0:0:0:
256,192,125911,1,0,0:0:0:0:
256,192,125993,1,0,0:0:0:0:
256,192,126076,1,8,0:0:0:0:
256,192,126240,1,8,0:0:0:0:
256,192,126282,1,8,0:0:0:0:
256,192,126405,1,0,0:0:0:0:
256,192,126735,1,12,0:0:0:0:
256,192,126900,1,0,0:0:0:0:
256,192,127065,1,8,0:0:0:0:
256,192,127229,1,8,0:0:0:0:
256,192,127312,1,8,0:0:0:0:
256,192,127394,1,0,0:0:0:0:
256,192,127504,1,0,0:0:0:0:
256,192,127614,1,0,0:0:0:0:
256,192,127724,1,8,0:0:0:0:
256,192,127765,1,8,0:0:0:0:
256,192,127971,1,8,0:0:0:0:
256,192,128054,1,0,0:0:0:0:
256,192,128218,1,8,0:0:0:0:
256,192,128273,1,8,0:0:0:0:
256,192,128328,1,8,0:0:0:0:
256,192,128383,1,0,0:0:0:0:
256,192,128466,1,0,0:0:0:0:
256,192,128548,1,8,0:0:0:0:
256,192,128631,1,8,0:0:0:0:
256,192,128713,1,0,0:0:0:0:
256,192,128878,1,8,0:0:0:0:
256,192,128919,1,8,0:0:0:0:
256,192,129043,1,8,0:0:0:0:
256,192,129084,1,8,0:0:0:0:
256,192,129207,1,8,0:0:0:0:
256,192,129290,1,8,0:0:0:0:
256,192,129372,1,0,0:0:0:0:
256,192,129812,1,0,0:0:0:0:
256,192,129894,1,0,0:0:0:0:
256,192,129977,1,8,0:0:0:0:
256,192,130196,1,0,0:0:0:0:
256,192,130279,1,0,0:0:0:0:
256,192,130361,1,8,0:0:0:0:
256,192,130444,1,8,0:0:0:0:
256,192,130526,1,8,0:0:0:0:
256,192,130609,1,8,0:0:0:0:
256,192,130691,1,0,0:0:0:0:
256,192,130856,1,8,0:0:0:0:
256,192,130938,1,8,0:0:0:0:
256,192,131021,1,0,0:0:0:0:
256,192,131062,1,0,0:0:0:0:
256,192,131185,1,0,0:0:0:0:
256,192,131268,1,8,0:0:0:0:
256,192,131309,1,8,0:0:0:0:
256,192,131515,1,0,0:0:0:0:
256,192,131598,1,0,0:0:0:0:
256,192,131680,1,8,0:0:0:0:
256,192,131721,1,8,0:0:0:0:
256,192,131845,1,0,0:0:0:0:
256,192,131900,1,0,0:0:0:0:
256,192,131955,1,0,0:0:0:0:
256,192,132010,1,8,0:0:0:0:
256,192,132174,1,0,0:0:0:0:
256,192,132339,1,8,0:0:0:0:
256,192,132449,1,8,0:0:0:0:
256,192,132559,1,8,0:0:0:0:
256,192,132669,1,0,0:0:0:0:
256,192,132751,1,0,0:0:0:0:
256,192,132834,1,0,0:0:0:0:
256,192,132916,1,8,0:0:0:0:
256,192,132957,1,8,0:0:0:0:
256,192,133163,1,8,0:0:0:0:
256,192,133246,1,0,0:0:0:0:
256,192,133287,1,0,0:0:0:0:
256,192,133493,1,8,0:0:0:0:
256,192,133534,1,8,0:0:0:0:
256,192,133658,1,0,0:0:0:0:
256,192,133740,1,0,0:0:0:0:
256,192,133823,1,8,0:0:0:0:
256,192,133905,1,8,0:0:0:0:
256,192,133988,1,0,0:0:0:0:
256,192,134111,1,0,0:0:0:0:
256,192,134235,1,0,0:0:0:0:
256,192,134359,1,0,0:0:0:0:
256,192,134482,1,8,0:0:0:0:
256,192,134606,1,8,0:0:0:0:
256,192,134729,1,0,0:0:0:0:
256,192,134784,1,0,0:0:0:0:
256,192,134839,1,0,0:0:0:0:
256,192,134894,1,8,0:0:0:0:
256,192,134977,1,8,0:0:0:0:
256,192,135142,1,0,0:0:0:0:
256,192,135224,1,0,0:0:0:0:
256,192,135306,1,8,0:0:0:0:
256,192,135389,1,8,0:0:0:0:
256,192,135471,1,0,0:0:0:0:
256,192,135554,1,0,0:0:0:0:
256,192,135636,1,8,0:0:0:0:
256,192,135691,1,8,0:0:0:0:
256,192,135746,1,8,0:0:0:0:
256,192,135801,1,0,0:0:0:0:
256,192,135966,1,0,0:0:0:0:
256,192,136048,1,0,0:0:0:0:
256,192,136131,1,0,0:0:0:0:
256,192,136213,1,0,0:0:0:0:
256,192,136295,1,8,0:0:0:0:
256,192,136350,1,8,0:0:0:0:
256,192,136405,1,8,0:0:0:0:
256,192,136460,1,0,0:0:0:0:
256,192,136543,1,0,0:0:0:0:
256,192,136625,1,8,0:0:0:0:
256,192,136666,1,8,0:0:0:0:
256,192,136872,1,8,0:0:0:0:
256,192,136955,1,0,0:0:0:0:
256,192,137037,1,0,0:0:0:0:
256,192,137120,1,8,0:0:0:0:
256,192,137161,1,8,0:0:0:0:
256,192,137284,1,0,0:0:0:0:
256,192,137532,1,0,0:0:0:0:
256,192,137614,1,0,0:0:0:0:
256,192,137696,1,0,0:0:0:0:
256,192,137779,1,8,0:0:0:0:
256,192,137861,1,8,0:0:0:0:
256,192,137944,1,0,0:0:0:0:
256,192,138026,1,8,0:0:0:0:
256,192,138109,1,0,0:0:0:0:
256,192,138191,1,0,0:0:0:0:
256,192,138273,1,8,0:0:0:0:
256,192,138315,1,8,0:0:0:0:
256,192,138438,1,0,0:0:0:0:
256,192,138521,1,0,0:0:0:0:
256,192,138603,1,0,0:0:0:0:
256,192,138768,1,0,0:0:0:0:
256,192,138933,1,8,0:0:0:0:
256,192,138974,1,8,0:0:0:0:
256,192,139098,1,0,0:0:0:0:
256,192,139180,1,0,0:0:0:0:
256,192,139262,1,8,0:0:0:0:
256,192,139304,1,8,0:0:0:0:
256,192,139427,1,0,0:0:0:0:
256,192,139482,1,0,0:0:0:0:
256,192,139537,1,0,0:0:0:0:
256,192,139592,1,8,0:0:0:0:
256,192,139674,1,8,0:0:0:0:
256,192,139757,1,8,0:0:0:0:
256,192,139922,1,0,0:0:0:0:
256,192,140004,1,0,0:0:0:0:
256,192,140087,1,0,0:0:0:0:
256,192,140169,1,8,0:0:0:0:
256,192,140251,1,8,0:0:0:0:
256,192,140416,1,8,0:0:0:0:
256,192,140499,1,8,0:0:0:0:
256,192,140581,1,0,0:0:0:0:
256,192,140828,1,0,0:0:0:0:
256,192,140911,1,8,0:0:0:0:
256,192,140993,1,8,0:0:0:0:
256,192,141076,1,0,0:0:0:0:
256,192,141158,1,8,0:0:0:0:
256,192,141240,1,0,0:0:0:0:
256,192,141405,1,8,0:0:0:0:
256,192,141488,1,8,0:0:0:0:
256,192,141570,1,0,0:0:0:0:
256,192,141652,1,0,0:0:0:0:
256,192,141735,1,8,0:0:0:0:
256,192,141817,1,8,0:0:0:0:
256,192,141900,1,0,0:0:0:0:
256,192,141941,1,0,0:0:0:0:
256,192,142065,1,8,0:0:0:0:
256,192,142120,1,8,0:0:0:0:
256,192,142174,1,8,0:0:0:0:
256,192,142229,1,0,0:0:0:0:
256,192,142394,1,0,0:0:0:0:
256,192,142559,1,8,0:0:0:0:
256,192,142614,1,8,0:0:0:0:
256,192,142669,1,8,0:0:0:0:
256,192,142724,1,8,0:0:0:0:
256,192,142889,1,4,0:0:0:0:
256,192,143218,1,0,0:0:0:0:
256,192,143328,1,8,0:0:0:0:
256,192,143438,1,8,0:0:0:0:
256,192,143548,1,0,0:0:0:0:
256,192,143713,1,0,0:0:0:0:
256,192,143878,1,8,0:0:0:0:
256,192,144043,1,0,0:0:0:0:
256,192,144207,1,12,0:0:0:0:
256,192,144372,1,0,0:0:0:0:
256,192,144455,1,0,0:0:0:0:
256,192,144537,1,8,0:0:0:0:
256,192,144620,1,8,0:0:0:0:
256,192,144702,1,8,0:0:0:0:
256,192,144784,1,8,0:0:0:0:
256,192,144867,1,0,0:0:0:0:
256,192,145032,1,8,0:0:0:0:
256,192,145087,1,8,0:0:0:0:
256,192,145142,1,8,0:0:0:0:
256,192,145196,1,0,0:0:0:0:
256,192,145361,1,0,0:0:0:0:
256,192,145402,1,0,0:0:0:0:
256,192,145526,1,8,0:0:0:0:
256,192,145609,1,8,0:0:0:0:
256,192,145691,1,0,0:0:0:0:
256,192,145773,1,8,0:0:0:0:
256,192,145856,1,8,0:0:0:0:
256,192,145938,1,0,0:0:0:0:
256,192,145979,1,0,0:0:0:0:
256,192,146103,1,0,0:0:0:0:
256,192,146144,1,0,0:0:0:0:
256,192,146268,1,8,0:0:0:0:
256,192,146309,1,8,0:0:0:0:
256,192,146433,1,8,0:0:0:0:
256,192,146474,1,8,0:0:0:0:
256,192,146680,1,0,0:0:0:0:
256,192,146721,1,0,0:0:0:0:
256,192,146845,1,8,0:0:0:0:
256,192,147174,1,8,0:0:0:0:
256,192,147257,1,0,0:0:0:0:
256,192,147312,1,0,0:0:0:0:
256,192,147367,1,0,0:0:0:0:
256,192,147422,1,8,0:0:0:0:
256,192,147504,1,8,0:0:0:0:
256,192,147834,1,4,0:0:0:0:
256,192,147999,1,0,0:0:0:0:
256,192,148081,1,0,0:0:0:0:
256,192,148163,1,8,0:0:0:0:
256,192,148328,1,0,0:0:0:0:
256,192,148411,1,0,0:0:0:0:
256,192,148493,1,8,0:0:0:0:
256,192,148576,1,8,0:0:0:0:
256,192,148658,1,0,0:0:0:0:
256,192,148740,1,0,0:0:0:0:
256,192,148823,1,8,0:0:0:0:
256,192,148988,1,0,0:0:0:0:
256,192,149152,1,8,0:0:0:0:
256,192,149235,1,8,0:0:0:0:
256,192,149317,1,0,0:0:0:0:
256,192,149400,1,0,0:0:0:0:
256,192,149482,1,8,0:0:0:0:
256,192,149647,1,8,0:0:0:0:
256,192,149729,1,8,0:0:0:0:
256,192,149812,1,0,0:0:0:0:
256,192,149894,1,0,0:0:0:0:
256,192,149977,1,0,0:0:0:0:
256,192,150059,1,0,0:0:0:0:
256,192,150142,1,8,0:0:0:0:
256,192,150306,1,0,0:0:0:0:
256,192,150471,1,8,0:0:0:0:
256,192,150636,1,0,0:0:0:0:
256,192,150718,1,0,0:0:0:0:
256,192,150801,1,8,0:0:0:0:
256,192,150966,1,8,0:0:0:0:
256,192,151048,1,8,0:0:0:0:
256,192,151131,1,0,0:0:0:0:
256,192,151213,1,0,0:0:0:0:
256,192,151295,1,8,0:0:0:0:
256,192,151378,1,0,0:0:0:0:
256,192,151460,1,8,0:0:0:0:
256,192,151625,1,0,0:0:0:0:
256,192,151790,1,8,0:0:0:0:
256,192,151872,1,8,0:0:0:0:
256,192,151955,1,8,0:0:0:0:
256,192,152037,1,8,0:0:0:0:
256,192,152120,1,8,0:0:0:0:
256,192,152284,1,0,0:0:0:0:
256,192,152367,1,0,0:0:0:0:
256,192,152449,1,8,0:0:0:0:
256,192,152532,1,8,0:0:0:0:
256,192,152614,1,0,0:0:0:0:
256,192,152696,1,0,0:0:0:0:
256,192,152779,1,8,0:0:0:0:
256,192,152944,1,8,0:0:0:0:
256,192,152985,1,8,0:0:0:0:
256,192,153109,1,0,0:0:0:0:
256,192,153191,1,0,0:0:0:0:
256,192,153273,1,0,0:0:0:0:
256,192,153356,1,0,0:0:0:0:
256,192,153438,1,8,0:0:0:0:
256,192,153603,1,0,0:0:0:0:
256,192,153685,1,0,0:0:0:0:
256,192,153768,1,8,0:0:0:0:
256,192,153850,1,8,0:0:0:0:
256,192,153933,1,0,0:0:0:0:
256,192,154015,1,0,0:0:0:0:
256,192,154098,1,8,0:0:0:0:
256,192,154262,1,0,0:0:0:0:
256,192,154427,1,8,0:0:0:0:
256,192,154592,1,0,0:0:0:0:
256,192,154674,1,0,0:0:0:0:
256,192,154757,1,8,0:0:0:0:
256,192,154839,1,8,0:0:0:0:
256,192,154922,1,0,0:0:0:0:
256,192,155004,1,0,0:0:0:0:
256,192,155087,1,8,0:0:0:0:
256,192,155251,1,8,0:0:0:0:
256,192,155334,1,8,0:0:0:0:
256,192,155416,1,0,0:0:0:0:
256,192,155581,1,8,0:0:0:0:
256,192,155746,1,8,0:0:0:0:
256,192,155911,1,0,0:0:0:0:
256,192,155993,1,0,0:0:0:0:
256,192,156076,1,8,0:0:0:0:
256,192,156158,1,8,0:0:0:0:
256,192,156240,1,0,0:0:0:0:
256,192,156405,1,8,0:0:0:0:
256,192,156570,1,8,0:0:0:0:
256,192,156652,1,8,0:0:0:0:
256,192,156735,1,0,0:0:0:0:
256,192,156900,1,8,0:0:0:0:
256,192,157065,1,8,0:0:0:0:
256,192,157229,1,8,0:0:0:0:
256,192,157312,1,8,0:0:0:0:
256,192,157394,1,8,0:0:0:0:
256,192,157477,1,8,0:0:0:0:
256,192,157559,1,0,0:0:0:0:
256,192,157642,1,0,0:0:0:0:
256,192,157724,1,8,0:0:0:0:
256,192,157889,1,8,0:0:0:0:
256,192,157971,1,8,0:0:0:0:
256,192,158054,1,0,0:0:0:0:
256,192,158218,1,8,0:0:0:0:
256,192,158260,1,8,0:0:0:0:
256,192,158383,1,0,0:0:0:0:
256,192,158548,1,8,0:0:0:0:
256,192,158631,1,8,0:0:0:0:
256,192,158713,1,8,0:0:0:0:
256,192,158878,1,0,0:0:0:0:
256,192,158960,1,0,0:0:0:0:
256,192,159043,1,8,0:0:0:0:
256,192,159125,1,8,0:0:0:0:
256,192,159207,1,0,0:0:0:0:
256,192,159290,1,0,0:0:0:0:
256,192,159372,1,8,0:0:0:0:
256,192,159537,1,8,0:0:0:0:
256,192,159702,1,8,0:0:0:0:
256,192,159867,1,0,0:0:0:0:
256,192,159949,1,0,0:0:0:0:
256,192,160032,1,8,0:0:0:0:
256,192,160196,1,8,0:0:0:0:
256,192,160279,1,8,0:0:0:0:
256,192,160361,1,0,0:0:0:0:
256,192,160444,1,0,0:0:0:0:
256,192,160526,1,0,0:0:0:0:
256,192,160609,1,0,0:0:0:0:
256,192,160691,1,8,0:0:0:0:
256,192,160856,1,0,0:0:0:0:
256,192,161021,1,8,0:0:0:0:
256,192,161103,1,8,0:0:0:0:
256,192,161185,1,0,0:0:0:0:
256,192,161268,1,0,0:0:0:0:
256,192,161350,1,8,0:0:0:0:
256,192,161515,1,8,0:0:0:0:
256,192,161598,1,8,0:0:0:0:
256,192,161680,1,0,0:0:0:0:
256,192,161762,1,0,0:0:0:0:
256,192,161845,1,8,0:0:0:0:
256,192,161927,1,0,0:0:0:0:
256,192,162010,1,8,0:0:0:0:
256,192,162174,1,0,0:0:0:0:
256,192,162339,1,8,0:0:0:0:
256,192,162422,1,8,0:0:0:0:
256,192,162504,1,8,0:0:0:0:
256,192,162587,1,8,0:0:0:0:
256,192,162669,1,8,0:0:0:0:
256,192,162834,1,0,0:0:0:0:
256,192,162916,1,0,0:0:0:0:
256,192,162999,1,8,0:0:0:0:
256,192,163081,1,8,0:0:0:0:
256,192,163163,1,0,0:0:0:0:
256,192,163246,1,0,0:0:0:0:
256,192,163328,1,8,0:0:0:0:
256,192,163493,1,8,0:0:0:0:
256,192,163534,1,8,0:0:0:0:
256,192,163658,1,0,0:0:0:0:
256,192,163740,1,0,0:0:0:0:
256,192,163823,1,0,0:0:0:0:
256,192,163905,1,0,0:0:0:0:
256,192,163988,1,8,0:0:0:0:
256,192,164152,1,8,0:0:0:0:
256,192,164235,1,8,0:0:0:0:
256,192,164317,1,0,0:0:0:0:
256,192,164400,1,0,0:0:0:0:
256,192,164482,1,0,0:0:0:0:
256,192,164565,1,0,0:0:0:0:
256,192,164647,1,8,0:0:0:0:
256,192,164812,1,8,0:0:0:0:
256,192,164977,1,0,0:0:0:0:
256,192,165142,1,8,0:0:0:0:
256,192,165224,1,8,0:0:0:0:
256,192,165306,1,8,0:0:0:0:
256,192,165471,1,0,0:0:0:0:
256,192,165554,1,0,0:0:0:0:
256,192,165636,1,8,0:0:0:0:
256,192,165718,1,8,0:0:0:0:
256,192,165801,1,0,0:0:0:0:
256,192,165883,1,0,0:0:0:0:
256,192,165966,1,8,0:0:0:0:
256,192,166131,1,8,0:0:0:0:
256,192,166295,1,8,0:0:0:0:
256,192,166460,1,0,0:0:0:0:
256,192,166543,1,0,0:0:0:0:
256,192,166625,1,8,0:0:0:0:
256,192,166707,1,8,0:0:0:0:
256,192,166790,1,0,0:0:0:0:
256,192,166872,1,0,0:0:0:0:
256,192,166955,1,8,0:0:0:0:
256,192,167037,1,8,0:0:0:0:
256,192,167120,1,0,0:0:0:0:
256,192,167174,1,0,0:0:0:0:
256,192,167229,1,0,0:0:0:0:
256,192,167284,1,8,0:0:0:0:
256,192,167449,1,8,0:0:0:0:
256,192,167614,1,0,0:0:0:0:
256,192,167696,1,0,0:0:0:0:
256,192,167779,1,0,0:0:0:0:
256,192,167861,1,0,0:0:0:0:
256,192,167944,1,0,0:0:0:0:
256,192,168026,1,0,0:0:0:0:
256,192,168109,1,0,0:0:0:0:
256,192,168191,1,0,0:0:0:0:
256,192,168273,1,8,0:0:0:0:
256,192,168438,1,8,0:0:0:0:
256,192,168521,1,0,0:0:0:0:
256,192,168603,1,8,0:0:0:0:
256,192,168644,1,8,0:0:0:0:
256,192,168768,1,0,0:0:0:0:
256,192,168933,1,12,0:0:0:0:
256,192,169098,1,0,0:0:0:0:
256,192,169180,1,0,0:0:0:0:
256,192,169262,1,8,0:0:0:0:
256,192,169317,1,8,0:0:0:0:
256,192,169372,1,8,0:0:0:0:
256,192,169427,1,0,0:0:0:0:
256,192,169674,1,8,0:0:0:0:
256,192,169757,1,0,0:0:0:0:
256,192,169839,1,0,0:0:0:0:
256,192,169922,1,8,0:0:0:0:
256,192,170087,1,12,0:0:0:0:
256,192,170416,1,8,0:0:0:0:
256,192,170457,1,8,0:0:0:0:
256,192,170581,1,8,0:0:0:0:
256,192,170622,1,8,0:0:0:0:
256,192,170746,1,0,0:0:0:0:
256,192,170828,1,0,0:0:0:0:
256,192,170911,1,8,0:0:0:0:
256,192,170993,1,0,0:0:0:0:
256,192,171076,1,8,0:0:0:0:
256,192,171131,1,8,0:0:0:0:
256,192,171185,1,8,0:0:0:0:
256,192,171240,1,0,0:0:0:0:
256,192,171323,1,0,0:0:0:0:
256,192,171405,1,8,0:0:0:0:
256,192,171460,1,8,0:0:0:0:
256,192,171515,1,8,0:0:0:0:
256,192,171570,1,0,0:0:0:0:
256,192,171735,1,0,0:0:0:0:
256,192,171900,1,8,0:0:0:0:
256,192,171982,1,8,0:0:0:0:
256,192,172065,1,0,0:0:0:0:
256,192,172147,1,0,0:0:0:0:
256,192,172229,1,8,0:0:0:0:
256,192,172312,1,0,0:0:0:0:
256,192,172394,1,8,0:0:0:0:
256,192,172477,1,8,0:0:0:0:
256,192,172642,1,0,0:0:0:0:
256,192,172724,1,8,0:0:0:0:
256,192,172765,1,8,0:0:0:0:
256,192,172889,1,0,0:0:0:0:
256,192,173054,1,8,0:0:0:0:
256,192,173095,1,8,0:0:0:0:
256,192,173218,1,0,0:0:0:0:
256,192,173273,1,0,0:0:0:0:
256,192,173328,1,0,0:0:0:0:
256,192,173383,1,8,0:0:0:0:
256,192,173466,1,0,0:0:0:0:
256,192,173548,1,8,0:0:0:0:
256,192,173672,1,8,0:0:0:0:
256,192,173795,1,8,0:0:0:0:
256,192,173919,1,8,0:0:0:0:
256,192,174043,1,0,0:0:0:0:
256,192,174166,1,0,0:0:0:0:
256,192,174290,1,0,0:0:0:0:
256,192,174413,1,0,0:0:0:0:
256,192,174537,1,8,0:0:0:0:
256,192,174620,1,0,0:0:0:0:
256,192,174702,1,8,0:0:0:0:
256,192,174743,1,8,0:0:0:0:
256,192,174867,1,0,0:0:0:0:
256,192,175032,1,8,0:0:0:0:
256,192,175073,1,8,0:0:0:0:
256,192,175196,1,0,0:0:0:0:
256,192,175361,1,0,0:0:0:0:
256,192,175444,1,0,0:0:0:0:
256,192,175526,1,8,0:0:0:0:
256,192,175691,1,8,0:0:0:0:
256,192,175732,1,8,0:0:0:0:
256,192,175856,1,0,0:0:0:0:
256,192,176021,1,8,0:0:0:0:
256,192,176103,1,8,0:0:0:0:
256,192,176185,1,0,0:0:0:0:
256,192,176227,1,0,0:0:0:0:
256,192,176350,1,8,0:0:0:0:
256,192,176392,1,8,0:0:0:0:
256,192,176515,1,0,0:0:0:0:
256,192,176598,1,0,0:0:0:0:
256,192,176680,1,8,0:0:0:0:
256,192,176735,1,8,0:0:0:0:
256,192,176790,1,8,0:0:0:0:
256,192,176845,1,0,0:0:0:0:
256,192,177010,1,8,0:0:0:0:
256,192,177092,1,8,0:0:0:0:
256,192,177174,1,0,0:0:0:0:
256,192,177229,1,0,0:0:0:0:
256,192,177284,1,0,0:0:0:0:
256,192,177339,1,8,0:0:0:0:
256,192,177422,1,0,0:0:0:0:
256,192,177504,1,8,0:0:0:0:
256,192,177628,1,8,0:0:0:0:
256,192,177751,1,8,0:0:0:0:
256,192,177834,1,0,0:0:0:0:
256,192,177999,1,8,0:0:0:0:
256,192,178054,1,8,0:0:0:0:
256,192,178109,1,8,0:0:0:0:
256,192,178163,1,0,0:0:0:0:
256,192,178246,1,0,0:0:0:0:
256,192,178328,1,8,0:0:0:0:
256,192,178411,1,8,0:0:0:0:
256,192,178493,1,8,0:0:0:0:
256,192,178658,1,0,0:0:0:0:
256,192,178740,1,0,0:0:0:0:
256,192,178823,1,8,0:0:0:0:
256,192,178905,1,8,0:0:0:0:
256,192,178988,1,0,0:0:0:0:
256,192,179070,1,0,0:0:0:0:
256,192,179152,1,8,0:0:0:0:
256,192,179317,1,8,0:0:0:0:
256,192,179359,1,8,0:0:0:0:
256,192,179482,1,0,0:0:0:0:
256,192,179647,1,0,0:0:0:0:
256,192,179812,1,8,0:0:0:0:
256,192,179894,1,8,0:0:0:0:
256,192,179977,1,0,0:0:0:0:
256,192,180059,1,0,0:0:0:0:
256,192,180142,1,8,0:0:0:0:
256,192,180183,1,8,0:0:0:0:
256,192,180306,1,0,0:0:0:0:
256,192,180389,1,0,0:0:0:0:
256,192,180471,1,8,0:0:0:0:
256,192,180526,1,8,0:0:0:0:
256,192,180581,1,8,0:0:0:0:
256,192,180636,1,0,0:0:0:0:
256,192,180718,1,0,0:0:0:0:
256,192,180801,1,8,0:0:0:0:
256,192,180966,1,8,0:0:0:0:
256,192,181048,1,8,0:0:0:0:
256,192,181131,1,0,0:0:0:0:
256,192,181213,1,0,0:0:0:0:
256,192,181295,1,0,0:0:0:0:
256,192,181378,1,0,0:0:0:0:
256,192,181460,1,8,0:0:0:0:
256,192,181515,1,8,0:0:0:0:
256,192,181570,1,8,0:0:0:0:
256,192,181625,1,0,0:0:0:0:
256,192,181707,1,0,0:0:0:0:
256,192,181790,1,8,0:0:0:0:
256,192,181831,1,8,0:0:0:0:
256,192,181955,1,8,0:0:0:0:
256,192,182120,1,0,0:0:0:0:
256,192,182284,1,8,0:0:0:0:
256,192,182367,1,0,0:0:0:0:
256,192,182449,1,8,0:0:0:0:
256,192,182532,1,8,0:0:0:0:
256,192,182614,1,0,0:0:0:0:
256,192,182669,1,0,0:0:0:0:
256,192,182724,1,0,0:0:0:0:
256,192,182779,1,8,0:0:0:0:
256,192,182944,1,8,0:0:0:0:
256,192,183026,1,0,0:0:0:0:
256,192,183109,1,8,0:0:0:0:
256,192,183163,1,8,0:0:0:0:
256,192,183218,1,8,0:0:0:0:
256,192,183273,1,0,0:0:0:0:
256,192,183356,1,0,0:0:0:0:
256,192,183438,1,8,0:0:0:0:
256,192,183603,1,0,0:0:0:0:
256,192,183685,1,0,0:0:0:0:
256,192,183768,1,8,0:0:0:0:
256,192,183850,1,0,0:0:0:0:
256,192,183933,1,8,0:0:0:0:
256,192,183974,1,8,0:0:0:0:
256,192,184098,1,0,0:0:0:0:
256,192,184262,1,0,0:0:0:0:
256,192,184345,1,0,0:0:0:0:
256,192,184427,1,0,0:0:0:0:
256,192,184510,1,0,0:0:0:0:
256,192,184592,1,8,0:0:0:0:
256,192,184633,1,8,0:0:0:0:
256,192,184757,1,0,0:0:0:0:
256,192,184922,1,0,0:0:0:0:
256,192,185004,1,8,0:0:0:0:
256,192,185087,1,0,0:0:0:0:
256,192,185169,1,8,0:0:0:0:
256,192,185251,1,0,0:0:0:0:
256,192,185334,1,0,0:0:0:0:
256,192,185416,1,8,0:0:0:0:
256,192,185499,1,8,0:0:0:0:
256,192,185581,1,0,0:0:0:0:
256,192,185663,1,0,0:0:0:0:
256,192,185746,1,0,0:0:0:0:
256,192,185828,1,8,0:0:0:0:
256,192,185870,1,8,0:0:0:0:
256,192,186076,1,0,0:0:0:0:
256,192,186158,1,0,0:0:0:0:
256,192,186240,1,8,0:0:0:0:
256,192,186323,1,8,0:0:0:0:
256,192,186405,1,8,0:0:0:0:
256,192,186570,1,0,0:0:0:0:
256,192,186652,1,0,0:0:0:0:
256,192,186735,1,8,0:0:0:0:
256,192,186817,1,8,0:0:0:0:
256,192,186900,1,0,0:0:0:0:
256,192,187229,1,8,0:0:0:0:
256,192,187394,1,0,0:0:0:0:
256,192,187477,1,0,0:0:0:0:
256,192,187559,1,0,0:0:0:0:
256,192,187642,1,0,0:0:0:0:
256,192,187724,1,8,0:0:0:0:
256,192,187806,1,8,0:0:0:0:
256,192,187889,1,8,0:0:0:0:
256,192,187971,1,8,0:0:0:0:
256,192,188054,1,0,0:0:0:0:
256,192,188136,1,8,0:0:0:0:
256,192,188218,1,0,0:0:0:0:
256,192,188301,1,8,0:0:0:0:
256,192,188383,1,0,0:0:0:0:
256,192,188466,1,0,0:0:0:0:
256,192,188548,1,8,0:0:0:0:
256,192,188589,1,8,0:0:0:0:
256,192,188713,1,0,0:0:0:0:
256,192,188878,1,0,0:0:0:0:
256,192,188933,1,0,0:0:0:0:
256,192,188988,1,0,0:0:0:0:
256,192,189043,1,8,0:0:0:0:
256,192,189125,1,8,0:0:0:0:
256,192,189207,1,0,0:0:0:0:
256,192,189372,1,8,0:0:0:0:
256,192,189455,1,8,0:0:0:0:
256,192,189537,1,8,0:0:0:0:
256,192,189620,1,8,0:0:0:0:
256,192,189702,1,0,0:0:0:0:
256,192,189784,1,0,0:0:0:0:
256,192,189867,1,0,0:0:0:0:
256,192,189949,1,0,0:0:0:0:
256,192,190032,1,8,0:0:0:0:
256,192,190114,1,8,0:0:0:0:
256,192,190196,1,0,0:0:0:0:
256,192,190251,1,0,0:0:0:0:
256,192,190306,1,0,0:0:0:0:
256,192,190361,1,8,0:0:0:0:
256,192,190485,1,8,0:0:0:0:
256,192,190636,1,8,0:0:0:0:
256,192,190801,1,0,0:0:0:0:
256,192,190993,1,0,0:0:0:0:
256,192,191213,1,0,0:0:0:0:
256,192,192669,5,8,0:0:0:0:
256,192,193328,1,0,0:0:0:0:
256,192,193988,1,0,0:0:0:0:
256,192,194647,1,8,0:0:0:0:
256,192,195306,1,8,0:0:0:0:
256,192,197284,1,8,0:0:0:0:
256,192,197614,1,0,0:0:0:0:
256,192,197944,1,8,0:0:0:0:
256,192,200581,1,0,0:0:0:0:
256,192,203218,1,0,0:0:0:0:
256,192,203466,1,8,0:0:0:0:
256,192,203548,1,0,0:0:0:0:
256,192,203878,1,8,0:0:0:0:
256,192,204043,1,8,0:0:0:0:
256,192,204207,1,0,0:0:0:0:
256,192,204372,1,8,0:0:0:0:
256,192,204455,1,8,0:0:0:0:
256,192,204537,1,0,0:0:0:0:
256,192,204702,1,0,0:0:0:0:
256,192,204867,1,8,0:0:0:0:
256,192,204949,1,8,0:0:0:0:
256,192,205032,1,0,0:0:0:0:
256,192,205196,1,0,0:0:0:0:
256,192,205361,1,8,0:0:0:0:
256,192,205444,1,8,0:0:0:0:
256,192,205526,1,0,0:0:0:0:
256,192,205691,1,0,0:0:0:0:
256,192,205856,1,8,0:0:0:0:
256,192,206103,1,0,0:0:0:0:
256,192,206185,1,8,0:0:0:0:
256,192,206433,1,0,0:0:0:0:
256,192,206515,1,8,0:0:0:0:
256,192,206680,1,8,0:0:0:0:
256,192,206845,1,0,0:0:0:0:
256,192,207010,1,8,0:0:0:0:
256,192,207092,1,0,0:0:0:0:
256,192,207174,1,8,0:0:0:0:
256,192,207339,1,0,0:0:0:0:
256,192,207504,1,8,0:0:0:0:
256,192,207587,1,0,0:0:0:0:
256,192,207669,1,8,0:0:0:0:
256,192,207834,1,0,0:0:0:0:
256,192,207999,1,8,0:0:0:0:
256,192,208081,1,0,0:0:0:0:
256,192,208163,1,8,0:0:0:0:
256,192,208328,1,8,0:0:0:0:
256,192,208493,1,0,0:0:0:0:
256,192,208740,1,8,0:0:0:0:
256,192,208823,1,0,0:0:0:0:
256,192,209152,1,8,0:0:0:0:
256,192,209317,1,8,0:0:0:0:
256,192,209482,1,0,0:0:0:0:
256,192,209647,1,0,0:0:0:0:
256,192,209729,1,0,0:0:0:0:
256,192,209812,1,8,0:0:0:0:
256,192,209977,1,8,0:0:0:0:
256,192,210142,1,0,0:0:0:0:
256,192,210224,1,0,0:0:0:0:
256,192,210306,1,8,0:0:0:0:
256,192,210471,1,8,0:0:0:0:
256,192,210636,1,0,0:0:0:0:
256,192,210718,1,0,0:0:0:0:
256,192,210801,1,8,0:0:0:0:
256,192,210966,1,0,0:0:0:0:
256,192,211131,1,8,0:0:0:0:
256,192,211378,1,0,0:0:0:0:
256,192,211460,1,8,0:0:0:0:
256,192,211707,1,0,0:0:0:0:
256,192,211790,1,8,0:0:0:0:
256,192,211955,1,8,0:0:0:0:
256,192,212284,1,0,0:0:0:0:
256,192,212367,1,0,0:0:0:0:
256,192,212449,1,8,0:0:0:0:
256,192,212614,1,8,0:0:0:0:
256,192,212779,1,0,0:0:0:0:
256,192,212861,1,0,0:0:0:0:
256,192,212944,1,8,0:0:0:0:
256,192,213109,1,8,0:0:0:0:
256,192,213273,1,0,0:0:0:0:
256,192,213356,1,0,0:0:0:0:
256,192,213438,1,8,0:0:0:0:
256,192,213603,1,0,0:0:0:0:
256,192,213768,5,0,0:0:0:0:
256,192,216405,1,8,0:0:0:0:
256,192,216570,12,0,221680,0:0:0:0:
