osu file format v14

[General]
AudioFilename: The Flashbulb - That Missing Week (Alternate).mp3
AudioLeadIn: 0
PreviewTime: 75611
Countdown: 0
SampleSet: Normal
StackLeniency: 0.7
Mode: 1
LetterboxInBreaks: 0
WidescreenStoryboard: 0

[Editor]
DistanceSpacing: 0.8
BeatDivisor: 16
GridSize: 32
TimelineZoom: 2.8

[Metadata]
Title:That Missing Week (Alternate)
TitleUnicode:That Missing Week (Alternate)
Artist:The Flashbulb
ArtistUnicode:The Flashbulb
Creator:ZTH
Version:Inner Oni
Source:
Tags:Benn Jordan ambient post rock fa featured artist electronic instrumental
BeatmapID:1944768
BeatmapSetID:931375

[Difficulty]
HPDrainRate:6
CircleSize:4
OverallDifficulty:6
ApproachRate:5
SliderMultiplier:1.4
SliderTickRate:3

[Events]
//Background and Video events
0,0,"bg.jpg",0,-22
//Break Periods
//Storyboard Layer 0 (Background)
//Storyboard Layer 1 (Fail)
//Storyboard Layer 2 (Pass)
//Storyboard Layer 3 (Foreground)
//Storyboard Layer 4 (Overlay)
//Storyboard Sound Samples

[TimingPoints]
30257,472.440945,4,1,0,40,1,0
30257,-66.6666666666667,4,1,0,40,0,0
31201,-66.6666666666667,4,1,0,50,0,0
32146,-66.6666666666667,4,1,0,60,0,0
34036,-66.6666666666667,4,1,0,65,0,0
35926,-66.6666666666667,4,1,0,70,0,0
37816,-66.6666666666667,4,1,0,75,0,0
75552,-66.6666666666667,4,1,0,80,0,0
75611,-66.6666666666667,4,1,0,80,0,1
90729,-66.6666666666667,4,1,0,75,0,0
90788,-66.6666666666667,4,1,0,50,0,0
92087,-66.6666666666667,4,1,0,55,0,0
92205,-66.6666666666667,4,1,0,60,0,0
92323,-66.6666666666667,4,1,0,65,0,0
92442,-66.6666666666667,4,1,0,70,0,0
92560,-66.6666666666667,4,1,0,75,0,0
94568,-66.6666666666667,4,1,0,50,0,0
97304,-66.6666666666667,4,1,0,55,0,0
97540,-66.6666666666667,4,1,0,60,0,0
97776,-66.6666666666667,4,1,0,65,0,0
97934,-66.6666666666667,4,1,0,68,0,0
98170,-66.6666666666667,4,1,0,73,0,0
98249,-66.6666666666667,4,1,0,75,0,0
127638,-66.6666666666667,4,1,0,71,0,0
127727,-66.6666666666667,4,1,0,67,0,0
127816,-66.6666666666667,4,1,0,63,0,0
127904,-66.6666666666667,4,1,0,59,0,0
127993,-66.6666666666667,4,1,0,55,0,0
128081,-66.6666666666667,4,1,0,51,0,0
128170,-66.6666666666667,4,1,0,47,0,0
128258,-66.6666666666667,4,1,0,43,0,0
128485,-66.6666666666667,4,1,0,70,0,0
130375,-66.6666666666667,4,1,0,65,0,0
132264,-66.6666666666667,4,1,0,60,0,0
134154,-66.6666666666667,4,1,0,55,0,0
136044,-66.6666666666667,4,1,0,50,0,0

[HitObjects]
217,233,30257,5,0,0:0:0:0:
228,238,30729,1,8,0:0:0:0:
241,254,31083,1,8,0:0:0:0:
258,255,31438,1,0,0:0:0:0:
255,255,31585,1,0,0:0:0:0:
253,249,31674,1,8,0:0:0:0:
252,246,32058,1,0,0:0:0:0:
252,246,32146,1,0,0:0:0:0:
255,262,32382,1,0,0:0:0:0:
255,262,32530,1,0,0:0:0:0:
255,262,32619,1,8,0:0:0:0:
255,255,32855,1,0,0:0:0:0:
252,266,32973,1,8,0:0:0:0:
252,266,33209,1,8,0:0:0:0:
252,266,33327,1,0,0:0:0:0:
252,266,33445,1,0,0:0:0:0:
252,266,33564,1,8,0:0:0:0:
249,277,33800,1,8,0:0:0:0:
249,277,33859,1,8,0:0:0:0:
249,277,33918,1,0,0:0:0:0:
249,277,33977,1,0,0:0:0:0:
249,277,34036,1,0,0:0:0:0:
241,281,34184,1,0,0:0:0:0:
241,281,34272,1,0,0:0:0:0:
241,281,34420,1,0,0:0:0:0:
241,281,34508,1,8,0:0:0:0:
241,281,34745,1,8,0:0:0:0:
236,276,35129,1,8,0:0:0:0:
236,271,35217,1,0,0:0:0:0:
250,276,35453,1,8,0:0:0:0:
250,276,35601,1,0,0:0:0:0:
255,279,35837,1,8,0:0:0:0:
255,279,35926,1,0,0:0:0:0:
255,279,36162,1,0,0:0:0:0:
255,279,36398,1,8,0:0:0:0:
259,284,36634,1,8,0:0:0:0:
259,284,36694,1,8,0:0:0:0:
262,272,36812,1,0,0:0:0:0:
259,284,36871,1,0,0:0:0:0:
259,284,37018,1,8,0:0:0:0:
259,284,37107,1,0,0:0:0:0:
259,284,37255,1,0,0:0:0:0:
259,284,37343,1,8,0:0:0:0:
259,284,37491,1,0,0:0:0:0:
259,284,37579,1,0,0:0:0:0:
259,284,37727,1,8,0:0:0:0:
259,284,37816,1,0,0:0:0:0:
259,284,38052,1,0,0:0:0:0:
259,284,38199,1,0,0:0:0:0:
259,284,38288,1,8,0:0:0:0:
259,284,38524,1,0,0:0:0:0:
259,284,38760,1,0,0:0:0:0:
259,284,38908,1,8,0:0:0:0:
259,284,38997,1,0,0:0:0:0:
259,284,39233,1,8,0:0:0:0:
259,284,39381,1,0,0:0:0:0:
259,284,39469,1,0,0:0:0:0:
259,284,39617,1,8,0:0:0:0:
259,284,39705,1,0,0:0:0:0:
248,291,39823,1,0,0:0:0:0:
248,291,39942,1,8,0:0:0:0:
256,300,40089,1,0,0:0:0:0:
256,300,40178,1,8,0:0:0:0:
250,287,40414,1,8,0:0:0:0:
250,287,40532,1,0,0:0:0:0:
250,287,40591,1,0,0:0:0:0:
250,287,40650,1,0,0:0:0:0:
256,281,40798,1,8,0:0:0:0:
256,281,40886,1,0,0:0:0:0:
269,287,41034,1,0,0:0:0:0:
269,287,41123,1,8,0:0:0:0:
275,284,41270,1,0,0:0:0:0:
275,284,41359,1,0,0:0:0:0:
275,284,41507,1,8,0:0:0:0:
275,284,41595,1,0,0:0:0:0:
256,265,41772,1,0,0:0:0:0:
241,263,41831,1,8,0:0:0:0:
256,265,41949,1,0,0:0:0:0:
256,265,42068,1,8,0:0:0:0:
259,262,42156,1,8,0:0:0:0:
259,262,42245,1,0,0:0:0:0:
259,262,42333,1,0,0:0:0:0:
259,262,42451,1,8,0:0:0:0:
259,262,42540,1,0,0:0:0:0:
275,254,42658,1,8,0:0:0:0:
271,266,42776,1,8,0:0:0:0:
271,266,42835,1,8,0:0:0:0:
271,266,42894,1,0,0:0:0:0:
271,266,42953,1,0,0:0:0:0:
271,266,43012,1,8,0:0:0:0:
271,266,43249,1,0,0:0:0:0:
271,266,43485,1,8,0:0:0:0:
273,261,43632,1,0,0:0:0:0:
273,261,43721,1,0,0:0:0:0:
273,261,43869,1,0,0:0:0:0:
273,261,43957,1,8,0:0:0:0:
273,261,44194,1,0,0:0:0:0:
273,261,44577,1,8,0:0:0:0:
294,272,44666,1,0,0:0:0:0:
294,271,44814,1,0,0:0:0:0:
294,271,44902,1,8,0:0:0:0:
294,271,45138,1,8,0:0:0:0:
294,271,45286,1,8,0:0:0:0:
294,271,45375,1,0,0:0:0:0:
360,276,45611,1,0,0:0:0:0:
307,263,45758,1,0,0:0:0:0:
307,263,45847,1,8,0:0:0:0:
307,263,46083,1,0,0:0:0:0:
329,270,46231,1,8,0:0:0:0:
319,261,46556,1,0,0:0:0:0:
319,261,46792,1,8,0:0:0:0:
319,261,46940,1,0,0:0:0:0:
319,261,47028,1,0,0:0:0:0:
319,261,47176,1,8,0:0:0:0:
319,261,47264,1,0,0:0:0:0:
345,265,47501,1,0,0:0:0:0:
330,279,47619,1,0,0:0:0:0:
330,279,47678,1,0,0:0:0:0:
345,265,47737,1,8,0:0:0:0:
273,239,47884,1,0,0:0:0:0:
340,268,48091,1,8,0:0:0:0:
337,287,48209,1,0,0:0:0:0:
355,292,48327,1,0,0:0:0:0:
355,292,48386,1,8,0:0:0:0:
355,292,48445,1,8,0:0:0:0:
355,292,48682,1,8,0:0:0:0:
329,289,49066,1,0,0:0:0:0:
343,284,49154,1,8,0:0:0:0:
330,294,49213,1,8,0:0:0:0:
330,294,49272,1,8,0:0:0:0:
344,296,49331,1,8,0:0:0:0:
330,294,49390,1,0,0:0:0:0:
344,296,49508,1,0,0:0:0:0:
344,296,49627,1,8,0:0:0:0:
344,296,49686,1,0,0:0:0:0:
350,276,49745,1,0,0:0:0:0:
344,296,49863,1,8,0:0:0:0:
344,296,49981,1,0,0:0:0:0:
336,291,50040,1,0,0:0:0:0:
344,296,50099,1,0,0:0:0:0:
335,296,50276,1,8,0:0:0:0:
334,290,50483,1,0,0:0:0:0:
334,290,50571,1,8,0:0:0:0:
317,304,50808,1,8,0:0:0:0:
318,309,51044,1,0,0:0:0:0:
321,290,51192,1,8,0:0:0:0:
321,290,51280,1,0,0:0:0:0:
321,290,51428,1,0,0:0:0:0:
321,290,51516,1,8,0:0:0:0:
299,241,51664,1,0,0:0:0:0:
321,290,51753,1,0,0:0:0:0:
321,290,51900,1,8,0:0:0:0:
321,290,51989,1,0,0:0:0:0:
321,290,52136,1,8,0:0:0:0:
321,290,52225,1,0,0:0:0:0:
321,290,52373,1,0,0:0:0:0:
321,290,52461,1,8,0:0:0:0:
321,290,52609,1,0,0:0:0:0:
321,290,52697,1,0,0:0:0:0:
321,290,52845,1,8,0:0:0:0:
321,290,52934,1,0,0:0:0:0:
321,290,53170,1,8,0:0:0:0:
321,290,53318,1,0,0:0:0:0:
321,290,53406,1,8,0:0:0:0:
324,296,53642,1,8,0:0:0:0:
324,296,53879,1,0,0:0:0:0:
324,296,54026,1,8,0:0:0:0:
324,296,54115,1,0,0:0:0:0:
324,294,54351,1,8,0:0:0:0:
324,296,54499,1,8,0:0:0:0:
324,296,54587,1,0,0:0:0:0:
324,296,54735,1,8,0:0:0:0:
324,296,54823,1,0,0:0:0:0:
324,296,55060,1,0,0:0:0:0:
324,294,55296,1,8,0:0:0:0:
337,294,55532,1,8,0:0:0:0:
337,294,55680,1,0,0:0:0:0:
337,294,55768,1,0,0:0:0:0:
337,294,55916,1,8,0:0:0:0:
337,294,56005,1,0,0:0:0:0:
337,294,56152,1,0,0:0:0:0:
337,294,56241,1,8,0:0:0:0:
337,294,56388,1,0,0:0:0:0:
337,294,56477,1,0,0:0:0:0:
337,294,56625,1,8,0:0:0:0:
337,294,56713,1,0,0:0:0:0:
319,279,56949,1,0,0:0:0:0:
319,280,57097,1,0,0:0:0:0:
319,280,57186,1,8,0:0:0:0:
321,280,57333,1,0,0:0:0:0:
321,280,57569,1,0,0:0:0:0:
321,280,57658,1,0,0:0:0:0:
319,279,57806,1,8,0:0:0:0:
319,279,57894,1,0,0:0:0:0:
319,280,58131,1,0,0:0:0:0:
321,280,58278,1,8,0:0:0:0:
321,280,58514,1,8,0:0:0:0:
321,280,58603,1,0,0:0:0:0:
319,279,58839,1,0,0:0:0:0:
319,280,59075,1,8,0:0:0:0:
320,288,59134,1,8,0:0:0:0:
320,288,59223,1,8,0:0:0:0:
325,289,59312,1,0,0:0:0:0:
352,288,59371,1,0,0:0:0:0:
325,289,59459,1,8,0:0:0:0:
325,289,59548,1,0,0:0:0:0:
325,289,59695,1,8,0:0:0:0:
325,289,59784,1,0,0:0:0:0:
325,289,59932,1,8,0:0:0:0:
325,289,60020,1,8,0:0:0:0:
332,290,60109,1,0,0:0:0:0:
332,290,60168,1,0,0:0:0:0:
332,290,60257,1,0,0:0:0:0:
332,290,60404,1,8,0:0:0:0:
250,230,60493,1,0,0:0:0:0:
256,239,60965,1,8,0:0:0:0:
256,239,61113,1,0,0:0:0:0:
256,239,61349,1,8,0:0:0:0:
250,253,61438,1,0,0:0:0:0:
250,253,61497,1,0,0:0:0:0:
250,253,61556,1,0,0:0:0:0:
250,253,61615,1,0,0:0:0:0:
250,253,61674,1,8,0:0:0:0:
256,252,61910,1,8,0:0:0:0:
256,239,62146,1,8,0:0:0:0:
256,239,62205,1,8,0:0:0:0:
256,239,62264,1,8,0:0:0:0:
256,239,62323,1,8,0:0:0:0:
256,239,62382,1,0,0:0:0:0:
259,242,62619,1,0,0:0:0:0:
259,242,62855,1,8,0:0:0:0:
266,232,63003,1,0,0:0:0:0:
266,232,63091,1,0,0:0:0:0:
266,232,63239,1,0,0:0:0:0:
266,232,63327,1,8,0:0:0:0:
266,232,63416,1,0,0:0:0:0:
266,232,63475,1,0,0:0:0:0:
266,232,63564,1,8,0:0:0:0:
266,232,63711,1,8,0:0:0:0:
266,232,63800,1,0,0:0:0:0:
276,248,63888,1,8,0:0:0:0:
284,244,63947,1,8,0:0:0:0:
252,242,64036,1,0,0:0:0:0:
260,248,64184,1,8,0:0:0:0:
260,248,64272,1,0,0:0:0:0:
274,251,64508,1,0,0:0:0:0:
274,251,64745,1,8,0:0:0:0:
274,251,64981,1,0,0:0:0:0:
278,238,65129,1,8,0:0:0:0:
280,233,65365,1,0,0:0:0:0:
280,233,65601,1,0,0:0:0:0:
280,233,65690,1,8,0:0:0:0:
280,233,65837,1,0,0:0:0:0:
280,233,65926,1,8,0:0:0:0:
278,238,66073,1,0,0:0:0:0:
278,238,66162,1,0,0:0:0:0:
280,233,66310,1,0,0:0:0:0:
280,233,66398,1,8,0:0:0:0:
280,233,66546,1,0,0:0:0:0:
280,233,66634,1,8,0:0:0:0:
280,233,66782,1,8,0:0:0:0:
280,233,66871,1,0,0:0:0:0:
278,238,67018,1,8,0:0:0:0:
280,233,67255,1,8,0:0:0:0:
280,233,67343,1,8,0:0:0:0:
280,233,67432,1,0,0:0:0:0:
280,233,67491,1,0,0:0:0:0:
280,233,67579,1,8,0:0:0:0:
280,233,67727,1,0,0:0:0:0:
280,233,67816,1,8,0:0:0:0:
278,238,67963,1,8,0:0:0:0:
278,238,68052,1,0,0:0:0:0:
287,244,68288,1,0,0:0:0:0:
274,248,68524,1,8,0:0:0:0:
282,245,68760,1,0,0:0:0:0:
287,248,68908,1,8,0:0:0:0:
287,248,68997,1,0,0:0:0:0:
287,244,69233,1,0,0:0:0:0:
301,261,69381,1,0,0:0:0:0:
301,261,69469,1,8,0:0:0:0:
301,261,69705,1,8,0:0:0:0:
301,261,69942,1,0,0:0:0:0:
301,266,70089,1,0,0:0:0:0:
289,279,70178,1,8,0:0:0:0:
299,270,70325,1,0,0:0:0:0:
300,277,70414,1,8,0:0:0:0:
300,277,70473,1,8,0:0:0:0:
300,277,70532,1,8,0:0:0:0:
300,277,70591,1,0,0:0:0:0:
308,275,70650,1,0,0:0:0:0:
308,275,70709,1,0,0:0:0:0:
289,279,70798,1,8,0:0:0:0:
306,283,70886,1,0,0:0:0:0:
305,290,71034,1,0,0:0:0:0:
305,290,71182,1,0,0:0:0:0:
305,290,71359,1,8,0:0:0:0:
313,295,71595,1,8,0:0:0:0:
313,295,71831,1,0,0:0:0:0:
309,293,71979,1,0,0:0:0:0:
309,293,72068,1,8,0:0:0:0:
309,293,72215,1,0,0:0:0:0:
309,293,72304,1,8,0:0:0:0:
313,295,72451,1,0,0:0:0:0:
313,295,72540,1,0,0:0:0:0:
313,295,72688,1,8,0:0:0:0:
313,295,72776,1,0,0:0:0:0:
309,283,73012,1,8,0:0:0:0:
309,283,73160,1,0,0:0:0:0:
309,283,73249,1,8,0:0:0:0:
309,283,73485,1,8,0:0:0:0:
300,274,73721,1,0,0:0:0:0:
306,271,73869,1,8,0:0:0:0:
306,271,73957,1,0,0:0:0:0:
306,271,74105,1,0,0:0:0:0:
306,271,74194,1,8,0:0:0:0:
306,271,74341,1,0,0:0:0:0:
306,271,74430,1,8,0:0:0:0:
306,271,74577,1,8,0:0:0:0:
306,271,74666,1,0,0:0:0:0:
306,271,74814,1,8,0:0:0:0:
306,271,74902,1,0,0:0:0:0:
306,271,75050,1,8,0:0:0:0:
306,271,75138,1,8,0:0:0:0:
306,271,75286,1,0,0:0:0:0:
306,271,75375,1,8,0:0:0:0:
247,205,75611,5,8,0:0:0:0:
273,203,75699,1,0,0:0:0:0:
302,201,75758,1,0,0:0:0:0:
247,205,75847,1,8,0:0:0:0:
258,219,75936,1,0,0:0:0:0:
258,219,75995,1,0,0:0:0:0:
258,219,76083,1,8,0:0:0:0:
256,228,76231,1,8,0:0:0:0:
258,219,76319,1,0,0:0:0:0:
251,221,76556,1,12,0:0:0:0:
251,221,76733,1,4,0:0:0:0:
252,220,76910,1,12,0:0:0:0:
252,220,77087,1,4,0:0:0:0:
252,220,77264,1,12,0:0:0:0:
230,236,77412,1,8,0:0:0:0:
252,220,77501,1,0,0:0:0:0:
245,228,77648,1,0,0:0:0:0:
245,228,77737,1,0,0:0:0:0:
245,228,77884,1,0,0:0:0:0:
245,228,77973,1,8,0:0:0:0:
242,231,78032,1,8,0:0:0:0:
242,231,78091,1,0,0:0:0:0:
242,231,78150,1,0,0:0:0:0:
245,231,78209,1,8,0:0:0:0:
245,231,78298,1,0,0:0:0:0:
249,231,78445,1,8,0:0:0:0:
250,232,78623,1,0,0:0:0:0:
260,254,78770,1,8,0:0:0:0:
190,240,78918,1,0,0:0:0:0:
255,242,79066,1,0,0:0:0:0:
272,235,79154,1,8,0:0:0:0:
248,244,79213,1,8,0:0:0:0:
272,235,79302,1,0,0:0:0:0:
255,242,79390,1,8,0:0:0:0:
260,254,79627,1,0,0:0:0:0:
260,254,79745,1,0,0:0:0:0:
260,254,79804,1,0,0:0:0:0:
260,254,79863,1,8,0:0:0:0:
250,253,79981,1,0,0:0:0:0:
258,234,80099,1,8,0:0:0:0:
258,234,80158,1,8,0:0:0:0:
258,234,80217,1,8,0:0:0:0:
258,234,80276,1,8,0:0:0:0:
258,234,80335,1,0,0:0:0:0:
258,234,80453,1,8,0:0:0:0:
258,234,80571,1,8,0:0:0:0:
258,234,80631,1,8,0:0:0:0:
258,234,80690,1,0,0:0:0:0:
258,234,80808,1,8,0:0:0:0:
258,234,80926,1,8,0:0:0:0:
258,234,80985,1,8,0:0:0:0:
258,234,81044,1,0,0:0:0:0:
258,234,81103,1,0,0:0:0:0:
258,234,81162,1,8,0:0:0:0:
258,234,81280,1,0,0:0:0:0:
258,234,81516,1,0,0:0:0:0:
258,234,81753,1,8,0:0:0:0:
258,234,81841,1,8,0:0:0:0:
258,234,81930,1,8,0:0:0:0:
258,234,82018,1,0,0:0:0:0:
258,234,82107,1,0,0:0:0:0:
258,234,82195,1,0,0:0:0:0:
258,234,82284,1,8,0:0:0:0:
258,234,82373,1,8,0:0:0:0:
258,234,82461,1,8,0:0:0:0:
258,234,82550,1,0,0:0:0:0:
258,234,82638,1,0,0:0:0:0:
258,234,82727,1,0,0:0:0:0:
258,234,82816,1,0,0:0:0:0:
258,234,82934,1,8,0:0:0:0:
259,258,83170,1,8,0:0:0:0:
259,258,83229,1,8,0:0:0:0:
259,258,83288,1,0,0:0:0:0:
259,258,83347,1,0,0:0:0:0:
259,258,83406,1,8,0:0:0:0:
268,256,83465,1,0,0:0:0:0:
268,256,83524,1,0,0:0:0:0:
268,256,83583,1,0,0:0:0:0:
252,262,83642,1,8,0:0:0:0:
348,259,83879,1,8,0:0:0:0:
258,234,83938,1,0,0:0:0:0:
259,258,84115,1,0,0:0:0:0:
259,258,84174,1,0,0:0:0:0:
259,258,84233,1,0,0:0:0:0:
259,258,84292,1,0,0:0:0:0:
259,258,84351,1,8,0:0:0:0:
261,259,84499,1,0,0:0:0:0:
261,259,84587,1,8,0:0:0:0:
261,259,84676,1,0,0:0:0:0:
261,259,84735,1,0,0:0:0:0:
261,259,84823,1,8,0:0:0:0:
259,258,84971,1,8,0:0:0:0:
259,258,85060,1,0,0:0:0:0:
272,254,85296,1,8,0:0:0:0:
255,263,85444,1,0,0:0:0:0:
283,262,85532,1,8,0:0:0:0:
274,275,85768,1,8,0:0:0:0:
274,275,85857,1,0,0:0:0:0:
274,275,85916,1,0,0:0:0:0:
274,275,86005,1,8,0:0:0:0:
274,275,86152,1,0,0:0:0:0:
274,277,86241,1,8,0:0:0:0:
274,275,86388,1,0,0:0:0:0:
274,275,86477,1,8,0:0:0:0:
288,256,86625,1,0,0:0:0:0:
274,275,86713,1,0,0:0:0:0:
274,275,86861,1,8,0:0:0:0:
274,275,86949,1,0,0:0:0:0:
261,246,87068,1,0,0:0:0:0:
295,271,87156,1,8,0:0:0:0:
295,271,87245,1,8,0:0:0:0:
295,271,87333,1,8,0:0:0:0:
278,237,87422,1,8,0:0:0:0:
295,268,87510,1,0,0:0:0:0:
287,269,87599,1,0,0:0:0:0:
287,269,87658,1,0,0:0:0:0:
293,264,87806,1,8,0:0:0:0:
293,264,87894,1,0,0:0:0:0:
283,249,88042,1,8,0:0:0:0:
283,249,88131,1,0,0:0:0:0:
283,249,88278,1,0,0:0:0:0:
283,249,88367,1,8,0:0:0:0:
280,231,88514,1,0,0:0:0:0:
278,246,88603,1,0,0:0:0:0:
276,258,88751,1,8,0:0:0:0:
285,255,88839,1,0,0:0:0:0:
296,245,88957,1,0,0:0:0:0:
296,245,89075,1,8,0:0:0:0:
296,245,89194,1,0,0:0:0:0:
296,245,89312,1,8,0:0:0:0:
296,245,89430,1,8,0:0:0:0:
287,243,89489,5,0,0:0:0:0:
287,243,89666,1,0,0:0:0:0:
287,243,89784,1,8,0:0:0:0:
296,245,89902,1,0,0:0:0:0:
287,243,89961,1,0,0:0:0:0:
287,243,90020,1,8,0:0:0:0:
296,245,90138,1,0,0:0:0:0:
298,233,90197,1,8,0:0:0:0:
287,243,90257,1,8,0:0:0:0:
287,243,90493,1,8,0:0:0:0:
287,243,90729,1,4,0:0:0:0:
369,190,92146,1,0,0:0:0:0:
344,205,92205,1,0,0:0:0:0:
344,205,92264,1,8,0:0:0:0:
344,205,92323,1,0,0:0:0:0:
344,205,92382,1,0,0:0:0:0:
344,205,92442,1,0,0:0:0:0:
342,208,92501,1,8,0:0:0:0:
344,205,92619,1,0,0:0:0:0:
367,213,92766,1,0,0:0:0:0:
367,213,92855,1,8,0:0:0:0:
343,203,93003,1,8,0:0:0:0:
353,205,93091,1,8,0:0:0:0:
363,207,93239,1,0,0:0:0:0:
355,208,93327,1,8,0:0:0:0:
363,207,93475,1,0,0:0:0:0:
363,220,93564,1,0,0:0:0:0:
363,220,93711,1,8,0:0:0:0:
363,220,93800,1,0,0:0:0:0:
366,229,93947,1,0,0:0:0:0:
366,229,94036,1,8,0:0:0:0:
366,229,94184,1,0,0:0:0:0:
366,229,94272,1,8,0:0:0:0:
366,229,94508,1,4,0:0:0:0:
251,254,96398,1,0,0:0:0:0:
266,246,97343,1,8,0:0:0:0:
266,246,97579,1,0,0:0:0:0:
257,230,97816,1,8,0:0:0:0:
266,246,97963,1,0,0:0:0:0:
266,246,98199,1,8,0:0:0:0:
266,246,98288,1,0,0:0:0:0:
280,256,98524,1,0,0:0:0:0:
280,256,98760,1,8,0:0:0:0:
280,256,98997,1,0,0:0:0:0:
280,256,99233,1,0,0:0:0:0:
280,256,99469,1,0,0:0:0:0:
249,238,99705,1,8,0:0:0:0:
249,238,100178,1,0,0:0:0:0:
249,238,100414,1,0,0:0:0:0:
249,238,100650,1,8,0:0:0:0:
249,238,100886,1,0,0:0:0:0:
249,238,101123,1,8,0:0:0:0:
249,238,101359,1,0,0:0:0:0:
249,238,101595,1,8,0:0:0:0:
249,238,101979,1,8,0:0:0:0:
249,238,102068,1,0,0:0:0:0:
249,238,102304,1,0,0:0:0:0:
249,238,102540,1,8,0:0:0:0:
249,238,102776,1,0,0:0:0:0:
249,238,103012,1,0,0:0:0:0:
249,238,103249,1,0,0:0:0:0:
249,238,103485,1,8,0:0:0:0:
249,238,103957,1,0,0:0:0:0:
249,238,104194,1,0,0:0:0:0:
249,238,104430,1,8,0:0:0:0:
249,238,104666,1,0,0:0:0:0:
249,238,104902,1,8,0:0:0:0:
244,253,105138,5,0,0:0:0:0:
245,252,105375,1,8,0:0:0:0:
245,252,105493,1,0,0:0:0:0:
245,252,105758,1,8,0:0:0:0:
245,252,105847,1,0,0:0:0:0:
244,253,105995,1,0,0:0:0:0:
244,253,106083,1,8,0:0:0:0:
247,257,106231,1,0,0:0:0:0:
247,257,106319,1,8,0:0:0:0:
247,257,106467,1,0,0:0:0:0:
247,257,106556,1,0,0:0:0:0:
247,257,106703,1,0,0:0:0:0:
247,257,106792,1,8,0:0:0:0:
244,243,107028,1,0,0:0:0:0:
244,243,107264,1,8,0:0:0:0:
244,243,107501,1,8,0:0:0:0:
247,257,107737,1,0,0:0:0:0:
247,246,107855,1,8,0:0:0:0:
246,246,107914,1,8,0:0:0:0:
246,248,107973,1,8,0:0:0:0:
246,248,108032,1,0,0:0:0:0:
246,248,108091,1,0,0:0:0:0:
246,248,108150,1,0,0:0:0:0:
246,248,108209,1,8,0:0:0:0:
244,243,108445,1,0,0:0:0:0:
244,243,108682,1,8,0:0:0:0:
226,261,108800,1,0,0:0:0:0:
242,253,108918,1,0,0:0:0:0:
242,253,109036,1,8,0:0:0:0:
242,253,109154,1,8,0:0:0:0:
244,268,109272,1,8,0:0:0:0:
244,268,109390,1,0,0:0:0:0:
244,268,109508,1,0,0:0:0:0:
244,268,109627,1,0,0:0:0:0:
237,260,109774,1,8,0:0:0:0:
237,260,109863,1,0,0:0:0:0:
248,261,110010,1,0,0:0:0:0:
248,261,110099,1,8,0:0:0:0:
248,261,110335,1,0,0:0:0:0:
248,261,110571,1,8,0:0:0:0:
248,261,110719,1,0,0:0:0:0:
242,257,110808,1,0,0:0:0:0:
248,261,110955,1,0,0:0:0:0:
248,261,111044,1,8,0:0:0:0:
253,266,111280,1,0,0:0:0:0:
253,266,111516,1,8,0:0:0:0:
254,270,111753,1,0,0:0:0:0:
254,270,111900,1,0,0:0:0:0:
254,270,111989,1,8,0:0:0:0:
253,266,112136,1,0,0:0:0:0:
253,266,112225,1,0,0:0:0:0:
253,266,112373,1,0,0:0:0:0:
253,266,112461,1,8,0:0:0:0:
254,270,112609,1,8,0:0:0:0:
254,270,112697,1,0,0:0:0:0:
254,270,112845,1,0,0:0:0:0:
254,270,112934,1,8,0:0:0:0:
263,262,113170,1,0,0:0:0:0:
263,262,113229,1,0,0:0:0:0:
263,262,113318,1,8,0:0:0:0:
263,262,113406,1,0,0:0:0:0:
263,215,113524,1,0,0:0:0:0:
268,255,113642,1,8,0:0:0:0:
268,255,113701,1,8,0:0:0:0:
269,269,113790,1,0,0:0:0:0:
268,260,113879,1,8,0:0:0:0:
276,264,114026,1,8,0:0:0:0:
276,264,114115,1,0,0:0:0:0:
275,264,114262,1,0,0:0:0:0:
275,264,114351,1,8,0:0:0:0:
276,258,114469,1,0,0:0:0:0:
268,255,114587,1,8,0:0:0:0:
268,255,114646,1,8,0:0:0:0:
269,269,114735,1,0,0:0:0:0:
269,269,114823,1,8,0:0:0:0:
261,266,114971,1,0,0:0:0:0:
261,266,115060,1,8,0:0:0:0:
259,261,115296,1,0,0:0:0:0:
264,259,115444,1,0,0:0:0:0:
264,259,115532,1,8,0:0:0:0:
264,259,115680,1,8,0:0:0:0:
264,259,115768,1,0,0:0:0:0:
264,259,115916,1,0,0:0:0:0:
264,259,116005,1,0,0:0:0:0:
264,259,116152,1,0,0:0:0:0:
264,259,116241,1,8,0:0:0:0:
264,259,116477,1,0,0:0:0:0:
248,259,116625,1,0,0:0:0:0:
248,259,116713,1,8,0:0:0:0:
264,259,116949,1,8,0:0:0:0:
264,259,117097,1,8,0:0:0:0:
264,259,117186,1,0,0:0:0:0:
247,261,117422,1,8,0:0:0:0:
247,261,117481,1,8,0:0:0:0:
256,261,117569,1,0,0:0:0:0:
256,261,117658,1,8,0:0:0:0:
258,261,117806,1,8,0:0:0:0:
258,261,117894,1,0,0:0:0:0:
258,261,118042,1,0,0:0:0:0:
258,261,118131,1,8,0:0:0:0:
258,261,118367,1,0,0:0:0:0:
258,261,118514,1,8,0:0:0:0:
256,261,118603,1,0,0:0:0:0:
268,267,118721,1,0,0:0:0:0:
266,261,118839,1,8,0:0:0:0:
278,261,118898,1,0,0:0:0:0:
268,267,119016,1,0,0:0:0:0:
266,261,119075,1,8,0:0:0:0:
267,266,119312,1,0,0:0:0:0:
266,267,119489,1,0,0:0:0:0:
266,267,119548,1,8,0:0:0:0:
268,267,119666,1,8,0:0:0:0:
280,275,119932,1,0,0:0:0:0:
280,275,120020,1,8,0:0:0:0:
281,269,120168,1,0,0:0:0:0:
292,254,120404,1,0,0:0:0:0:
293,253,120493,1,8,0:0:0:0:
319,270,120611,1,8,0:0:0:0:
291,269,120729,1,0,0:0:0:0:
281,269,120788,1,0,0:0:0:0:
281,269,120877,1,8,0:0:0:0:
291,269,120965,1,0,0:0:0:0:
292,279,121201,1,0,0:0:0:0:
292,279,121438,1,8,0:0:0:0:
292,279,121674,1,0,0:0:0:0:
292,279,121910,1,0,0:0:0:0:
259,264,122146,1,0,0:0:0:0:
282,268,122264,1,0,0:0:0:0:
282,268,122382,1,8,0:0:0:0:
283,272,122855,1,0,0:0:0:0:
283,272,123091,1,0,0:0:0:0:
282,268,123327,1,8,0:0:0:0:
283,272,123564,1,0,0:0:0:0:
283,272,123800,1,8,0:0:0:0:
283,272,124036,1,0,0:0:0:0:
282,268,124272,1,8,0:0:0:0:
283,272,124656,1,8,0:0:0:0:
283,272,124745,1,0,0:0:0:0:
283,272,124981,1,0,0:0:0:0:
282,268,125099,1,0,0:0:0:0:
282,268,125217,1,8,0:0:0:0:
289,267,125453,1,0,0:0:0:0:
289,267,125571,1,8,0:0:0:0:
289,267,125690,1,0,0:0:0:0:
289,267,125926,1,8,0:0:0:0:
289,267,126044,1,0,0:0:0:0:
289,267,126162,1,8,0:0:0:0:
289,267,126634,1,0,0:0:0:0:
289,267,126871,1,0,0:0:0:0:
289,267,127107,1,8,0:0:0:0:
289,267,127343,1,0,0:0:0:0:
304,264,127579,1,8,0:0:0:0:
304,264,127668,1,8,0:0:0:0:
304,264,127757,1,8,0:0:0:0:
304,264,127845,1,0,0:0:0:0:
304,264,127934,1,0,0:0:0:0:
304,264,128022,1,0,0:0:0:0:
289,267,128111,1,8,0:0:0:0:
289,267,128199,1,8,0:0:0:0:
289,267,128288,1,8,0:0:0:0:
304,264,128524,1,0,0:0:0:0:
306,276,128760,1,0,0:0:0:0:
306,276,128997,1,8,0:0:0:0:
306,276,129233,1,8,0:0:0:0:
306,276,129469,1,0,0:0:0:0:
306,276,129705,1,0,0:0:0:0:
306,276,129942,1,8,0:0:0:0:
313,292,130414,1,0,0:0:0:0:
313,288,130650,1,0,0:0:0:0:
313,288,130886,1,8,0:0:0:0:
313,292,131123,1,0,0:0:0:0:
313,292,131359,1,8,0:0:0:0:
313,288,131595,1,0,0:0:0:0:
313,288,131831,1,8,0:0:0:0:
313,292,132215,1,8,0:0:0:0:
313,292,132304,1,0,0:0:0:0:
313,288,132540,1,0,0:0:0:0:
313,288,132776,1,8,0:0:0:0:
313,292,133012,1,0,0:0:0:0:
313,292,133249,1,0,0:0:0:0:
313,288,133485,1,0,0:0:0:0:
313,288,133721,1,8,0:0:0:0:
313,292,134194,1,0,0:0:0:0:
313,288,134430,1,0,0:0:0:0:
313,288,134666,1,8,0:0:0:0:
334,300,134902,1,8,0:0:0:0:
334,300,135138,1,8,0:0:0:0:
334,300,135375,1,0,0:0:0:0:
334,300,135611,1,8,0:0:0:0:
334,300,135995,1,8,0:0:0:0:
334,300,136083,1,0,0:0:0:0:
