osu file format v14

[General]
AudioFilename: The Flashbulb - That Missing Week (Alternate).mp3
AudioLeadIn: 0
PreviewTime: 75611
Countdown: 0
SampleSet: Normal
StackLeniency: 0.7
Mode: 1
LetterboxInBreaks: 0
WidescreenStoryboard: 0

[Editor]
DistanceSpacing: 0.8
BeatDivisor: 2
GridSize: 32
TimelineZoom: 2.3

[Metadata]
Title:That Missing Week (Alternate)
TitleUnicode:That Missing Week (Alternate)
Artist:The Flashbulb
ArtistUnicode:The Flashbulb
Creator:ZTH
Version:Futsuu
Source:
Tags:Benn Jordan ambient post rock fa featured artist electronic instrumental
BeatmapID:2515851
BeatmapSetID:931375

[Difficulty]
HPDrainRate:8
CircleSize:4
OverallDifficulty:3
ApproachRate:5
SliderMultiplier:1.4
SliderTickRate:3

[Events]
//Background and Video events
0,0,"bg.jpg",0,-22
//Break Periods
//Storyboard Layer 0 (Background)
//Storyboard Layer 1 (Fail)
//Storyboard Layer 2 (Pass)
//Storyboard Layer 3 (Foreground)
//Storyboard Layer 4 (Overlay)
//Storyboard Sound Samples

[TimingPoints]
30257,472.440945,4,1,0,40,1,0
30257,-66.6666666666667,4,1,0,40,0,0
31201,-66.6666666666667,4,1,0,50,0,0
32146,-66.6666666666667,4,1,0,60,0,0
34036,-66.6666666666667,4,1,0,65,0,0
35926,-66.6666666666667,4,1,0,70,0,0
37816,-66.6666666666667,4,1,0,75,0,0
75552,-66.6666666666667,4,1,0,80,0,0
75611,-66.6666666666667,4,1,0,80,0,1
90729,-66.6666666666667,4,1,0,75,0,0
90788,-66.6666666666667,4,1,0,50,0,0
92087,-66.6666666666667,4,1,0,55,0,0
92560,-66.6666666666667,4,1,0,75,0,0
94568,-66.6666666666667,4,1,0,50,0,0
97304,-66.6666666666667,4,1,0,55,0,0
97776,-66.6666666666667,4,1,0,65,0,0
98249,-66.6666666666667,4,1,0,75,0,0
127638,-66.6666666666667,4,1,0,71,0,0
127727,-66.6666666666667,4,1,0,67,0,0
127816,-66.6666666666667,4,1,0,63,0,0
127904,-66.6666666666667,4,1,0,59,0,0
127993,-66.6666666666667,4,1,0,55,0,0
128081,-66.6666666666667,4,1,0,51,0,0
128170,-66.6666666666667,4,1,0,47,0,0
128258,-66.6666666666667,4,1,0,43,0,0
128485,-66.6666666666667,4,1,0,70,0,0
130375,-66.6666666666667,4,1,0,65,0,0
132264,-66.6666666666667,4,1,0,60,0,0
134154,-66.6666666666667,4,1,0,55,0,0
136044,-66.6666666666667,4,1,0,50,0,0

[HitObjects]
217,233,30257,5,0,0:0:0:0:
241,254,30729,1,8,0:0:0:0:
253,249,31674,1,8,0:0:0:0:
252,246,32146,1,0,0:0:0:0:
255,262,32619,1,8,0:0:0:0:
252,266,33327,1,0,0:0:0:0:
249,277,33564,1,8,0:0:0:0:
249,277,34036,1,0,0:0:0:0:
241,281,34508,1,8,0:0:0:0:
153,231,34745,1,8,0:0:0:0:
491,306,35217,1,0,0:0:0:0:
250,276,35453,1,8,0:0:0:0:
255,279,35926,1,0,0:0:0:0:
255,279,36398,1,8,0:0:0:0:
219,195,36634,1,8,0:0:0:0:
122,335,37107,1,0,0:0:0:0:
259,284,37343,1,8,0:0:0:0:
259,284,37816,1,0,0:0:0:0:
259,284,38288,1,8,0:0:0:0:
259,284,39233,1,8,0:0:0:0:
248,291,39705,1,8,0:0:0:0:
248,291,39942,1,0,0:0:0:0:
256,300,40178,1,8,0:0:0:0:
250,287,40650,1,0,0:0:0:0:
269,287,41123,1,8,0:0:0:0:
275,284,41595,1,0,0:0:0:0:
297,278,42068,1,8,0:0:0:0:
297,278,42304,1,0,0:0:0:0:
259,262,42776,1,0,0:0:0:0:
275,254,43012,1,8,0:0:0:0:
271,266,43485,1,8,0:0:0:0:
273,261,43721,1,0,0:0:0:0:
273,261,43957,1,8,0:0:0:0:
273,261,44666,1,0,0:0:0:0:
294,271,44902,1,8,0:0:0:0:
294,271,45375,1,0,0:0:0:0:
329,270,45847,1,8,0:0:0:0:
319,261,46792,1,8,0:0:0:0:
319,261,47264,1,8,0:0:0:0:
319,261,47501,1,0,0:0:0:0:
345,265,47737,1,8,0:0:0:0:
355,292,48445,1,8,0:0:0:0:
355,292,48682,1,8,0:0:0:0:
343,284,49154,1,8,0:0:0:0:
289,278,49627,1,0,0:0:0:0:
313,325,49863,1,8,0:0:0:0:
344,296,50099,1,0,0:0:0:0:
334,290,50571,1,8,0:0:0:0:
318,309,51044,1,0,0:0:0:0:
321,290,51516,1,8,0:0:0:0:
321,290,51753,1,0,0:0:0:0:
321,290,52225,1,0,0:0:0:0:
321,290,52461,1,8,0:0:0:0:
321,290,52934,1,0,0:0:0:0:
324,296,53406,1,8,0:0:0:0:
324,294,54351,1,8,0:0:0:0:
324,296,54823,1,0,0:0:0:0:
324,296,55060,1,0,0:0:0:0:
324,294,55296,1,8,0:0:0:0:
323,279,55768,1,0,0:0:0:0:
337,294,56241,1,8,0:0:0:0:
337,294,56713,1,0,0:0:0:0:
319,280,57186,1,8,0:0:0:0:
321,280,57422,1,0,0:0:0:0:
319,280,57894,1,0,0:0:0:0:
321,280,58131,1,8,0:0:0:0:
321,280,58603,1,0,0:0:0:0:
319,280,59075,1,8,0:0:0:0:
282,234,59312,1,0,0:0:0:0:
296,280,59784,1,8,0:0:0:0:
332,290,60020,1,8,0:0:0:0:
310,259,60493,1,0,0:0:0:0:
201,245,60965,1,8,0:0:0:0:
256,252,61910,1,8,0:0:0:0:
256,239,62146,1,8,0:0:0:0:
256,239,62382,1,0,0:0:0:0:
259,242,62855,1,8,0:0:0:0:
256,239,63091,1,0,0:0:0:0:
266,232,63564,1,8,0:0:0:0:
266,232,63800,1,0,0:0:0:0:
206,257,64272,1,0,0:0:0:0:
274,251,64745,1,8,0:0:0:0:
274,251,64981,1,0,0:0:0:0:
278,238,65453,1,0,0:0:0:0:
280,233,65690,1,8,0:0:0:0:
278,238,66162,1,0,0:0:0:0:
280,233,66634,1,8,0:0:0:0:
280,233,66871,1,8,0:0:0:0:
280,233,67343,1,0,0:0:0:0:
280,233,67579,1,8,0:0:0:0:
278,238,68052,1,0,0:0:0:0:
274,248,68524,1,8,0:0:0:0:
301,261,69469,1,8,0:0:0:0:
301,261,69942,1,0,0:0:0:0:
301,261,70178,1,8,0:0:0:0:
300,277,70414,1,8,0:0:0:0:
306,283,70886,1,0,0:0:0:0:
305,290,71359,1,8,0:0:0:0:
313,295,71831,1,0,0:0:0:0:
309,293,72304,1,8,0:0:0:0:
313,295,72540,1,0,0:0:0:0:
309,283,73012,1,8,0:0:0:0:
309,283,73249,1,8,0:0:0:0:
300,274,73721,1,0,0:0:0:0:
306,271,74194,1,8,0:0:0:0:
306,271,74430,1,0,0:0:0:0:
331,219,74902,1,8,0:0:0:0:
306,271,75138,1,8,0:0:0:0:
247,205,75611,5,8,0:0:0:0:
273,203,75847,1,8,0:0:0:0:
258,219,76083,1,8,0:0:0:0:
251,221,76556,1,12,0:0:0:0:
237,235,77501,1,0,0:0:0:0:
257,231,77737,1,0,0:0:0:0:
245,228,77973,1,8,0:0:0:0:
249,231,78445,1,8,0:0:0:0:
249,231,78918,1,0,0:0:0:0:
273,234,79154,1,8,0:0:0:0:
255,242,79390,1,0,0:0:0:0:
258,234,80099,1,8,0:0:0:0:
258,234,80335,1,0,0:0:0:0:
171,266,80571,1,8,0:0:0:0:
258,234,80808,1,8,0:0:0:0:
258,234,81280,1,0,0:0:0:0:
258,234,81753,1,8,0:0:0:0:
258,234,81989,1,8,0:0:0:0:
258,234,82225,1,0,0:0:0:0:
247,205,83170,5,8,0:0:0:0:
258,219,83642,1,8,0:0:0:0:
258,219,83879,1,0,0:0:0:0:
258,234,84351,1,8,0:0:0:0:
261,259,84587,1,8,0:0:0:0:
275,262,85060,1,0,0:0:0:0:
255,263,85532,1,8,0:0:0:0:
275,262,85768,1,0,0:0:0:0:
106,205,86241,1,0,0:0:0:0:
255,263,86477,1,8,0:0:0:0:
274,275,86949,1,0,0:0:0:0:
274,275,87422,1,8,0:0:0:0:
274,275,87658,1,0,0:0:0:0:
283,249,88131,1,8,0:0:0:0:
283,249,88367,1,8,0:0:0:0:
285,255,88839,1,0,0:0:0:0:
296,245,89312,1,8,0:0:0:0:
296,245,89784,1,8,0:0:0:0:
296,245,90020,1,8,0:0:0:0:
287,243,90257,1,8,0:0:0:0:
287,243,90493,1,8,0:0:0:0:
287,243,90729,1,4,0:0:0:0:
369,190,92146,1,0,0:0:0:0:
344,205,92619,1,12,0:0:0:0:
353,205,93091,1,8,0:0:0:0:
363,220,93327,1,8,0:0:0:0:
197,194,93800,1,0,0:0:0:0:
314,240,94036,1,8,0:0:0:0:
363,220,94272,1,8,0:0:0:0:
366,229,94508,1,4,0:0:0:0:
251,254,96398,1,0,0:0:0:0:
262,258,97343,1,8,0:0:0:0:
262,258,97816,1,8,0:0:0:0:
266,246,98288,1,0,0:0:0:0:
266,246,99233,1,0,0:0:0:0:
280,256,99469,1,0,0:0:0:0:
249,238,99705,1,8,0:0:0:0:
249,238,100178,1,0,0:0:0:0:
408,291,101123,1,8,0:0:0:0:
249,238,101359,1,0,0:0:0:0:
249,238,101595,1,8,0:0:0:0:
249,238,102068,1,0,0:0:0:0:
249,238,103012,1,0,0:0:0:0:
249,238,103249,1,0,0:0:0:0:
249,238,103485,1,8,0:0:0:0:
249,238,103957,1,0,0:0:0:0:
285,248,104902,1,8,0:0:0:0:
244,253,105138,5,0,0:0:0:0:
247,257,105375,1,8,0:0:0:0:
245,252,105847,1,0,0:0:0:0:
247,257,106792,1,8,0:0:0:0:
244,243,107264,1,8,0:0:0:0:
244,243,107501,1,8,0:0:0:0:
247,246,107737,1,0,0:0:0:0:
246,248,108209,1,8,0:0:0:0:
244,243,108445,1,0,0:0:0:0:
242,253,108918,1,0,0:0:0:0:
242,253,109154,1,8,0:0:0:0:
244,268,109627,1,0,0:0:0:0:
248,261,110099,1,8,0:0:0:0:
136,152,110571,1,8,0:0:0:0:
253,266,110808,1,0,0:0:0:0:
248,261,111044,1,8,0:0:0:0:
253,266,111516,1,8,0:0:0:0:
254,270,111989,1,8,0:0:0:0:
253,266,112225,1,0,0:0:0:0:
254,270,112697,1,0,0:0:0:0:
253,266,112934,1,8,0:0:0:0:
246,244,113406,1,0,0:0:0:0:
275,264,114351,1,8,0:0:0:0:
275,264,114587,1,0,0:0:0:0:
268,255,114823,1,8,0:0:0:0:
259,261,115296,1,0,0:0:0:0:
330,265,115768,1,8,0:0:0:0:
264,259,116005,1,0,0:0:0:0:
264,259,116477,1,0,0:0:0:0:
248,259,116713,1,8,0:0:0:0:
248,259,116949,1,8,0:0:0:0:
264,259,117186,1,0,0:0:0:0:
258,261,118131,1,8,0:0:0:0:
258,261,118367,1,0,0:0:0:0:
256,261,118603,1,8,0:0:0:0:
266,261,119075,1,8,0:0:0:0:
256,261,119548,1,0,0:0:0:0:
280,275,120020,1,8,0:0:0:0:
293,253,120257,1,0,0:0:0:0:
291,269,120729,1,8,0:0:0:0:
291,269,120965,1,0,0:0:0:0:
292,279,121910,1,0,0:0:0:0:
259,264,122146,1,0,0:0:0:0:
282,268,122382,1,8,0:0:0:0:
283,272,122855,1,0,0:0:0:0:
283,272,123800,1,8,0:0:0:0:
283,272,124036,1,0,0:0:0:0:
282,268,124272,1,8,0:0:0:0:
283,272,124745,1,0,0:0:0:0:
289,267,125690,1,0,0:0:0:0:
289,267,125926,1,8,0:0:0:0:
289,267,126162,1,8,0:0:0:0:
289,267,126634,1,0,0:0:0:0:
256,192,127579,12,0,128288,0:0:0:0:
304,264,128524,5,0,0:0:0:0:
306,276,129469,1,0,0:0:0:0:
306,276,129705,1,0,0:0:0:0:
306,276,129942,1,8,0:0:0:0:
313,292,130414,1,0,0:0:0:0:
313,292,131359,1,8,0:0:0:0:
313,288,131595,1,0,0:0:0:0:
313,288,131831,1,8,0:0:0:0:
313,292,132304,1,0,0:0:0:0:
313,292,133249,1,0,0:0:0:0:
313,288,133485,1,0,0:0:0:0:
313,288,133721,1,8,0:0:0:0:
313,292,134194,1,0,0:0:0:0:
334,300,135138,1,8,0:0:0:0:
334,300,135375,1,8,0:0:0:0:
334,300,135611,1,8,0:0:0:0:
334,300,136083,1,0,0:0:0:0:
