osu file format v14

[General]
AudioFilename: A2._The_Flashbulb_-_Stinger 1.100x.mp3
AudioLeadIn: 0
PreviewTime: 36092
Countdown: 0
SampleSet: None
StackLeniency: 0.7
Mode: 3
LetterboxInBreaks: 0
SpecialStyle: 0
WidescreenStoryboard: 1

[Editor]
DistanceSpacing: 0.8
BeatDivisor: 4
GridSize: 32
TimelineZoom: 2.1

[Metadata]
Title:Stinger
TitleUnicode:Stinger
Artist:The Flashbulb
ArtistUnicode:The Flashbulb
Creator:lemonguy
Version:Another x1.1
Source:Drain Mode = ON
Tags:drain mode on benn jordan the flashbulb stinger lemonguy tech stepmania etterna ffr osutrainer
BeatmapID:3468624
BeatmapSetID:970202

[Difficulty]
HPDrainRate:8
CircleSize:4
OverallDifficulty:8
ApproachRate:5.4
SliderMultiplier:1.4
SliderTickRate:1

[Events]
//Background and Video events
0,0,"stinger.jpg",0,0
//Break Periods
//Storyboard Layer 0 (Background)
//Storyboard Layer 1 (Fail)
//Storyboard Layer 2 (Pass)
//Storyboard Layer 3 (Foreground)
//Storyboard Layer 4 (Overlay)
//Storyboard Sound Samples

[TimingPoints]
969,266.090963636364,4,1,0,35,1,0

[HitObjects]
448,192,192,5,0,0:0:0:0:
64,192,452,1,0,0:0:0:0:
448,192,719,1,0,0:0:0:0:
64,192,985,1,0,0:0:0:0:
448,192,1250,1,0,0:0:0:0:
192,192,1368,1,0,0:0:0:0:
64,192,1500,128,0,1633:0:0:0:0:
320,192,1633,1,0,0:0:0:0:
448,192,1767,128,0,2032:0:0:0:0:
192,192,1900,1,0,0:0:0:0:
320,192,2032,1,0,0:0:0:0:
64,192,2032,128,0,2299:0:0:0:0:
192,192,2166,1,0,0:0:0:0:
448,192,2299,1,0,0:0:0:0:
320,192,2299,1,0,0:0:0:0:
64,192,2431,1,0,0:0:0:0:
192,192,2499,1,0,0:0:0:0:
448,192,2565,1,0,0:0:0:0:
192,192,2631,1,0,0:0:0:0:
320,192,2698,1,0,0:0:0:0:
64,192,2698,1,0,0:0:0:0:
448,192,2830,1,0,0:0:0:0:
320,192,2830,1,0,0:0:0:0:
192,192,2964,1,0,0:0:0:0:
448,192,3030,1,0,0:0:0:0:
320,192,3097,1,0,0:0:0:0:
64,192,3097,1,0,0:0:0:0:
192,192,3230,1,0,0:0:0:0:
448,192,3363,1,0,0:0:0:0:
320,192,3363,1,0,0:0:0:0:
64,192,3496,1,0,0:0:0:0:
192,192,3562,1,0,0:0:0:0:
448,192,3630,1,0,0:0:0:0:
192,192,3696,1,0,0:0:0:0:
320,192,3762,1,0,0:0:0:0:
64,192,3762,1,0,0:0:0:0:
448,192,3895,1,0,0:0:0:0:
320,192,3895,1,0,0:0:0:0:
192,192,3961,1,0,0:0:0:0:
64,192,4029,1,0,0:0:0:0:
320,192,4095,1,0,0:0:0:0:
448,192,4161,1,0,0:0:0:0:
192,192,4161,1,0,0:0:0:0:
320,192,4294,1,0,0:0:0:0:
192,192,4428,1,0,0:0:0:0:
64,192,4428,1,0,0:0:0:0:
448,192,4560,1,0,0:0:0:0:
320,192,4627,1,0,0:0:0:0:
64,192,4693,1,0,0:0:0:0:
320,192,4760,1,0,0:0:0:0:
448,192,4827,1,0,0:0:0:0:
192,192,4827,1,0,0:0:0:0:
192,192,4960,1,0,0:0:0:0:
64,192,4960,1,0,0:0:0:0:
320,192,5092,1,0,0:0:0:0:
64,192,5160,1,0,0:0:0:0:
448,192,5226,1,0,0:0:0:0:
192,192,5226,1,0,0:0:0:0:
320,192,5359,1,0,0:0:0:0:
192,192,5491,1,0,0:0:0:0:
64,192,5491,1,0,0:0:0:0:
448,192,5625,1,0,0:0:0:0:
320,192,5691,1,0,0:0:0:0:
192,192,5758,1,0,0:0:0:0:
64,192,5758,1,0,0:0:0:0:
448,192,5890,1,0,0:0:0:0:
192,192,5890,1,0,0:0:0:0:
448,192,6024,128,0,6157:0:0:0:0:
320,192,6024,128,0,6157:0:0:0:0:
64,192,6024,128,0,6157:0:0:0:0:
320,192,6290,1,0,0:0:0:0:
64,192,6290,1,0,0:0:0:0:
192,192,6423,1,0,0:0:0:0:
448,192,6556,1,0,0:0:0:0:
320,192,6556,1,0,0:0:0:0:
64,192,6690,1,0,0:0:0:0:
192,192,6756,1,0,0:0:0:0:
448,192,6822,1,0,0:0:0:0:
192,192,6889,1,0,0:0:0:0:
320,192,6955,1,0,0:0:0:0:
64,192,6955,1,0,0:0:0:0:
448,192,7089,1,0,0:0:0:0:
320,192,7089,1,0,0:0:0:0:
192,192,7221,1,0,0:0:0:0:
448,192,7288,1,0,0:0:0:0:
320,192,7354,1,0,0:0:0:0:
64,192,7354,1,0,0:0:0:0:
192,192,7488,1,0,0:0:0:0:
448,192,7620,1,0,0:0:0:0:
320,192,7620,1,0,0:0:0:0:
64,192,7753,1,0,0:0:0:0:
192,192,7820,1,0,0:0:0:0:
448,192,7887,1,0,0:0:0:0:
192,192,7953,1,0,0:0:0:0:
320,192,8020,1,0,0:0:0:0:
64,192,8020,1,0,0:0:0:0:
448,192,8152,1,0,0:0:0:0:
320,192,8152,1,0,0:0:0:0:
192,192,8220,1,0,0:0:0:0:
64,192,8286,1,0,0:0:0:0:
320,192,8352,1,0,0:0:0:0:
448,192,8419,1,0,0:0:0:0:
64,192,8419,1,0,0:0:0:0:
320,192,8551,1,0,0:0:0:0:
192,192,8685,1,0,0:0:0:0:
64,192,8685,1,0,0:0:0:0:
448,192,8818,1,0,0:0:0:0:
320,192,8884,1,0,0:0:0:0:
192,192,8951,1,0,0:0:0:0:
320,192,9018,1,0,0:0:0:0:
448,192,9084,1,0,0:0:0:0:
64,192,9084,1,0,0:0:0:0:
192,192,9217,1,0,0:0:0:0:
64,192,9217,1,0,0:0:0:0:
448,192,9350,1,0,0:0:0:0:
64,192,9417,1,0,0:0:0:0:
448,192,9483,1,0,0:0:0:0:
320,192,9483,1,0,0:0:0:0:
192,192,9616,1,0,0:0:0:0:
192,192,9750,1,0,0:0:0:0:
64,192,9750,1,0,0:0:0:0:
448,192,9882,1,0,0:0:0:0:
320,192,9949,1,0,0:0:0:0:
192,192,10015,1,0,0:0:0:0:
64,192,10015,1,0,0:0:0:0:
448,192,10149,1,0,0:0:0:0:
320,192,10149,1,0,0:0:0:0:
320,192,10281,1,0,0:0:0:0:
192,192,10315,1,0,0:0:0:0:
448,192,10348,1,0,0:0:0:0:
320,192,10381,1,0,0:0:0:0:
64,192,10414,1,0,0:0:0:0:
448,192,10548,1,0,0:0:0:0:
64,192,10548,1,0,0:0:0:0:
192,192,10680,1,0,0:0:0:0:
448,192,10813,1,0,0:0:0:0:
320,192,10813,1,0,0:0:0:0:
64,192,10947,1,0,0:0:0:0:
192,192,11013,1,0,0:0:0:0:
320,192,11080,1,0,0:0:0:0:
192,192,11146,1,0,0:0:0:0:
448,192,11212,1,0,0:0:0:0:
64,192,11212,1,0,0:0:0:0:
448,192,11346,1,0,0:0:0:0:
320,192,11346,1,0,0:0:0:0:
192,192,11479,1,0,0:0:0:0:
320,192,11545,1,0,0:0:0:0:
448,192,11612,1,0,0:0:0:0:
64,192,11612,1,0,0:0:0:0:
192,192,11745,1,0,0:0:0:0:
448,192,11878,1,0,0:0:0:0:
320,192,11878,1,0,0:0:0:0:
64,192,12011,1,0,0:0:0:0:
192,192,12078,1,0,0:0:0:0:
320,192,12144,1,0,0:0:0:0:
192,192,12210,1,0,0:0:0:0:
448,192,12277,1,0,0:0:0:0:
64,192,12277,1,0,0:0:0:0:
448,192,12410,1,0,0:0:0:0:
320,192,12410,1,0,0:0:0:0:
192,192,12477,1,0,0:0:0:0:
64,192,12543,1,0,0:0:0:0:
448,192,12610,1,0,0:0:0:0:
320,192,12676,1,0,0:0:0:0:
192,192,12676,1,0,0:0:0:0:
448,192,12810,1,0,0:0:0:0:
192,192,12942,1,0,0:0:0:0:
64,192,12942,1,0,0:0:0:0:
320,192,13075,1,0,0:0:0:0:
448,192,13142,1,0,0:0:0:0:
64,192,13209,1,0,0:0:0:0:
448,192,13275,1,0,0:0:0:0:
320,192,13341,1,0,0:0:0:0:
192,192,13341,1,0,0:0:0:0:
192,192,13474,1,0,0:0:0:0:
64,192,13474,1,0,0:0:0:0:
320,192,13608,1,0,0:0:0:0:
64,192,13674,1,0,0:0:0:0:
448,192,13740,1,0,0:0:0:0:
192,192,13740,1,0,0:0:0:0:
320,192,13873,1,0,0:0:0:0:
192,192,14007,1,0,0:0:0:0:
64,192,14007,1,0,0:0:0:0:
320,192,14140,1,0,0:0:0:0:
448,192,14206,1,0,0:0:0:0:
192,192,14273,1,0,0:0:0:0:
64,192,14273,1,0,0:0:0:0:
448,192,14406,1,0,0:0:0:0:
192,192,14406,1,0,0:0:0:0:
320,192,14539,1,0,0:0:0:0:
64,192,14583,1,0,0:0:0:0:
448,192,14628,1,0,0:0:0:0:
192,192,14672,1,0,0:0:0:0:
448,192,14739,1,0,0:0:0:0:
320,192,14805,1,0,0:0:0:0:
64,192,14805,1,0,0:0:0:0:
192,192,14938,1,0,0:0:0:0:
448,192,15071,1,0,0:0:0:0:
320,192,15071,1,0,0:0:0:0:
64,192,15204,1,0,0:0:0:0:
192,192,15270,1,0,0:0:0:0:
448,192,15337,1,0,0:0:0:0:
192,192,15403,1,0,0:0:0:0:
320,192,15470,1,0,0:0:0:0:
64,192,15470,1,0,0:0:0:0:
448,192,15603,1,0,0:0:0:0:
320,192,15603,1,0,0:0:0:0:
64,192,15736,1,0,0:0:0:0:
320,192,15803,1,0,0:0:0:0:
448,192,15870,1,0,0:0:0:0:
192,192,15870,1,0,0:0:0:0:
64,192,16002,1,0,0:0:0:0:
448,192,16135,1,0,0:0:0:0:
320,192,16135,1,0,0:0:0:0:
192,192,16269,1,0,0:0:0:0:
448,192,16335,1,0,0:0:0:0:
64,192,16401,1,0,0:0:0:0:
448,192,16468,1,0,0:0:0:0:
320,192,16534,1,0,0:0:0:0:
192,192,16534,1,0,0:0:0:0:
448,192,16668,1,0,0:0:0:0:
320,192,16668,1,0,0:0:0:0:
192,192,16734,1,0,0:0:0:0:
64,192,16800,1,0,0:0:0:0:
320,192,16867,1,0,0:0:0:0:
448,192,16934,1,0,0:0:0:0:
64,192,16934,1,0,0:0:0:0:
320,192,17067,1,0,0:0:0:0:
192,192,17200,1,0,0:0:0:0:
64,192,17200,1,0,0:0:0:0:
448,192,17333,1,0,0:0:0:0:
320,192,17400,1,0,0:0:0:0:
192,192,17466,1,0,0:0:0:0:
320,192,17532,1,0,0:0:0:0:
448,192,17599,1,0,0:0:0:0:
64,192,17599,1,0,0:0:0:0:
192,192,17732,1,0,0:0:0:0:
64,192,17732,1,0,0:0:0:0:
448,192,17865,1,0,0:0:0:0:
64,192,17931,1,0,0:0:0:0:
448,192,17998,1,0,0:0:0:0:
320,192,17998,1,0,0:0:0:0:
192,192,18131,1,0,0:0:0:0:
192,192,18264,1,0,0:0:0:0:
64,192,18264,1,0,0:0:0:0:
320,192,18397,1,0,0:0:0:0:
448,192,18464,1,0,0:0:0:0:
192,192,18530,1,0,0:0:0:0:
64,192,18530,1,0,0:0:0:0:
448,192,18663,1,0,0:0:0:0:
320,192,18663,1,0,0:0:0:0:
320,192,19062,1,0,0:0:0:0:
64,192,19062,1,0,0:0:0:0:
448,192,19107,1,0,0:0:0:0:
192,192,19151,1,0,0:0:0:0:
320,192,19195,1,0,0:0:0:0:
64,192,19240,1,0,0:0:0:0:
192,192,19284,1,0,0:0:0:0:
448,192,19329,1,0,0:0:0:0:
320,192,19329,1,0,0:0:0:0:
192,192,19461,1,0,0:0:0:0:
448,192,19528,1,0,0:0:0:0:
320,192,19595,1,0,0:0:0:0:
64,192,19595,1,0,0:0:0:0:
448,192,19661,1,0,0:0:0:0:
192,192,19728,1,0,0:0:0:0:
192,192,19794,1,0,0:0:0:0:
448,192,19860,1,0,0:0:0:0:
320,192,19860,1,0,0:0:0:0:
64,192,19927,1,0,0:0:0:0:
192,192,19994,1,0,0:0:0:0:
448,192,20127,1,0,0:0:0:0:
64,192,20127,1,0,0:0:0:0:
320,192,20171,1,0,0:0:0:0:
192,192,20215,1,0,0:0:0:0:
448,192,20260,1,0,0:0:0:0:
64,192,20304,1,0,0:0:0:0:
192,192,20349,1,0,0:0:0:0:
448,192,20393,1,0,0:0:0:0:
320,192,20393,1,0,0:0:0:0:
192,192,20526,1,0,0:0:0:0:
320,192,20592,1,0,0:0:0:0:
448,192,20659,1,0,0:0:0:0:
64,192,20659,1,0,0:0:0:0:
320,192,20725,1,0,0:0:0:0:
192,192,20792,1,0,0:0:0:0:
192,192,20859,1,0,0:0:0:0:
448,192,20925,1,0,0:0:0:0:
320,192,20925,1,0,0:0:0:0:
192,192,20991,1,0,0:0:0:0:
320,192,21058,1,0,0:0:0:0:
64,192,21125,1,0,0:0:0:0:
448,192,21191,1,0,0:0:0:0:
192,192,21191,1,0,0:0:0:0:
64,192,21235,1,0,0:0:0:0:
320,192,21280,1,0,0:0:0:0:
192,192,21324,1,0,0:0:0:0:
448,192,21369,1,0,0:0:0:0:
320,192,21413,1,0,0:0:0:0:
192,192,21457,1,0,0:0:0:0:
64,192,21457,1,0,0:0:0:0:
320,192,21590,1,0,0:0:0:0:
64,192,21657,1,0,0:0:0:0:
448,192,21723,1,0,0:0:0:0:
192,192,21723,1,0,0:0:0:0:
64,192,21790,1,0,0:0:0:0:
320,192,21856,1,0,0:0:0:0:
192,192,21990,1,0,0:0:0:0:
64,192,21990,1,0,0:0:0:0:
448,192,22056,1,0,0:0:0:0:
320,192,22122,1,0,0:0:0:0:
448,192,22256,1,0,0:0:0:0:
64,192,22256,1,0,0:0:0:0:
192,192,22300,1,0,0:0:0:0:
320,192,22344,1,0,0:0:0:0:
64,192,22389,1,0,0:0:0:0:
448,192,22433,1,0,0:0:0:0:
320,192,22477,1,0,0:0:0:0:
192,192,22521,1,0,0:0:0:0:
64,192,22521,1,0,0:0:0:0:
320,192,22655,1,0,0:0:0:0:
192,192,22721,1,0,0:0:0:0:
448,192,22788,1,0,0:0:0:0:
64,192,22788,1,0,0:0:0:0:
192,192,22854,1,0,0:0:0:0:
320,192,22920,1,0,0:0:0:0:
192,192,23054,1,0,0:0:0:0:
64,192,23054,1,0,0:0:0:0:
320,192,23098,1,0,0:0:0:0:
64,192,23142,1,0,0:0:0:0:
448,192,23187,1,0,0:0:0:0:
320,192,23220,1,0,0:0:0:0:
192,192,23253,1,0,0:0:0:0:
64,192,23287,1,0,0:0:0:0:
448,192,23320,1,0,0:0:0:0:
320,192,23364,1,0,0:0:0:0:
192,192,23409,1,0,0:0:0:0:
448,192,23453,1,0,0:0:0:0:
64,192,23497,1,0,0:0:0:0:
192,192,23541,1,0,0:0:0:0:
448,192,23586,1,0,0:0:0:0:
320,192,23586,1,0,0:0:0:0:
320,192,23719,1,0,0:0:0:0:
64,192,23719,1,0,0:0:0:0:
192,192,23786,1,0,0:0:0:0:
448,192,23852,1,0,0:0:0:0:
192,192,23919,1,0,0:0:0:0:
320,192,23985,1,0,0:0:0:0:
64,192,23985,1,0,0:0:0:0:
448,192,24118,1,0,0:0:0:0:
320,192,24118,1,0,0:0:0:0:
64,192,24185,1,0,0:0:0:0:
192,192,24251,128,0,24384:0:0:0:0:
448,192,24384,1,0,0:0:0:0:
64,192,24384,1,0,0:0:0:0:
320,192,24429,1,0,0:0:0:0:
192,192,24473,1,0,0:0:0:0:
448,192,24517,1,0,0:0:0:0:
64,192,24561,1,0,0:0:0:0:
192,192,24606,1,0,0:0:0:0:
448,192,24650,1,0,0:0:0:0:
320,192,24650,1,0,0:0:0:0:
448,192,24783,1,0,0:0:0:0:
64,192,24783,1,0,0:0:0:0:
192,192,24850,1,0,0:0:0:0:
320,192,24917,1,0,0:0:0:0:
192,192,24983,1,0,0:0:0:0:
448,192,25050,1,0,0:0:0:0:
64,192,25050,1,0,0:0:0:0:
448,192,25182,1,0,0:0:0:0:
320,192,25182,1,0,0:0:0:0:
64,192,25249,128,0,25316:0:0:0:0:
192,192,25316,128,0,25449:0:0:0:0:
448,192,25449,1,0,0:0:0:0:
64,192,25449,1,0,0:0:0:0:
320,192,25493,1,0,0:0:0:0:
192,192,25537,1,0,0:0:0:0:
448,192,25581,1,0,0:0:0:0:
448,192,25648,1,0,0:0:0:0:
192,192,25715,1,0,0:0:0:0:
64,192,25715,1,0,0:0:0:0:
448,192,25848,1,0,0:0:0:0:
320,192,25848,1,0,0:0:0:0:
64,192,25914,1,0,0:0:0:0:
448,192,25980,1,0,0:0:0:0:
192,192,25980,1,0,0:0:0:0:
64,192,26047,1,0,0:0:0:0:
320,192,26114,1,0,0:0:0:0:
192,192,26247,1,0,0:0:0:0:
64,192,26247,1,0,0:0:0:0:
448,192,26313,1,0,0:0:0:0:
192,192,26380,1,0,0:0:0:0:
192,192,26447,1,0,0:0:0:0:
448,192,26513,1,0,0:0:0:0:
320,192,26513,1,0,0:0:0:0:
64,192,26580,1,0,0:0:0:0:
320,192,26646,1,0,0:0:0:0:
320,192,26712,1,0,0:0:0:0:
192,192,26779,1,0,0:0:0:0:
64,192,26779,1,0,0:0:0:0:
320,192,26912,1,0,0:0:0:0:
192,192,26945,1,0,0:0:0:0:
448,192,26979,1,0,0:0:0:0:
320,192,27012,1,0,0:0:0:0:
192,192,27045,1,0,0:0:0:0:
64,192,27045,1,0,0:0:0:0:
448,192,27134,1,0,0:0:0:0:
64,192,27178,1,0,0:0:0:0:
448,192,27222,1,0,0:0:0:0:
192,192,27311,1,0,0:0:0:0:
320,192,27378,1,0,0:0:0:0:
64,192,27444,1,0,0:0:0:0:
448,192,27510,1,0,0:0:0:0:
320,192,27578,1,0,0:0:0:0:
64,192,27578,1,0,0:0:0:0:
448,192,27621,1,0,0:0:0:0:
192,192,27666,1,0,0:0:0:0:
320,192,27710,1,0,0:0:0:0:
64,192,27755,1,0,0:0:0:0:
192,192,27799,1,0,0:0:0:0:
448,192,27843,1,0,0:0:0:0:
320,192,27843,1,0,0:0:0:0:
192,192,27977,1,0,0:0:0:0:
448,192,28043,1,0,0:0:0:0:
320,192,28110,1,0,0:0:0:0:
64,192,28110,1,0,0:0:0:0:
448,192,28176,1,0,0:0:0:0:
192,192,28242,1,0,0:0:0:0:
64,192,28242,1,0,0:0:0:0:
192,192,28309,1,0,0:0:0:0:
448,192,28376,1,0,0:0:0:0:
320,192,28376,1,0,0:0:0:0:
64,192,28442,1,0,0:0:0:0:
192,192,28509,1,0,0:0:0:0:
448,192,28641,1,0,0:0:0:0:
64,192,28641,1,0,0:0:0:0:
320,192,28686,1,0,0:0:0:0:
192,192,28730,1,0,0:0:0:0:
448,192,28775,1,0,0:0:0:0:
64,192,28819,1,0,0:0:0:0:
192,192,28863,1,0,0:0:0:0:
448,192,28908,1,0,0:0:0:0:
320,192,28908,1,0,0:0:0:0:
192,192,29040,1,0,0:0:0:0:
320,192,29108,1,0,0:0:0:0:
448,192,29174,1,0,0:0:0:0:
64,192,29174,1,0,0:0:0:0:
320,192,29240,1,0,0:0:0:0:
192,192,29307,1,0,0:0:0:0:
64,192,29307,1,0,0:0:0:0:
192,192,29373,1,0,0:0:0:0:
448,192,29440,1,0,0:0:0:0:
320,192,29440,1,0,0:0:0:0:
192,192,29507,1,0,0:0:0:0:
64,192,29507,1,0,0:0:0:0:
448,192,29573,1,0,0:0:0:0:
320,192,29573,1,0,0:0:0:0:
64,192,29640,1,0,0:0:0:0:
448,192,29706,1,0,0:0:0:0:
192,192,29706,1,0,0:0:0:0:
64,192,29750,1,0,0:0:0:0:
320,192,29795,1,0,0:0:0:0:
192,192,29839,1,0,0:0:0:0:
448,192,29883,1,0,0:0:0:0:
320,192,29928,1,0,0:0:0:0:
192,192,29972,1,0,0:0:0:0:
64,192,29972,1,0,0:0:0:0:
320,192,30105,1,0,0:0:0:0:
64,192,30171,1,0,0:0:0:0:
448,192,30239,1,0,0:0:0:0:
192,192,30239,1,0,0:0:0:0:
64,192,30305,1,0,0:0:0:0:
448,192,30371,1,0,0:0:0:0:
320,192,30371,1,0,0:0:0:0:
192,192,30504,1,0,0:0:0:0:
64,192,30504,1,0,0:0:0:0:
448,192,30570,1,0,0:0:0:0:
320,192,30638,1,0,0:0:0:0:
448,192,30770,1,0,0:0:0:0:
64,192,30770,1,0,0:0:0:0:
192,192,30815,1,0,0:0:0:0:
320,192,30859,1,0,0:0:0:0:
192,192,30903,1,0,0:0:0:0:
64,192,30903,1,0,0:0:0:0:
448,192,30948,1,0,0:0:0:0:
320,192,30992,1,0,0:0:0:0:
448,192,31037,1,0,0:0:0:0:
64,192,31037,1,0,0:0:0:0:
320,192,31170,1,0,0:0:0:0:
192,192,31236,1,0,0:0:0:0:
448,192,31302,1,0,0:0:0:0:
64,192,31302,1,0,0:0:0:0:
192,192,31369,1,0,0:0:0:0:
448,192,31436,1,0,0:0:0:0:
320,192,31436,1,0,0:0:0:0:
192,192,31569,1,0,0:0:0:0:
64,192,31569,1,0,0:0:0:0:
320,192,31613,1,0,0:0:0:0:
64,192,31658,1,0,0:0:0:0:
448,192,31701,1,0,0:0:0:0:
320,192,31735,1,0,0:0:0:0:
192,192,31769,1,0,0:0:0:0:
64,192,31801,1,0,0:0:0:0:
448,192,31835,1,0,0:0:0:0:
320,192,31879,1,0,0:0:0:0:
192,192,31923,1,0,0:0:0:0:
448,192,31968,1,0,0:0:0:0:
64,192,32012,1,0,0:0:0:0:
192,192,32057,1,0,0:0:0:0:
448,192,32100,1,0,0:0:0:0:
320,192,32100,1,0,0:0:0:0:
320,192,32234,1,0,0:0:0:0:
64,192,32234,1,0,0:0:0:0:
192,192,32300,1,0,0:0:0:0:
448,192,32367,1,0,0:0:0:0:
192,192,32433,1,0,0:0:0:0:
320,192,32500,1,0,0:0:0:0:
64,192,32500,1,0,0:0:0:0:
192,192,32567,1,0,0:0:0:0:
448,192,32633,1,0,0:0:0:0:
320,192,32633,1,0,0:0:0:0:
64,192,32700,1,0,0:0:0:0:
448,192,32766,1,0,0:0:0:0:
448,192,32832,1,0,0:0:0:0:
192,192,32900,1,0,0:0:0:0:
64,192,32900,1,0,0:0:0:0:
320,192,32966,1,0,0:0:0:0:
192,192,33032,1,0,0:0:0:0:
192,192,33099,1,0,0:0:0:0:
448,192,33165,1,0,0:0:0:0:
64,192,33165,1,0,0:0:0:0:
320,192,33231,1,0,0:0:0:0:
320,192,33299,1,0,0:0:0:0:
192,192,33365,1,0,0:0:0:0:
64,192,33365,1,0,0:0:0:0:
448,192,33431,1,0,0:0:0:0:
320,192,33476,1,0,0:0:0:0:
64,192,33520,1,0,0:0:0:0:
448,192,33564,1,0,0:0:0:0:
192,192,33609,1,0,0:0:0:0:
64,192,33653,1,0,0:0:0:0:
320,192,33698,1,0,0:0:0:0:
192,192,33730,1,0,0:0:0:0:
448,192,33764,1,0,0:0:0:0:
320,192,33797,1,0,0:0:0:0:
64,192,33830,1,0,0:0:0:0:
192,192,33864,1,0,0:0:0:0:
320,192,33897,1,0,0:0:0:0:
448,192,33930,1,0,0:0:0:0:
64,192,33963,1,0,0:0:0:0:
192,192,34030,1,0,0:0:0:0:
64,192,34097,1,0,0:0:0:0:
192,192,34163,1,0,0:0:0:0:
448,192,34230,1,0,0:0:0:0:
320,192,34230,1,0,0:0:0:0:
192,192,34296,1,0,0:0:0:0:
448,192,34362,1,0,0:0:0:0:
64,192,34362,1,0,0:0:0:0:
320,192,34430,1,0,0:0:0:0:
192,192,34430,1,0,0:0:0:0:
448,192,34496,1,0,0:0:0:0:
320,192,34562,1,0,0:0:0:0:
192,192,34562,1,0,0:0:0:0:
448,192,34629,1,0,0:0:0:0:
64,192,34629,1,0,0:0:0:0:
64,192,34695,1,0,0:0:0:0:
448,192,34761,1,0,0:0:0:0:
320,192,34761,1,0,0:0:0:0:
192,192,34829,1,0,0:0:0:0:
64,192,34895,1,0,0:0:0:0:
320,192,34961,1,0,0:0:0:0:
192,192,34961,1,0,0:0:0:0:
448,192,35028,1,0,0:0:0:0:
64,192,35028,1,0,0:0:0:0:
320,192,35094,1,0,0:0:0:0:
448,192,35160,1,0,0:0:0:0:
320,192,35228,1,0,0:0:0:0:
192,192,35294,1,0,0:0:0:0:
64,192,35294,1,0,0:0:0:0:
320,192,35360,1,0,0:0:0:0:
448,192,35427,1,0,0:0:0:0:
64,192,35427,1,0,0:0:0:0:
320,192,35493,1,0,0:0:0:0:
192,192,35493,1,0,0:0:0:0:
64,192,35560,1,0,0:0:0:0:
448,192,35627,1,0,0:0:0:0:
320,192,35627,1,0,0:0:0:0:
192,192,35693,1,0,0:0:0:0:
64,192,35693,1,0,0:0:0:0:
320,192,35760,1,0,0:0:0:0:
448,192,35826,1,0,0:0:0:0:
64,192,35826,1,0,0:0:0:0:
192,192,35915,1,0,0:0:0:0:
320,192,35960,1,0,0:0:0:0:
64,192,36003,1,0,0:0:0:0:
448,192,36092,1,0,0:0:0:0:
192,192,36092,1,0,0:0:0:0:
64,192,36137,1,0,0:0:0:0:
320,192,36180,1,0,0:0:0:0:
192,192,36225,1,0,0:0:0:0:
448,192,36270,1,0,0:0:0:0:
320,192,36314,1,0,0:0:0:0:
192,192,36359,1,0,0:0:0:0:
64,192,36359,1,0,0:0:0:0:
320,192,36491,1,0,0:0:0:0:
64,192,36558,1,0,0:0:0:0:
448,192,36624,1,0,0:0:0:0:
192,192,36624,1,0,0:0:0:0:
64,192,36669,1,0,0:0:0:0:
320,192,36713,1,0,0:0:0:0:
192,192,36758,1,0,0:0:0:0:
448,192,36790,1,0,0:0:0:0:
320,192,36824,1,0,0:0:0:0:
192,192,36857,1,0,0:0:0:0:
448,192,36890,1,0,0:0:0:0:
64,192,36890,1,0,0:0:0:0:
192,192,37023,1,0,0:0:0:0:
448,192,37090,1,0,0:0:0:0:
320,192,37157,1,0,0:0:0:0:
64,192,37157,1,0,0:0:0:0:
448,192,37223,1,0,0:0:0:0:
192,192,37290,1,0,0:0:0:0:
448,192,37356,1,0,0:0:0:0:
192,192,37422,1,0,0:0:0:0:
64,192,37422,1,0,0:0:0:0:
320,192,37490,1,0,0:0:0:0:
448,192,37556,1,0,0:0:0:0:
192,192,37622,1,0,0:0:0:0:
320,192,37689,1,0,0:0:0:0:
64,192,37689,1,0,0:0:0:0:
192,192,37755,1,0,0:0:0:0:
448,192,37821,1,0,0:0:0:0:
64,192,37889,1,0,0:0:0:0:
448,192,37955,1,0,0:0:0:0:
320,192,37955,1,0,0:0:0:0:
192,192,38043,1,0,0:0:0:0:
320,192,38088,1,0,0:0:0:0:
448,192,38132,1,0,0:0:0:0:
64,192,38132,1,0,0:0:0:0:
192,192,38221,1,0,0:0:0:0:
64,192,38221,1,0,0:0:0:0:
448,192,38265,1,0,0:0:0:0:
320,192,38310,1,0,0:0:0:0:
64,192,38354,1,0,0:0:0:0:
192,192,38399,1,0,0:0:0:0:
320,192,38442,1,0,0:0:0:0:
448,192,38487,1,0,0:0:0:0:
64,192,38487,1,0,0:0:0:0:
320,192,38553,1,0,0:0:0:0:
192,192,38620,1,0,0:0:0:0:
192,192,38687,1,0,0:0:0:0:
64,192,38687,1,0,0:0:0:0:
448,192,38753,1,0,0:0:0:0:
320,192,38753,1,0,0:0:0:0:
192,192,38820,1,0,0:0:0:0:
448,192,38886,1,0,0:0:0:0:
448,192,38952,1,0,0:0:0:0:
192,192,39020,1,0,0:0:0:0:
64,192,39020,1,0,0:0:0:0:
320,192,39086,1,0,0:0:0:0:
320,192,39152,1,0,0:0:0:0:
192,192,39219,1,0,0:0:0:0:
448,192,39285,1,0,0:0:0:0:
320,192,39285,1,0,0:0:0:0:
64,192,39351,1,0,0:0:0:0:
448,192,39419,1,0,0:0:0:0:
192,192,39462,1,0,0:0:0:0:
320,192,39507,1,0,0:0:0:0:
448,192,39551,1,0,0:0:0:0:
64,192,39551,1,0,0:0:0:0:
192,192,39596,1,0,0:0:0:0:
320,192,39640,1,0,0:0:0:0:
64,192,39684,1,0,0:0:0:0:
448,192,39729,1,0,0:0:0:0:
64,192,39773,1,0,0:0:0:0:
448,192,39818,1,0,0:0:0:0:
320,192,39818,1,0,0:0:0:0:
192,192,39861,1,0,0:0:0:0:
64,192,39906,1,0,0:0:0:0:
448,192,39950,1,0,0:0:0:0:
192,192,39995,1,0,0:0:0:0:
320,192,40040,1,0,0:0:0:0:
448,192,40083,1,0,0:0:0:0:
192,192,40150,1,0,0:0:0:0:
64,192,40217,1,0,0:0:0:0:
320,192,40283,1,0,0:0:0:0:
448,192,40350,1,0,0:0:0:0:
192,192,40350,1,0,0:0:0:0:
320,192,40416,1,0,0:0:0:0:
64,192,40482,1,0,0:0:0:0:
448,192,40550,1,0,0:0:0:0:
192,192,40616,1,0,0:0:0:0:
64,192,40616,1,0,0:0:0:0:
320,192,40660,1,0,0:0:0:0:
448,192,40704,1,0,0:0:0:0:
64,192,40749,1,0,0:0:0:0:
192,192,40793,1,0,0:0:0:0:
448,192,40838,1,0,0:0:0:0:
64,192,40882,1,0,0:0:0:0:
320,192,40926,1,0,0:0:0:0:
192,192,40949,1,0,0:0:0:0:
448,192,40970,1,0,0:0:0:0:
64,192,41015,1,0,0:0:0:0:
320,192,41060,1,0,0:0:0:0:
192,192,41103,1,0,0:0:0:0:
448,192,41148,1,0,0:0:0:0:
64,192,41148,1,0,0:0:0:0:
192,192,41281,1,0,0:0:0:0:
448,192,41325,1,0,0:0:0:0:
192,192,41414,1,0,0:0:0:0:
64,192,41414,1,0,0:0:0:0:
320,192,41480,1,0,0:0:0:0:
64,192,41547,1,0,0:0:0:0:
448,192,41613,1,0,0:0:0:0:
320,192,41680,1,0,0:0:0:0:
64,192,41680,1,0,0:0:0:0:
448,192,41813,1,0,0:0:0:0:
192,192,41813,1,0,0:0:0:0:
320,192,41880,1,0,0:0:0:0:
192,192,41946,1,0,0:0:0:0:
64,192,41946,1,0,0:0:0:0:
320,192,42012,1,0,0:0:0:0:
64,192,42080,1,0,0:0:0:0:
64,192,42146,1,0,0:0:0:0:
448,192,42212,1,0,0:0:0:0:
320,192,42246,1,0,0:0:0:0:
192,192,42279,1,0,0:0:0:0:
448,192,42312,1,0,0:0:0:0:
320,192,42345,1,0,0:0:0:0:
64,192,42379,1,0,0:0:0:0:
192,192,42412,1,0,0:0:0:0:
320,192,42445,1,0,0:0:0:0:
448,192,42479,1,0,0:0:0:0:
64,192,42479,1,0,0:0:0:0:
192,192,42545,1,0,0:0:0:0:
320,192,42611,1,0,0:0:0:0:
64,192,42678,1,0,0:0:0:0:
448,192,42744,1,0,0:0:0:0:
320,192,42744,1,0,0:0:0:0:
192,192,42811,1,0,0:0:0:0:
448,192,42878,1,0,0:0:0:0:
448,192,42944,1,0,0:0:0:0:
64,192,43010,1,0,0:0:0:0:
192,192,43044,1,0,0:0:0:0:
320,192,43077,1,0,0:0:0:0:
64,192,43110,1,0,0:0:0:0:
192,192,43143,1,0,0:0:0:0:
448,192,43188,1,0,0:0:0:0:
320,192,43232,1,0,0:0:0:0:
192,192,43277,1,0,0:0:0:0:
64,192,43277,1,0,0:0:0:0:
448,192,43343,1,0,0:0:0:0:
192,192,43410,1,0,0:0:0:0:
448,192,43476,1,0,0:0:0:0:
320,192,43543,1,0,0:0:0:0:
64,192,43543,1,0,0:0:0:0:
448,192,43587,1,0,0:0:0:0:
192,192,43631,1,0,0:0:0:0:
320,192,43676,1,0,0:0:0:0:
64,192,43720,1,0,0:0:0:0:
192,192,43764,1,0,0:0:0:0:
448,192,43809,1,0,0:0:0:0:
320,192,43809,1,0,0:0:0:0:
192,192,43942,1,0,0:0:0:0:
448,192,43942,1,0,0:0:0:0:
320,192,44075,1,0,0:0:0:0:
64,192,44075,1,0,0:0:0:0:
192,192,44208,1,0,0:0:0:0:
64,192,44208,1,0,0:0:0:0:
448,192,44341,1,0,0:0:0:0:
320,192,44341,1,0,0:0:0:0:
192,192,44341,1,0,0:0:0:0:
448,192,44474,1,0,0:0:0:0:
192,192,44474,1,0,0:0:0:0:
64,192,44474,1,0,0:0:0:0:
448,192,44607,1,0,0:0:0:0:
320,192,44607,1,0,0:0:0:0:
64,192,44607,1,0,0:0:0:0:
192,192,44740,1,0,0:0:0:0:
448,192,44873,1,0,0:0:0:0:
64,192,44873,1,0,0:0:0:0:
320,192,45006,1,0,0:0:0:0:
448,192,45140,1,0,0:0:0:0:
192,192,45140,1,0,0:0:0:0:
64,192,45140,1,0,0:0:0:0:
448,192,45272,1,0,0:0:0:0:
320,192,45272,1,0,0:0:0:0:
192,192,45405,1,0,0:0:0:0:
320,192,45472,1,0,0:0:0:0:
192,192,45539,1,0,0:0:0:0:
64,192,45539,1,0,0:0:0:0:
448,192,45627,1,0,0:0:0:0:
320,192,45671,1,0,0:0:0:0:
64,192,45671,1,0,0:0:0:0:
192,192,45804,1,0,0:0:0:0:
448,192,45938,1,0,0:0:0:0:
320,192,45938,1,0,0:0:0:0:
192,192,46070,1,0,0:0:0:0:
320,192,46137,1,0,0:0:0:0:
192,192,46204,1,0,0:0:0:0:
64,192,46204,1,0,0:0:0:0:
448,192,46292,1,0,0:0:0:0:
320,192,46337,1,0,0:0:0:0:
64,192,46337,1,0,0:0:0:0:
448,192,46470,1,0,0:0:0:0:
192,192,46470,1,0,0:0:0:0:
192,192,46603,1,0,0:0:0:0:
448,192,46603,1,0,0:0:0:0:
448,192,46736,1,0,0:0:0:0:
320,192,46736,1,0,0:0:0:0:
64,192,46736,1,0,0:0:0:0:
320,192,46869,1,0,0:0:0:0:
448,192,47002,1,0,0:0:0:0:
64,192,47002,1,0,0:0:0:0:
192,192,47135,1,0,0:0:0:0:
448,192,47268,1,0,0:0:0:0:
192,192,47268,1,0,0:0:0:0:
64,192,47268,1,0,0:0:0:0:
448,192,47401,1,0,0:0:0:0:
320,192,47401,1,0,0:0:0:0:
448,192,47534,1,0,0:0:0:0:
320,192,47534,1,0,0:0:0:0:
192,192,47667,1,0,0:0:0:0:
320,192,47734,1,0,0:0:0:0:
192,192,47800,1,0,0:0:0:0:
64,192,47800,1,0,0:0:0:0:
448,192,47889,1,0,0:0:0:0:
320,192,47933,1,0,0:0:0:0:
64,192,47933,1,0,0:0:0:0:
192,192,48066,1,0,0:0:0:0:
448,192,48200,1,0,0:0:0:0:
320,192,48200,1,0,0:0:0:0:
448,192,48332,1,0,0:0:0:0:
64,192,48332,1,0,0:0:0:0:
192,192,48399,1,0,0:0:0:0:
64,192,48465,1,0,0:0:0:0:
192,192,48532,1,0,0:0:0:0:
448,192,48599,1,0,0:0:0:0:
64,192,48599,1,0,0:0:0:0:
192,192,48665,1,0,0:0:0:0:
320,192,48731,128,0,48865:0:0:0:0:
448,192,48865,1,0,0:0:0:0:
192,192,48865,1,0,0:0:0:0:
64,192,48865,128,0,49264:0:0:0:0:
320,192,48998,1,0,0:0:0:0:
448,192,49130,1,0,0:0:0:0:
192,192,49130,1,0,0:0:0:0:
192,192,49264,1,0,0:0:0:0:
448,192,49397,1,0,0:0:0:0:
320,192,49397,1,0,0:0:0:0:
64,192,49397,1,0,0:0:0:0:
320,192,49530,128,0,49663:0:0:0:0:
192,192,49530,128,0,49663:0:0:0:0:
320,192,49751,128,0,49929:0:0:0:0:
192,192,49751,128,0,49929:0:0:0:0:
64,192,49929,1,0,0:0:0:0:
448,192,49995,1,0,0:0:0:0:
64,192,50062,1,0,0:0:0:0:
448,192,50129,1,0,0:0:0:0:
192,192,50195,1,0,0:0:0:0:
448,192,50328,128,0,50461:0:0:0:0:
64,192,50395,1,0,0:0:0:0:
320,192,50461,1,0,0:0:0:0:
192,192,50461,1,0,0:0:0:0:
448,192,50594,128,0,50860:0:0:0:0:
320,192,50660,1,0,0:0:0:0:
192,192,50727,1,0,0:0:0:0:
64,192,50727,1,0,0:0:0:0:
320,192,50860,1,0,0:0:0:0:
192,192,50927,1,0,0:0:0:0:
448,192,50993,1,0,0:0:0:0:
320,192,50993,1,0,0:0:0:0:
64,192,50993,128,0,51392:0:0:0:0:
192,192,51060,1,0,0:0:0:0:
448,192,51126,1,0,0:0:0:0:
320,192,51193,1,0,0:0:0:0:
448,192,51260,1,0,0:0:0:0:
192,192,51392,1,0,0:0:0:0:
320,192,51459,1,0,0:0:0:0:
448,192,51526,1,0,0:0:0:0:
192,192,51526,1,0,0:0:0:0:
64,192,51526,1,0,0:0:0:0:
448,192,51659,1,0,0:0:0:0:
64,192,51659,1,0,0:0:0:0:
320,192,51725,1,0,0:0:0:0:
192,192,51725,1,0,0:0:0:0:
448,192,51858,1,0,0:0:0:0:
64,192,51858,1,0,0:0:0:0:
320,192,51925,1,0,0:0:0:0:
192,192,51925,1,0,0:0:0:0:
448,192,52058,1,0,0:0:0:0:
192,192,52058,1,0,0:0:0:0:
320,192,52124,1,0,0:0:0:0:
448,192,52190,1,0,0:0:0:0:
320,192,52257,1,0,0:0:0:0:
448,192,52324,1,0,0:0:0:0:
64,192,52324,1,0,0:0:0:0:
192,192,52368,1,0,0:0:0:0:
320,192,52412,1,0,0:0:0:0:
64,192,52457,1,0,0:0:0:0:
192,192,52501,1,0,0:0:0:0:
320,192,52546,1,0,0:0:0:0:
192,192,52590,1,0,0:0:0:0:
64,192,52590,1,0,0:0:0:0:
448,192,52634,1,0,0:0:0:0:
320,192,52679,1,0,0:0:0:0:
64,192,52723,1,0,0:0:0:0:
448,192,52767,1,0,0:0:0:0:
192,192,52811,1,0,0:0:0:0:
64,192,52856,1,0,0:0:0:0:
320,192,52890,1,0,0:0:0:0:
192,192,52922,1,0,0:0:0:0:
448,192,52956,1,0,0:0:0:0:
320,192,52989,1,0,0:0:0:0:
64,192,53022,1,0,0:0:0:0:
192,192,53056,1,0,0:0:0:0:
448,192,53089,1,0,0:0:0:0:
64,192,53122,128,0,53388:0:0:0:0:
320,192,53255,1,0,0:0:0:0:
448,192,53388,1,0,0:0:0:0:
320,192,53388,1,0,0:0:0:0:
192,192,53521,1,0,0:0:0:0:
320,192,53588,1,0,0:0:0:0:
192,192,53654,128,0,53920:0:0:0:0:
64,192,53654,1,0,0:0:0:0:
448,192,53743,1,0,0:0:0:0:
320,192,53787,1,0,0:0:0:0:
64,192,53787,1,0,0:0:0:0:
448,192,53920,128,0,54187:0:0:0:0:
320,192,53920,1,0,0:0:0:0:
64,192,53987,1,0,0:0:0:0:
192,192,54053,1,0,0:0:0:0:
320,192,54120,1,0,0:0:0:0:
192,192,54187,1,0,0:0:0:0:
64,192,54187,1,0,0:0:0:0:
64,192,54253,1,0,0:0:0:0:
320,192,54320,1,0,0:0:0:0:
192,192,54386,1,0,0:0:0:0:
448,192,54452,1,0,0:0:0:0:
320,192,54452,1,0,0:0:0:0:
192,192,54519,1,0,0:0:0:0:
448,192,54586,1,0,0:0:0:0:
448,192,54652,1,0,0:0:0:0:
192,192,54719,1,0,0:0:0:0:
64,192,54719,1,0,0:0:0:0:
320,192,54785,1,0,0:0:0:0:
192,192,54851,1,0,0:0:0:0:
192,192,54918,1,0,0:0:0:0:
448,192,54985,1,0,0:0:0:0:
320,192,54985,1,0,0:0:0:0:
320,192,55051,1,0,0:0:0:0:
192,192,55118,1,0,0:0:0:0:
320,192,55184,1,0,0:0:0:0:
448,192,55250,1,0,0:0:0:0:
64,192,55250,1,0,0:0:0:0:
192,192,55340,1,0,0:0:0:0:
64,192,55384,1,0,0:0:0:0:
320,192,55428,1,0,0:0:0:0:
192,192,55517,1,0,0:0:0:0:
64,192,55517,1,0,0:0:0:0:
448,192,55606,1,0,0:0:0:0:
192,192,55650,1,0,0:0:0:0:
320,192,55694,1,0,0:0:0:0:
448,192,55783,1,0,0:0:0:0:
64,192,55783,1,0,0:0:0:0:
320,192,55871,1,0,0:0:0:0:
448,192,55916,1,0,0:0:0:0:
192,192,55960,1,0,0:0:0:0:
448,192,56049,1,0,0:0:0:0:
320,192,56049,1,0,0:0:0:0:
64,192,56138,1,0,0:0:0:0:
320,192,56182,1,0,0:0:0:0:
192,192,56227,1,0,0:0:0:0:
448,192,56315,1,0,0:0:0:0:
64,192,56315,1,0,0:0:0:0:
320,192,56360,1,0,0:0:0:0:
192,192,56404,1,0,0:0:0:0:
64,192,56448,1,0,0:0:0:0:
320,192,56492,1,0,0:0:0:0:
192,192,56537,1,0,0:0:0:0:
448,192,56581,1,0,0:0:0:0:
320,192,56626,1,0,0:0:0:0:
64,192,56670,1,0,0:0:0:0:
448,192,56714,1,0,0:0:0:0:
192,192,56759,1,0,0:0:0:0:
320,192,56803,1,0,0:0:0:0:
64,192,56848,1,0,0:0:0:0:
192,192,56891,1,0,0:0:0:0:
448,192,56936,1,0,0:0:0:0:
64,192,56980,1,0,0:0:0:0:
320,192,57025,1,0,0:0:0:0:
192,192,57069,1,0,0:0:0:0:
448,192,57113,1,0,0:0:0:0:
320,192,57147,1,0,0:0:0:0:
64,192,57180,1,0,0:0:0:0:
192,192,57213,1,0,0:0:0:0:
448,192,57247,1,0,0:0:0:0:
320,192,57280,1,0,0:0:0:0:
64,192,57313,1,0,0:0:0:0:
192,192,57346,1,0,0:0:0:0:
448,192,57380,128,0,57512:0:0:0:0:
64,192,57512,128,0,57646:0:0:0:0:
320,192,57646,1,0,0:0:0:0:
192,192,57646,1,0,0:0:0:0:
320,192,57779,1,0,0:0:0:0:
320,192,57845,1,0,0:0:0:0:
448,192,57911,128,0,58045:0:0:0:0:
64,192,57911,1,0,0:0:0:0:
64,192,58045,128,0,58178:0:0:0:0:
448,192,58178,1,0,0:0:0:0:
320,192,58178,1,0,0:0:0:0:
192,192,58244,1,0,0:0:0:0:
448,192,58310,1,0,0:0:0:0:
320,192,58378,1,0,0:0:0:0:
192,192,58444,1,0,0:0:0:0:
64,192,58444,128,0,58577:0:0:0:0:
448,192,58577,128,0,58710:0:0:0:0:
320,192,58710,1,0,0:0:0:0:
192,192,58710,1,0,0:0:0:0:
448,192,58777,1,0,0:0:0:0:
192,192,58843,1,0,0:0:0:0:
192,192,58910,1,0,0:0:0:0:
448,192,58976,128,0,59375:0:0:0:0:
64,192,58976,128,0,59509:0:0:0:0:
320,192,59109,1,0,0:0:0:0:
192,192,59109,1,0,0:0:0:0:
320,192,59242,1,0,0:0:0:0:
192,192,59242,1,0,0:0:0:0:
320,192,59375,1,0,0:0:0:0:
192,192,59441,1,0,0:0:0:0:
448,192,59509,1,0,0:0:0:0:
320,192,59509,128,0,59641:0:0:0:0:
192,192,59641,128,0,59774:0:0:0:0:
448,192,59774,128,0,59908:0:0:0:0:
320,192,59774,128,0,59908:0:0:0:0:
64,192,59908,1,0,0:0:0:0:
192,192,59908,1,0,0:0:0:0:
64,192,60040,1,0,0:0:0:0:
192,192,60040,1,0,0:0:0:0:
448,192,60173,1,0,0:0:0:0:
64,192,60173,1,0,0:0:0:0:
320,192,60307,1,0,0:0:0:0:
64,192,60373,1,0,0:0:0:0:
448,192,60440,1,0,0:0:0:0:
192,192,60506,1,0,0:0:0:0:
64,192,60572,1,0,0:0:0:0:
448,192,60617,1,0,0:0:0:0:
192,192,60661,1,0,0:0:0:0:
64,192,60706,1,0,0:0:0:0:
320,192,60750,1,0,0:0:0:0:
192,192,60794,1,0,0:0:0:0:
448,192,60839,1,0,0:0:0:0:
320,192,60883,1,0,0:0:0:0:
64,192,60928,1,0,0:0:0:0:
192,192,60971,1,0,0:0:0:0:
320,192,61016,1,0,0:0:0:0:
448,192,61060,1,0,0:0:0:0:
64,192,61105,1,0,0:0:0:0:
192,192,61138,1,0,0:0:0:0:
320,192,61171,1,0,0:0:0:0:
448,192,61204,1,0,0:0:0:0:
64,192,61238,1,0,0:0:0:0:
320,192,61282,1,0,0:0:0:0:
192,192,61327,1,0,0:0:0:0:
448,192,61370,1,0,0:0:0:0:
320,192,61404,1,0,0:0:0:0:
192,192,61438,1,0,0:0:0:0:
64,192,61470,1,0,0:0:0:0:
448,192,61504,1,0,0:0:0:0:
192,192,61549,1,0,0:0:0:0:
320,192,61592,1,0,0:0:0:0:
448,192,61637,1,0,0:0:0:0:
64,192,61637,128,0,61903:0:0:0:0:
448,192,61903,1,0,0:0:0:0:
320,192,61903,1,0,0:0:0:0:
192,192,62036,1,0,0:0:0:0:
64,192,62036,1,0,0:0:0:0:
448,192,62102,1,0,0:0:0:0:
320,192,62170,1,0,0:0:0:0:
64,192,62170,1,0,0:0:0:0:
448,192,62236,1,0,0:0:0:0:
192,192,62302,1,0,0:0:0:0:
64,192,62302,1,0,0:0:0:0:
192,192,62369,1,0,0:0:0:0:
448,192,62435,1,0,0:0:0:0:
320,192,62435,1,0,0:0:0:0:
192,192,62569,1,0,0:0:0:0:
448,192,62701,1,0,0:0:0:0:
64,192,62701,1,0,0:0:0:0:
320,192,62746,1,0,0:0:0:0:
192,192,62790,1,0,0:0:0:0:
448,192,62834,1,0,0:0:0:0:
320,192,62834,1,0,0:0:0:0:
64,192,62879,1,0,0:0:0:0:
192,192,62923,1,0,0:0:0:0:
448,192,62968,1,0,0:0:0:0:
64,192,62968,1,0,0:0:0:0:
320,192,63100,1,0,0:0:0:0:
64,192,63167,1,0,0:0:0:0:
448,192,63233,1,0,0:0:0:0:
192,192,63233,1,0,0:0:0:0:
64,192,63300,1,0,0:0:0:0:
320,192,63367,1,0,0:0:0:0:
320,192,63433,1,0,0:0:0:0:
192,192,63500,1,0,0:0:0:0:
64,192,63500,1,0,0:0:0:0:
320,192,63566,1,0,0:0:0:0:
192,192,63632,1,0,0:0:0:0:
448,192,63700,1,0,0:0:0:0:
320,192,63766,1,0,0:0:0:0:
64,192,63766,1,0,0:0:0:0:
448,192,63810,1,0,0:0:0:0:
192,192,63854,1,0,0:0:0:0:
320,192,63899,1,0,0:0:0:0:
192,192,63943,1,0,0:0:0:0:
64,192,63988,1,0,0:0:0:0:
448,192,64031,1,0,0:0:0:0:
320,192,64031,1,0,0:0:0:0:
192,192,64165,1,0,0:0:0:0:
320,192,64231,1,0,0:0:0:0:
448,192,64298,1,0,0:0:0:0:
64,192,64298,1,0,0:0:0:0:
320,192,64364,1,0,0:0:0:0:
192,192,64430,1,0,0:0:0:0:
64,192,64430,1,0,0:0:0:0:
448,192,64564,1,0,0:0:0:0:
320,192,64564,1,0,0:0:0:0:
64,192,64697,1,0,0:0:0:0:
448,192,64697,1,0,0:0:0:0:
192,192,64830,1,0,0:0:0:0:
64,192,64830,1,0,0:0:0:0:
320,192,64897,1,0,0:0:0:0:
192,192,64963,1,0,0:0:0:0:
192,192,65030,1,0,0:0:0:0:
448,192,65096,1,0,0:0:0:0:
64,192,65096,1,0,0:0:0:0:
320,192,65162,1,0,0:0:0:0:
320,192,65230,1,0,0:0:0:0:
192,192,65296,1,0,0:0:0:0:
64,192,65296,1,0,0:0:0:0:
448,192,65362,1,0,0:0:0:0:
192,192,65429,1,0,0:0:0:0:
64,192,65429,1,0,0:0:0:0:
320,192,65495,1,0,0:0:0:0:
192,192,65540,1,0,0:0:0:0:
64,192,65584,1,0,0:0:0:0:
448,192,65629,1,0,0:0:0:0:
320,192,65661,1,0,0:0:0:0:
192,192,65695,1,0,0:0:0:0:
448,192,65728,1,0,0:0:0:0:
320,192,65761,1,0,0:0:0:0:
64,192,65795,1,0,0:0:0:0:
192,192,65828,1,0,0:0:0:0:
320,192,65861,1,0,0:0:0:0:
448,192,65894,1,0,0:0:0:0:
64,192,65894,1,0,0:0:0:0:
192,192,65960,1,0,0:0:0:0:
320,192,66028,1,0,0:0:0:0:
64,192,66094,1,0,0:0:0:0:
448,192,66160,1,0,0:0:0:0:
320,192,66160,1,0,0:0:0:0:
192,192,66293,1,0,0:0:0:0:
448,192,66360,1,0,0:0:0:0:
64,192,66360,1,0,0:0:0:0:
192,192,66427,1,0,0:0:0:0:
320,192,66493,1,0,0:0:0:0:
192,192,66560,1,0,0:0:0:0:
448,192,66626,1,0,0:0:0:0:
64,192,66626,1,0,0:0:0:0:
448,192,66692,1,0,0:0:0:0:
320,192,66692,1,0,0:0:0:0:
192,192,66760,1,0,0:0:0:0:
448,192,66826,1,0,0:0:0:0:
64,192,66859,1,0,0:0:0:0:
192,192,66892,1,0,0:0:0:0:
320,192,66926,1,0,0:0:0:0:
448,192,66959,1,0,0:0:0:0:
64,192,66959,1,0,0:0:0:0:
320,192,67025,1,0,0:0:0:0:
192,192,67091,1,0,0:0:0:0:
320,192,67159,1,0,0:0:0:0:
192,192,67225,1,0,0:0:0:0:
64,192,67225,1,0,0:0:0:0:
448,192,67291,1,0,0:0:0:0:
448,192,67358,1,0,0:0:0:0:
320,192,67424,1,0,0:0:0:0:
64,192,67424,1,0,0:0:0:0:
192,192,67491,1,0,0:0:0:0:
64,192,67558,1,0,0:0:0:0:
448,192,67624,1,0,0:0:0:0:
320,192,67624,1,0,0:0:0:0:
448,192,67690,1,0,0:0:0:0:
192,192,67757,1,0,0:0:0:0:
64,192,67757,1,0,0:0:0:0:
320,192,67823,1,0,0:0:0:0:
192,192,67890,1,0,0:0:0:0:
192,192,67957,1,0,0:0:0:0:
448,192,68023,1,0,0:0:0:0:
64,192,68023,1,0,0:0:0:0:
320,192,68090,1,0,0:0:0:0:
448,192,68156,1,0,0:0:0:0:
192,192,68156,1,0,0:0:0:0:
64,192,68222,1,0,0:0:0:0:
448,192,68290,1,0,0:0:0:0:
320,192,68290,1,0,0:0:0:0:
64,192,68356,1,0,0:0:0:0:
448,192,68422,1,0,0:0:0:0:
192,192,68422,1,0,0:0:0:0:
320,192,68489,1,0,0:0:0:0:
448,192,68555,1,0,0:0:0:0:
64,192,68555,1,0,0:0:0:0:
192,192,68621,1,0,0:0:0:0:
320,192,68689,1,0,0:0:0:0:
64,192,68689,1,0,0:0:0:0:
192,192,68755,1,0,0:0:0:0:
448,192,68821,1,0,0:0:0:0:
64,192,68821,1,0,0:0:0:0:
192,192,68888,1,0,0:0:0:0:
320,192,68954,1,0,0:0:0:0:
64,192,68954,1,0,0:0:0:0:
192,192,69021,1,0,0:0:0:0:
448,192,69088,1,0,0:0:0:0:
64,192,69088,1,0,0:0:0:0:
320,192,69176,1,0,0:0:0:0:
192,192,69176,1,0,0:0:0:0:
448,192,69265,1,0,0:0:0:0:
320,192,69265,1,0,0:0:0:0:
192,192,69353,1,0,0:0:0:0:
64,192,69353,1,0,0:0:0:0:
448,192,69442,1,0,0:0:0:0:
192,192,69487,1,0,0:0:0:0:
320,192,69531,1,0,0:0:0:0:
64,192,69531,1,0,0:0:0:0:
448,192,69620,1,0,0:0:0:0:
320,192,69653,1,0,0:0:0:0:
192,192,69686,1,0,0:0:0:0:
64,192,69720,1,0,0:0:0:0:
448,192,69752,1,0,0:0:0:0:
192,192,69786,1,0,0:0:0:0:
320,192,69820,1,0,0:0:0:0:
448,192,69852,1,0,0:0:0:0:
64,192,69886,1,0,0:0:0:0:
192,192,69919,1,0,0:0:0:0:
320,192,69952,1,0,0:0:0:0:
64,192,69986,1,0,0:0:0:0:
448,192,70019,1,0,0:0:0:0:
320,192,70052,1,0,0:0:0:0:
192,192,70085,1,0,0:0:0:0:
64,192,70119,1,0,0:0:0:0:
448,192,70152,128,0,70418:0:0:0:0:
320,192,70152,1,0,0:0:0:0:
192,192,70418,1,0,0:0:0:0:
64,192,70418,1,0,0:0:0:0:
320,192,70551,1,0,0:0:0:0:
64,192,70618,1,0,0:0:0:0:
448,192,70684,1,0,0:0:0:0:
192,192,70684,1,0,0:0:0:0:
64,192,70729,1,0,0:0:0:0:
320,192,70772,1,0,0:0:0:0:
192,192,70817,1,0,0:0:0:0:
448,192,70850,1,0,0:0:0:0:
320,192,70883,1,0,0:0:0:0:
192,192,70917,1,0,0:0:0:0:
448,192,70950,1,0,0:0:0:0:
64,192,70950,1,0,0:0:0:0:
192,192,71083,1,0,0:0:0:0:
448,192,71150,1,0,0:0:0:0:
320,192,71216,1,0,0:0:0:0:
64,192,71216,1,0,0:0:0:0:
448,192,71282,1,0,0:0:0:0:
192,192,71350,1,0,0:0:0:0:
448,192,71416,1,0,0:0:0:0:
192,192,71482,1,0,0:0:0:0:
64,192,71482,1,0,0:0:0:0:
320,192,71549,1,0,0:0:0:0:
448,192,71615,1,0,0:0:0:0:
192,192,71682,1,0,0:0:0:0:
320,192,71749,1,0,0:0:0:0:
64,192,71749,1,0,0:0:0:0:
192,192,71815,1,0,0:0:0:0:
448,192,71881,1,0,0:0:0:0:
64,192,71948,1,0,0:0:0:0:
448,192,72014,1,0,0:0:0:0:
320,192,72014,1,0,0:0:0:0:
192,192,72103,1,0,0:0:0:0:
320,192,72148,1,0,0:0:0:0:
448,192,72192,1,0,0:0:0:0:
64,192,72192,1,0,0:0:0:0:
192,192,72280,1,0,0:0:0:0:
64,192,72280,1,0,0:0:0:0:
448,192,72325,1,0,0:0:0:0:
320,192,72370,1,0,0:0:0:0:
64,192,72413,1,0,0:0:0:0:
192,192,72458,1,0,0:0:0:0:
320,192,72502,1,0,0:0:0:0:
448,192,72547,1,0,0:0:0:0:
64,192,72547,1,0,0:0:0:0:
320,192,72613,1,0,0:0:0:0:
192,192,72680,1,0,0:0:0:0:
192,192,72746,1,0,0:0:0:0:
64,192,72746,1,0,0:0:0:0:
448,192,72813,1,0,0:0:0:0:
320,192,72813,1,0,0:0:0:0:
192,192,72880,1,0,0:0:0:0:
448,192,72946,1,0,0:0:0:0:
448,192,73012,1,0,0:0:0:0:
192,192,73079,1,0,0:0:0:0:
64,192,73079,1,0,0:0:0:0:
320,192,73145,1,0,0:0:0:0:
320,192,73212,1,0,0:0:0:0:
192,192,73279,1,0,0:0:0:0:
448,192,73345,1,0,0:0:0:0:
320,192,73345,1,0,0:0:0:0:
64,192,73411,1,0,0:0:0:0:
448,192,73478,1,0,0:0:0:0:
192,192,73522,1,0,0:0:0:0:
320,192,73567,1,0,0:0:0:0:
448,192,73611,1,0,0:0:0:0:
64,192,73611,1,0,0:0:0:0:
192,192,73655,1,0,0:0:0:0:
320,192,73700,1,0,0:0:0:0:
64,192,73744,1,0,0:0:0:0:
448,192,73789,1,0,0:0:0:0:
64,192,73833,1,0,0:0:0:0:
320,192,73877,1,0,0:0:0:0:
448,192,73877,1,0,0:0:0:0:
192,192,73943,1,0,0:0:0:0:
320,192,74010,1,0,0:0:0:0:
448,192,74077,1,0,0:0:0:0:
192,192,74143,1,0,0:0:0:0:
320,192,74210,1,0,0:0:0:0:
192,192,74276,1,0,0:0:0:0:
64,192,74343,1,0,0:0:0:0:
448,192,74410,1,0,0:0:0:0:
192,192,74410,1,0,0:0:0:0:
320,192,74476,1,0,0:0:0:0:
64,192,74542,1,0,0:0:0:0:
448,192,74609,1,0,0:0:0:0:
192,192,74675,1,0,0:0:0:0:
64,192,74675,1,0,0:0:0:0:
320,192,74720,1,0,0:0:0:0:
448,192,74764,1,0,0:0:0:0:
64,192,74809,1,0,0:0:0:0:
192,192,74853,1,0,0:0:0:0:
448,192,74897,1,0,0:0:0:0:
64,192,74941,1,0,0:0:0:0:
320,192,74986,1,0,0:0:0:0:
192,192,75008,1,0,0:0:0:0:
448,192,75030,1,0,0:0:0:0:
64,192,75074,1,0,0:0:0:0:
320,192,75119,1,0,0:0:0:0:
192,192,75163,1,0,0:0:0:0:
448,192,75208,1,0,0:0:0:0:
64,192,75208,1,0,0:0:0:0:
192,192,75340,1,0,0:0:0:0:
448,192,75385,1,0,0:0:0:0:
192,192,75474,1,0,0:0:0:0:
64,192,75474,1,0,0:0:0:0:
320,192,75540,1,0,0:0:0:0:
64,192,75607,1,0,0:0:0:0:
448,192,75673,1,0,0:0:0:0:
320,192,75740,1,0,0:0:0:0:
64,192,75740,1,0,0:0:0:0:
448,192,75873,1,0,0:0:0:0:
192,192,75873,1,0,0:0:0:0:
320,192,75940,1,0,0:0:0:0:
192,192,76006,1,0,0:0:0:0:
64,192,76006,1,0,0:0:0:0:
320,192,76072,1,0,0:0:0:0:
64,192,76139,1,0,0:0:0:0:
64,192,76205,1,0,0:0:0:0:
448,192,76272,1,0,0:0:0:0:
320,192,76305,1,0,0:0:0:0:
192,192,76339,1,0,0:0:0:0:
448,192,76371,1,0,0:0:0:0:
320,192,76405,1,0,0:0:0:0:
64,192,76439,1,0,0:0:0:0:
192,192,76471,1,0,0:0:0:0:
320,192,76505,1,0,0:0:0:0:
448,192,76538,1,0,0:0:0:0:
64,192,76538,1,0,0:0:0:0:
192,192,76604,1,0,0:0:0:0:
320,192,76671,1,0,0:0:0:0:
64,192,76738,1,0,0:0:0:0:
448,192,76804,1,0,0:0:0:0:
320,192,76804,1,0,0:0:0:0:
192,192,76870,1,0,0:0:0:0:
448,192,76937,1,0,0:0:0:0:
448,192,77004,1,0,0:0:0:0:
64,192,77070,1,0,0:0:0:0:
192,192,77103,1,0,0:0:0:0:
320,192,77137,1,0,0:0:0:0:
64,192,77170,1,0,0:0:0:0:
192,192,77203,1,0,0:0:0:0:
448,192,77248,1,0,0:0:0:0:
320,192,77292,1,0,0:0:0:0:
192,192,77336,1,0,0:0:0:0:
64,192,77336,1,0,0:0:0:0:
448,192,77403,1,0,0:0:0:0:
192,192,77470,1,0,0:0:0:0:
448,192,77536,1,0,0:0:0:0:
320,192,77602,1,0,0:0:0:0:
64,192,77602,1,0,0:0:0:0:
448,192,77647,1,0,0:0:0:0:
192,192,77691,1,0,0:0:0:0:
320,192,77735,1,0,0:0:0:0:
64,192,77780,1,0,0:0:0:0:
192,192,77824,1,0,0:0:0:0:
448,192,77869,1,0,0:0:0:0:
320,192,77869,1,0,0:0:0:0:
192,192,78001,1,0,0:0:0:0:
448,192,78001,1,0,0:0:0:0:
320,192,78135,1,0,0:0:0:0:
64,192,78135,1,0,0:0:0:0:
192,192,78268,1,0,0:0:0:0:
64,192,78268,1,0,0:0:0:0:
448,192,78400,1,0,0:0:0:0:
320,192,78400,1,0,0:0:0:0:
192,192,78400,1,0,0:0:0:0:
448,192,78534,1,0,0:0:0:0:
192,192,78534,1,0,0:0:0:0:
64,192,78534,1,0,0:0:0:0:
448,192,78667,128,0,78933:0:0:0:0:
320,192,78667,1,0,0:0:0:0:
64,192,78667,1,0,0:0:0:0:
192,192,78933,1,0,0:0:0:0:
64,192,78933,1,0,0:0:0:0:
320,192,79066,1,0,0:0:0:0:
64,192,79132,1,0,0:0:0:0:
448,192,79199,1,0,0:0:0:0:
192,192,79199,1,0,0:0:0:0:
448,192,79332,1,0,0:0:0:0:
320,192,79332,1,0,0:0:0:0:
64,192,79465,1,0,0:0:0:0:
192,192,79465,1,0,0:0:0:0:
448,192,79598,1,0,0:0:0:0:
192,192,79598,1,0,0:0:0:0:
320,192,79731,1,0,0:0:0:0:
64,192,79731,1,0,0:0:0:0:
192,192,79798,1,0,0:0:0:0:
320,192,79864,1,0,0:0:0:0:
192,192,79930,1,0,0:0:0:0:
448,192,79997,1,0,0:0:0:0:
320,192,79997,1,0,0:0:0:0:
192,192,80064,1,0,0:0:0:0:
448,192,80130,1,0,0:0:0:0:
64,192,80130,1,0,0:0:0:0:
320,192,80197,1,0,0:0:0:0:
192,192,80197,1,0,0:0:0:0:
448,192,80263,1,0,0:0:0:0:
320,192,80330,1,0,0:0:0:0:
64,192,80330,1,0,0:0:0:0:
192,192,80396,1,0,0:0:0:0:
64,192,80463,1,0,0:0:0:0:
448,192,80530,1,0,0:0:0:0:
320,192,80530,1,0,0:0:0:0:
192,192,80596,1,0,0:0:0:0:
320,192,80662,1,0,0:0:0:0:
64,192,80729,1,0,0:0:0:0:
448,192,80796,1,0,0:0:0:0:
192,192,80796,1,0,0:0:0:0:
320,192,80862,1,0,0:0:0:0:
192,192,80929,1,0,0:0:0:0:
320,192,80995,1,0,0:0:0:0:
192,192,81061,1,0,0:0:0:0:
64,192,81061,1,0,0:0:0:0:
448,192,81150,1,0,0:0:0:0:
64,192,81195,1,0,0:0:0:0:
448,192,81283,1,0,0:0:0:0:
320,192,81283,1,0,0:0:0:0:
192,192,81328,1,0,0:0:0:0:
448,192,81394,1,0,0:0:0:0:
320,192,81394,1,0,0:0:0:0:
64,192,81460,1,0,0:0:0:0:
448,192,81527,1,0,0:0:0:0:
192,192,81594,1,0,0:0:0:0:
64,192,81594,1,0,0:0:0:0:
320,192,81660,1,0,0:0:0:0:
192,192,81727,1,0,0:0:0:0:
448,192,81793,1,0,0:0:0:0:
320,192,81860,1,0,0:0:0:0:
64,192,81860,1,0,0:0:0:0:
192,192,81926,1,0,0:0:0:0:
64,192,81993,1,0,0:0:0:0:
320,192,82037,1,0,0:0:0:0:
192,192,82081,1,0,0:0:0:0:
448,192,82126,1,0,0:0:0:0:
64,192,82126,1,0,0:0:0:0:
320,192,82170,1,0,0:0:0:0:
192,192,82215,1,0,0:0:0:0:
448,192,82259,1,0,0:0:0:0:
64,192,82303,1,0,0:0:0:0:
448,192,82348,1,0,0:0:0:0:
192,192,82392,1,0,0:0:0:0:
64,192,82392,1,0,0:0:0:0:
320,192,82437,1,0,0:0:0:0:
448,192,82480,1,0,0:0:0:0:
64,192,82525,1,0,0:0:0:0:
192,192,82570,1,0,0:0:0:0:
320,192,82614,1,0,0:0:0:0:
448,192,82658,1,0,0:0:0:0:
192,192,82725,1,0,0:0:0:0:
320,192,82791,1,0,0:0:0:0:
64,192,82858,1,0,0:0:0:0:
448,192,82924,1,0,0:0:0:0:
192,192,82924,1,0,0:0:0:0:
320,192,82990,1,0,0:0:0:0:
64,192,83057,1,0,0:0:0:0:
448,192,83124,1,0,0:0:0:0:
192,192,83190,1,0,0:0:0:0:
64,192,83190,1,0,0:0:0:0:
320,192,83235,1,0,0:0:0:0:
448,192,83279,1,0,0:0:0:0:
64,192,83323,1,0,0:0:0:0:
192,192,83368,1,0,0:0:0:0:
448,192,83412,1,0,0:0:0:0:
64,192,83457,1,0,0:0:0:0:
320,192,83500,1,0,0:0:0:0:
192,192,83523,1,0,0:0:0:0:
448,192,83545,1,0,0:0:0:0:
64,192,83590,1,0,0:0:0:0:
320,192,83634,1,0,0:0:0:0:
192,192,83678,1,0,0:0:0:0:
448,192,83722,1,0,0:0:0:0:
64,192,83722,1,0,0:0:0:0:
192,192,83856,1,0,0:0:0:0:
448,192,83900,1,0,0:0:0:0:
192,192,83989,1,0,0:0:0:0:
64,192,83989,1,0,0:0:0:0:
320,192,84055,1,0,0:0:0:0:
64,192,84121,1,0,0:0:0:0:
448,192,84188,1,0,0:0:0:0:
320,192,84255,1,0,0:0:0:0:
64,192,84255,1,0,0:0:0:0:
448,192,84388,1,0,0:0:0:0:
192,192,84388,1,0,0:0:0:0:
320,192,84454,1,0,0:0:0:0:
192,192,84520,1,0,0:0:0:0:
64,192,84520,1,0,0:0:0:0:
320,192,84587,1,0,0:0:0:0:
64,192,84654,1,0,0:0:0:0:
64,192,84720,1,0,0:0:0:0:
448,192,84787,1,0,0:0:0:0:
320,192,84820,1,0,0:0:0:0:
192,192,84853,1,0,0:0:0:0:
448,192,84887,1,0,0:0:0:0:
320,192,84920,1,0,0:0:0:0:
64,192,84953,1,0,0:0:0:0:
192,192,84987,1,0,0:0:0:0:
320,192,85020,1,0,0:0:0:0:
448,192,85053,1,0,0:0:0:0:
64,192,85053,1,0,0:0:0:0:
192,192,85120,1,0,0:0:0:0:
320,192,85186,1,0,0:0:0:0:
64,192,85252,1,0,0:0:0:0:
448,192,85319,1,0,0:0:0:0:
320,192,85319,1,0,0:0:0:0:
192,192,85386,1,0,0:0:0:0:
448,192,85452,1,0,0:0:0:0:
448,192,85519,1,0,0:0:0:0:
64,192,85585,1,0,0:0:0:0:
192,192,85619,1,0,0:0:0:0:
320,192,85651,1,0,0:0:0:0:
64,192,85685,1,0,0:0:0:0:
192,192,85718,1,0,0:0:0:0:
448,192,85762,1,0,0:0:0:0:
320,192,85807,1,0,0:0:0:0:
192,192,85851,1,0,0:0:0:0:
64,192,85851,1,0,0:0:0:0:
448,192,85918,1,0,0:0:0:0:
192,192,85984,1,0,0:0:0:0:
448,192,86050,1,0,0:0:0:0:
320,192,86118,1,0,0:0:0:0:
64,192,86118,1,0,0:0:0:0:
448,192,86161,1,0,0:0:0:0:
192,192,86206,1,0,0:0:0:0:
320,192,86250,1,0,0:0:0:0:
64,192,86295,1,0,0:0:0:0:
192,192,86339,1,0,0:0:0:0:
448,192,86383,1,0,0:0:0:0:
320,192,86383,1,0,0:0:0:0:
192,192,86517,1,0,0:0:0:0:
448,192,86517,1,0,0:0:0:0:
320,192,86650,1,0,0:0:0:0:
64,192,86650,1,0,0:0:0:0:
192,192,86782,1,0,0:0:0:0:
64,192,86782,1,0,0:0:0:0:
448,192,86916,1,0,0:0:0:0:
320,192,86916,1,0,0:0:0:0:
192,192,86916,1,0,0:0:0:0:
448,192,87049,1,0,0:0:0:0:
192,192,87049,1,0,0:0:0:0:
64,192,87049,1,0,0:0:0:0:
320,192,87181,1,0,0:0:0:0:
64,192,87226,1,0,0:0:0:0:
192,192,87270,1,0,0:0:0:0:
320,192,87315,1,0,0:0:0:0:
64,192,87359,1,0,0:0:0:0:
448,192,87381,1,0,0:0:0:0:
192,192,87481,1,0,0:0:0:0:
320,192,87530,1,0,0:0:0:0:
64,192,87598,1,0,0:0:0:0:
448,192,87664,1,0,0:0:0:0:
64,192,87730,1,0,0:0:0:0:
448,192,87780,1,0,0:0:0:0:
320,192,87847,1,0,0:0:0:0:
192,192,87913,1,0,0:0:0:0:
448,192,87980,1,0,0:0:0:0:
64,192,88047,1,0,0:0:0:0:
320,192,88113,1,0,0:0:0:0:
192,192,88246,1,0,0:0:0:0:
64,192,88290,1,0,0:0:0:0:
320,192,88335,1,0,0:0:0:0:
192,192,88379,1,0,0:0:0:0:
448,192,88423,1,0,0:0:0:0:
320,192,88468,1,0,0:0:0:0:
64,192,88512,1,0,0:0:0:0:
192,192,88645,1,0,0:0:0:0:
320,192,88711,1,0,0:0:0:0:
64,192,88779,1,0,0:0:0:0:
448,192,88845,1,0,0:0:0:0:
192,192,88911,1,0,0:0:0:0:
192,192,88978,1,0,0:0:0:0:
320,192,89044,1,0,0:0:0:0:
192,192,89110,1,0,0:0:0:0:
448,192,89178,1,0,0:0:0:0:
64,192,89244,1,0,0:0:0:0:
448,192,89310,1,0,0:0:0:0:
320,192,89355,1,0,0:0:0:0:
192,192,89399,1,0,0:0:0:0:
448,192,89443,1,0,0:0:0:0:
64,192,89488,1,0,0:0:0:0:
192,192,89532,1,0,0:0:0:0:
320,192,89577,1,0,0:0:0:0:
64,192,89710,1,0,0:0:0:0:
448,192,89776,1,0,0:0:0:0:
192,192,89842,1,0,0:0:0:0:
320,192,89909,1,0,0:0:0:0:
64,192,89976,1,0,0:0:0:0:
448,192,90109,1,0,0:0:0:0:
64,192,90241,1,0,0:0:0:0:
320,192,90375,1,0,0:0:0:0:
448,192,90420,1,0,0:0:0:0:
192,192,90463,1,0,0:0:0:0:
320,192,90508,1,0,0:0:0:0:
64,192,90552,1,0,0:0:0:0:
192,192,90597,1,0,0:0:0:0:
448,192,90640,1,0,0:0:0:0:
320,192,90774,1,0,0:0:0:0:
64,192,90840,1,0,0:0:0:0:
448,192,90907,1,0,0:0:0:0:
192,192,90973,1,0,0:0:0:0:
320,192,91040,1,0,0:0:0:0:
192,192,91173,1,0,0:0:0:0:
448,192,91240,1,0,0:0:0:0:
320,192,91306,128,0,91440:0:0:0:0:
64,192,91440,1,0,0:0:0:0:
192,192,91483,1,0,0:0:0:0:
320,192,91528,1,0,0:0:0:0:
64,192,91572,1,0,0:0:0:0:
448,192,91617,1,0,0:0:0:0:
320,192,91660,1,0,0:0:0:0:
192,192,91705,1,0,0:0:0:0:
448,192,91839,1,0,0:0:0:0:
192,192,91905,1,0,0:0:0:0:
320,192,91971,1,0,0:0:0:0:
64,192,92038,1,0,0:0:0:0:
448,192,92104,1,0,0:0:0:0:
64,192,92238,1,0,0:0:0:0:
448,192,92304,1,0,0:0:0:0:
192,192,92370,128,0,92503:0:0:0:0:
320,192,92503,1,0,0:0:0:0:
64,192,92548,1,0,0:0:0:0:
192,192,92592,1,0,0:0:0:0:
448,192,92637,1,0,0:0:0:0:
64,192,92680,1,0,0:0:0:0:
320,192,92725,1,0,0:0:0:0:
448,192,92770,1,0,0:0:0:0:
192,192,92902,1,0,0:0:0:0:
448,192,92970,1,0,0:0:0:0:
64,192,93036,1,0,0:0:0:0:
320,192,93102,1,0,0:0:0:0:
192,192,93169,1,0,0:0:0:0:
320,192,93301,1,0,0:0:0:0:
448,192,93369,1,0,0:0:0:0:
64,192,93435,128,0,93568:0:0:0:0:
448,192,93568,1,0,0:0:0:0:
320,192,93612,1,0,0:0:0:0:
192,192,93657,1,0,0:0:0:0:
448,192,93700,1,0,0:0:0:0:
64,192,93745,1,0,0:0:0:0:
192,192,93790,1,0,0:0:0:0:
320,192,93834,1,0,0:0:0:0:
64,192,93967,1,0,0:0:0:0:
320,192,94033,1,0,0:0:0:0:
192,192,94100,1,0,0:0:0:0:
448,192,94167,1,0,0:0:0:0:
64,192,94233,1,0,0:0:0:0:
192,192,94300,1,0,0:0:0:0:
320,192,94366,1,0,0:0:0:0:
64,192,94432,1,0,0:0:0:0:
448,192,94500,128,0,94632:0:0:0:0:
192,192,94632,1,0,0:0:0:0:
448,192,94677,1,0,0:0:0:0:
320,192,94720,1,0,0:0:0:0:
64,192,94765,1,0,0:0:0:0:
448,192,94810,1,0,0:0:0:0:
192,192,94854,1,0,0:0:0:0:
64,192,94899,1,0,0:0:0:0:
320,192,95031,1,0,0:0:0:0:
64,192,95098,1,0,0:0:0:0:
448,192,95164,1,0,0:0:0:0:
192,192,95230,1,0,0:0:0:0:
320,192,95298,128,0,95430:0:0:0:0:
192,192,95430,1,0,0:0:0:0:
448,192,95497,1,0,0:0:0:0:
64,192,95563,1,0,0:0:0:0:
192,192,95697,128,0,95896:0:0:0:0:
448,192,96096,128,0,96295:0:0:0:0:
64,192,96495,128,0,96761:0:0:0:0:
64,192,96894,128,0,97093:0:0:0:0:
64,192,97293,128,0,97426:0:0:0:0:
64,192,97692,1,0,0:0:0:0:
192,192,97825,128,0,98025:0:0:0:0:
320,192,98224,128,0,98424:0:0:0:0:
64,192,98623,128,0,98823:0:0:0:0:
448,192,98890,128,0,99090:0:0:0:0:
64,192,99422,128,0,99621:0:0:0:0:
448,192,99865,1,0,0:0:0:0:
320,192,99910,1,0,0:0:0:0:
64,192,99954,1,0,0:0:0:0:
192,192,100020,1,0,0:0:0:0:
64,192,100087,1,0,0:0:0:0:
320,192,100153,1,0,0:0:0:0:
448,192,100187,1,0,0:0:0:0:
192,192,100220,1,0,0:0:0:0:
320,192,100264,1,0,0:0:0:0:
64,192,100309,1,0,0:0:0:0:
448,192,100353,1,0,0:0:0:0:
192,192,100398,1,0,0:0:0:0:
64,192,100442,1,0,0:0:0:0:
320,192,100530,1,0,0:0:0:0:
192,192,100575,1,0,0:0:0:0:
448,192,100620,1,0,0:0:0:0:
64,192,100663,1,0,0:0:0:0:
320,192,100708,1,0,0:0:0:0:
448,192,100752,1,0,0:0:0:0:
448,192,100930,1,0,0:0:0:0:
64,192,101019,1,0,0:0:0:0:
64,192,101085,1,0,0:0:0:0:
320,192,101218,1,0,0:0:0:0:
448,192,101284,1,0,0:0:0:0:
192,192,101351,1,0,0:0:0:0:
448,192,101418,1,0,0:0:0:0:
320,192,101484,1,0,0:0:0:0:
64,192,101550,1,0,0:0:0:0:
448,192,101683,1,0,0:0:0:0:
64,192,101750,1,0,0:0:0:0:
448,192,101817,1,0,0:0:0:0:
320,192,101850,1,0,0:0:0:0:
192,192,101883,1,0,0:0:0:0:
448,192,101917,1,0,0:0:0:0:
320,192,101950,1,0,0:0:0:0:
64,192,101983,1,0,0:0:0:0:
192,192,102016,1,0,0:0:0:0:
320,192,102050,1,0,0:0:0:0:
448,192,102083,1,0,0:0:0:0:
64,192,102150,1,0,0:0:0:0:
64,192,102232,1,0,0:0:0:0:
64,192,102327,1,0,0:0:0:0:
64,192,102415,1,0,0:0:0:0:
448,192,102482,1,0,0:0:0:0:
448,192,102549,1,0,0:0:0:0:
64,192,102615,1,0,0:0:0:0:
320,192,102649,1,0,0:0:0:0:
192,192,102681,1,0,0:0:0:0:
64,192,102715,1,0,0:0:0:0:
448,192,102748,1,0,0:0:0:0:
320,192,102792,1,0,0:0:0:0:
192,192,102837,1,0,0:0:0:0:
448,192,102881,1,0,0:0:0:0:
448,192,102948,1,0,0:0:0:0:
64,192,103014,1,0,0:0:0:0:
448,192,103080,1,0,0:0:0:0:
64,192,103147,1,0,0:0:0:0:
448,192,103280,128,0,103413:0:0:0:0:
64,192,103280,128,0,103413:0:0:0:0:
448,192,103546,128,0,103680:0:0:0:0:
64,192,103546,128,0,103680:0:0:0:0:
448,192,103779,128,0,103879:0:0:0:0:
64,192,103779,128,0,103879:0:0:0:0:
448,192,103945,1,0,0:0:0:0:
64,192,103945,1,0,0:0:0:0:
448,192,104045,128,0,104145:0:0:0:0:
64,192,104045,128,0,104145:0:0:0:0:
448,192,104211,1,0,0:0:0:0:
64,192,104211,1,0,0:0:0:0:
192,192,104278,1,0,0:0:0:0:
320,192,104344,1,0,0:0:0:0:
64,192,104411,1,0,0:0:0:0:
448,192,104478,1,0,0:0:0:0:
320,192,104478,1,0,0:0:0:0:
192,192,104544,1,0,0:0:0:0:
64,192,104610,1,0,0:0:0:0:
320,192,104677,1,0,0:0:0:0:
448,192,104744,1,0,0:0:0:0:
192,192,104788,1,0,0:0:0:0:
320,192,104832,1,0,0:0:0:0:
64,192,104877,1,0,0:0:0:0:
192,192,104910,1,0,0:0:0:0:
320,192,104943,1,0,0:0:0:0:
448,192,104977,1,0,0:0:0:0:
64,192,105010,1,0,0:0:0:0:
64,192,105187,1,0,0:0:0:0:
192,192,105342,1,0,0:0:0:0:
64,192,105475,1,0,0:0:0:0:
192,192,105586,1,0,0:0:0:0:
64,192,105675,128,0,105808:0:0:0:0:
320,192,105808,1,0,0:0:0:0:
192,192,105808,1,0,0:0:0:0:
448,192,105897,1,0,0:0:0:0:
192,192,105985,1,0,0:0:0:0:
64,192,105985,1,0,0:0:0:0:
448,192,106074,1,0,0:0:0:0:
320,192,106074,1,0,0:0:0:0:
192,192,106163,1,0,0:0:0:0:
64,192,106163,1,0,0:0:0:0:
448,192,106251,1,0,0:0:0:0:
320,192,106251,1,0,0:0:0:0:
192,192,106340,1,0,0:0:0:0:
192,192,106407,1,0,0:0:0:0:
320,192,106473,1,0,0:0:0:0:
320,192,106540,1,0,0:0:0:0:
64,192,106606,1,0,0:0:0:0:
64,192,106673,1,0,0:0:0:0:
448,192,106740,1,0,0:0:0:0:
448,192,106806,1,0,0:0:0:0:
192,192,106872,1,0,0:0:0:0:
448,192,106939,1,0,0:0:0:0:
192,192,107005,1,0,0:0:0:0:
192,192,107072,1,0,0:0:0:0:
320,192,107139,1,0,0:0:0:0:
320,192,107205,1,0,0:0:0:0:
64,192,107271,1,0,0:0:0:0:
320,192,107338,1,0,0:0:0:0:
64,192,107405,1,0,0:0:0:0:
64,192,107471,1,0,0:0:0:0:
448,192,107538,1,0,0:0:0:0:
320,192,107582,1,0,0:0:0:0:
64,192,107626,1,0,0:0:0:0:
448,192,107670,1,0,0:0:0:0:
192,192,107715,1,0,0:0:0:0:
64,192,107760,1,0,0:0:0:0:
320,192,107804,1,0,0:0:0:0:
192,192,107848,1,0,0:0:0:0:
448,192,107892,1,0,0:0:0:0:
64,192,107937,1,0,0:0:0:0:
320,192,107981,1,0,0:0:0:0:
192,192,108025,1,0,0:0:0:0:
448,192,108070,1,0,0:0:0:0:
320,192,108114,1,0,0:0:0:0:
64,192,108159,1,0,0:0:0:0:
448,192,108203,1,0,0:0:0:0:
192,192,108247,1,0,0:0:0:0:
320,192,108291,1,0,0:0:0:0:
448,192,108336,1,0,0:0:0:0:
64,192,108380,1,0,0:0:0:0:
192,192,108425,1,0,0:0:0:0:
448,192,108469,1,0,0:0:0:0:
320,192,108469,1,0,0:0:0:0:
192,192,108535,1,0,0:0:0:0:
64,192,108535,1,0,0:0:0:0:
448,192,108602,1,0,0:0:0:0:
320,192,108602,1,0,0:0:0:0:
64,192,108669,1,0,0:0:0:0:
320,192,108735,1,0,0:0:0:0:
192,192,108780,1,0,0:0:0:0:
448,192,108824,1,0,0:0:0:0:
64,192,108868,1,0,0:0:0:0:
320,192,108912,1,0,0:0:0:0:
448,192,108957,1,0,0:0:0:0:
192,192,109046,1,0,0:0:0:0:
320,192,109090,1,0,0:0:0:0:
64,192,109134,1,0,0:0:0:0:
448,192,109179,1,0,0:0:0:0:
192,192,109223,1,0,0:0:0:0:
64,192,109267,1,0,0:0:0:0:
64,192,109445,1,0,0:0:0:0:
448,192,109533,1,0,0:0:0:0:
448,192,109600,1,0,0:0:0:0:
192,192,109733,1,0,0:0:0:0:
64,192,109800,1,0,0:0:0:0:
320,192,109866,1,0,0:0:0:0:
64,192,109932,1,0,0:0:0:0:
192,192,109999,1,0,0:0:0:0:
448,192,110066,1,0,0:0:0:0:
64,192,110199,1,0,0:0:0:0:
448,192,110265,1,0,0:0:0:0:
64,192,110331,1,0,0:0:0:0:
192,192,110365,1,0,0:0:0:0:
320,192,110398,1,0,0:0:0:0:
64,192,110431,1,0,0:0:0:0:
192,192,110465,1,0,0:0:0:0:
448,192,110498,1,0,0:0:0:0:
320,192,110531,1,0,0:0:0:0:
192,192,110564,1,0,0:0:0:0:
64,192,110598,1,0,0:0:0:0:
448,192,110664,1,0,0:0:0:0:
448,192,110748,1,0,0:0:0:0:
448,192,110841,1,0,0:0:0:0:
448,192,110930,1,0,0:0:0:0:
64,192,110997,1,0,0:0:0:0:
64,192,111063,1,0,0:0:0:0:
448,192,111130,1,0,0:0:0:0:
192,192,111163,1,0,0:0:0:0:
320,192,111196,1,0,0:0:0:0:
448,192,111230,1,0,0:0:0:0:
64,192,111263,1,0,0:0:0:0:
192,192,111307,1,0,0:0:0:0:
320,192,111351,1,0,0:0:0:0:
64,192,111396,1,0,0:0:0:0:
64,192,111462,1,0,0:0:0:0:
448,192,111529,1,0,0:0:0:0:
64,192,111596,1,0,0:0:0:0:
448,192,111662,1,0,0:0:0:0:
448,192,111795,128,0,111928:0:0:0:0:
64,192,111795,128,0,111928:0:0:0:0:
448,192,112061,128,0,112194:0:0:0:0:
64,192,112061,128,0,112194:0:0:0:0:
448,192,112294,128,0,112394:0:0:0:0:
64,192,112294,128,0,112394:0:0:0:0:
448,192,112460,1,0,0:0:0:0:
64,192,112460,1,0,0:0:0:0:
448,192,112560,128,0,112660:0:0:0:0:
64,192,112560,128,0,112660:0:0:0:0:
448,192,112727,1,0,0:0:0:0:
64,192,112727,1,0,0:0:0:0:
320,192,112793,1,0,0:0:0:0:
192,192,112860,1,0,0:0:0:0:
448,192,112926,1,0,0:0:0:0:
192,192,112992,1,0,0:0:0:0:
64,192,112992,1,0,0:0:0:0:
320,192,113059,1,0,0:0:0:0:
448,192,113126,1,0,0:0:0:0:
64,192,113126,1,0,0:0:0:0:
192,192,113192,1,0,0:0:0:0:
64,192,113259,1,0,0:0:0:0:
320,192,113303,1,0,0:0:0:0:
192,192,113347,1,0,0:0:0:0:
448,192,113391,1,0,0:0:0:0:
320,192,113425,1,0,0:0:0:0:
192,192,113458,1,0,0:0:0:0:
64,192,113491,1,0,0:0:0:0:
448,192,113525,1,0,0:0:0:0:
320,192,113525,1,0,0:0:0:0:
192,192,113658,1,0,0:0:0:0:
448,192,113702,1,0,0:0:0:0:
64,192,113790,1,0,0:0:0:0:
320,192,113858,1,0,0:0:0:0:
448,192,113990,1,0,0:0:0:0:
192,192,114057,1,0,0:0:0:0:
64,192,114057,1,0,0:0:0:0:
320,192,114101,1,0,0:0:0:0:
448,192,114190,128,0,114323:0:0:0:0:
64,192,114190,1,0,0:0:0:0:
320,192,114323,1,0,0:0:0:0:
192,192,114323,1,0,0:0:0:0:
64,192,114411,1,0,0:0:0:0:
448,192,114456,1,0,0:0:0:0:
320,192,114500,1,0,0:0:0:0:
192,192,114500,1,0,0:0:0:0:
192,192,114589,1,0,0:0:0:0:
64,192,114589,1,0,0:0:0:0:
448,192,114678,1,0,0:0:0:0:
320,192,114678,1,0,0:0:0:0:
192,192,114767,1,0,0:0:0:0:
64,192,114767,1,0,0:0:0:0:
448,192,114855,1,0,0:0:0:0:
320,192,114855,1,0,0:0:0:0:
320,192,114921,1,0,0:0:0:0:
192,192,114988,1,0,0:0:0:0:
192,192,115055,1,0,0:0:0:0:
448,192,115121,1,0,0:0:0:0:
64,192,115121,1,0,0:0:0:0:
448,192,115188,1,0,0:0:0:0:
64,192,115254,1,0,0:0:0:0:
64,192,115320,1,0,0:0:0:0:
448,192,115388,1,0,0:0:0:0:
320,192,115388,1,0,0:0:0:0:
64,192,115454,1,0,0:0:0:0:
320,192,115520,1,0,0:0:0:0:
320,192,115587,1,0,0:0:0:0:
192,192,115653,1,0,0:0:0:0:
64,192,115653,1,0,0:0:0:0:
192,192,115720,1,0,0:0:0:0:
448,192,115787,1,0,0:0:0:0:
192,192,115853,1,0,0:0:0:0:
448,192,115920,1,0,0:0:0:0:
320,192,115920,1,0,0:0:0:0:
448,192,115986,1,0,0:0:0:0:
64,192,116052,1,0,0:0:0:0:
192,192,116097,1,0,0:0:0:0:
448,192,116141,1,0,0:0:0:0:
64,192,116186,1,0,0:0:0:0:
320,192,116230,1,0,0:0:0:0:
448,192,116274,1,0,0:0:0:0:
192,192,116319,1,0,0:0:0:0:
320,192,116363,1,0,0:0:0:0:
64,192,116408,1,0,0:0:0:0:
448,192,116451,1,0,0:0:0:0:
192,192,116496,1,0,0:0:0:0:
320,192,116540,1,0,0:0:0:0:
64,192,116585,1,0,0:0:0:0:
192,192,116629,1,0,0:0:0:0:
448,192,116673,1,0,0:0:0:0:
64,192,116718,1,0,0:0:0:0:
320,192,116762,1,0,0:0:0:0:
192,192,116807,1,0,0:0:0:0:
64,192,116850,1,0,0:0:0:0:
448,192,116895,1,0,0:0:0:0:
320,192,116940,1,0,0:0:0:0:
192,192,116984,1,0,0:0:0:0:
64,192,116984,1,0,0:0:0:0:
448,192,117050,1,0,0:0:0:0:
320,192,117050,1,0,0:0:0:0:
192,192,117117,1,0,0:0:0:0:
64,192,117117,1,0,0:0:0:0:
448,192,117183,1,0,0:0:0:0:
192,192,117250,1,0,0:0:0:0:
320,192,117294,1,0,0:0:0:0:
64,192,117339,1,0,0:0:0:0:
448,192,117383,1,0,0:0:0:0:
192,192,117428,1,0,0:0:0:0:
64,192,117471,1,0,0:0:0:0:
448,192,117516,1,0,0:0:0:0:
320,192,117560,1,0,0:0:0:0:
64,192,117605,1,0,0:0:0:0:
448,192,117649,1,0,0:0:0:0:
192,192,117693,1,0,0:0:0:0:
320,192,117738,1,0,0:0:0:0:
448,192,117782,1,0,0:0:0:0:
64,192,117782,1,0,0:0:0:0:
192,192,117915,1,0,0:0:0:0:
448,192,117960,1,0,0:0:0:0:
192,192,118049,1,0,0:0:0:0:
64,192,118049,1,0,0:0:0:0:
320,192,118115,1,0,0:0:0:0:
64,192,118181,1,0,0:0:0:0:
448,192,118248,1,0,0:0:0:0:
320,192,118314,1,0,0:0:0:0:
64,192,118314,1,0,0:0:0:0:
448,192,118448,1,0,0:0:0:0:
192,192,118448,1,0,0:0:0:0:
320,192,118514,1,0,0:0:0:0:
192,192,118580,1,0,0:0:0:0:
64,192,118580,1,0,0:0:0:0:
320,192,118647,1,0,0:0:0:0:
64,192,118713,1,0,0:0:0:0:
64,192,118780,1,0,0:0:0:0:
448,192,118847,1,0,0:0:0:0:
320,192,118880,1,0,0:0:0:0:
192,192,118913,1,0,0:0:0:0:
448,192,118946,1,0,0:0:0:0:
320,192,118980,1,0,0:0:0:0:
64,192,119013,1,0,0:0:0:0:
192,192,119046,1,0,0:0:0:0:
320,192,119080,1,0,0:0:0:0:
448,192,119112,1,0,0:0:0:0:
64,192,119180,1,0,0:0:0:0:
64,192,119262,1,0,0:0:0:0:
64,192,119357,1,0,0:0:0:0:
448,192,119379,1,0,0:0:0:0:
320,192,119379,1,0,0:0:0:0:
64,192,119445,1,0,0:0:0:0:
448,192,119511,1,0,0:0:0:0:
448,192,119579,1,0,0:0:0:0:
64,192,119645,1,0,0:0:0:0:
320,192,119678,1,0,0:0:0:0:
192,192,119711,1,0,0:0:0:0:
64,192,119744,1,0,0:0:0:0:
448,192,119778,1,0,0:0:0:0:
320,192,119822,1,0,0:0:0:0:
192,192,119867,1,0,0:0:0:0:
448,192,119910,1,0,0:0:0:0:
64,192,119910,1,0,0:0:0:0:
448,192,119978,1,0,0:0:0:0:
64,192,120044,1,0,0:0:0:0:
448,192,120110,1,0,0:0:0:0:
192,192,120177,1,0,0:0:0:0:
64,192,120177,1,0,0:0:0:0:
448,192,120310,128,0,120443:0:0:0:0:
64,192,120310,128,0,120443:0:0:0:0:
320,192,120443,1,0,0:0:0:0:
192,192,120443,1,0,0:0:0:0:
448,192,120576,128,0,120710:0:0:0:0:
64,192,120576,128,0,120710:0:0:0:0:
320,192,120710,1,0,0:0:0:0:
64,192,120809,1,0,0:0:0:0:
192,192,120809,1,0,0:0:0:0:
320,192,120842,1,0,0:0:0:0:
448,192,120975,1,0,0:0:0:0:
192,192,120975,1,0,0:0:0:0:
64,192,120975,1,0,0:0:0:0:
448,192,121075,1,0,0:0:0:0:
320,192,121075,1,0,0:0:0:0:
192,192,121109,1,0,0:0:0:0:
320,192,121241,1,0,0:0:0:0:
448,192,121241,1,0,0:0:0:0:
64,192,121241,1,0,0:0:0:0:
192,192,121241,1,0,0:0:0:0:
320,192,121374,1,0,0:0:0:0:
448,192,121508,1,0,0:0:0:0:
64,192,121508,1,0,0:0:0:0:
192,192,121640,1,0,0:0:0:0:
320,192,121714,1,0,0:0:0:0:
64,192,121790,1,0,0:0:0:0:
448,192,121873,1,0,0:0:0:0:
64,192,121950,1,0,0:0:0:0:
320,192,121950,1,0,0:0:0:0:
192,192,122056,1,0,0:0:0:0:
448,192,122150,1,0,0:0:0:0:
320,192,122150,1,0,0:0:0:0:
192,192,122283,1,0,0:0:0:0:
320,192,122424,1,0,0:0:0:0:
64,192,122555,1,0,0:0:0:0:
