osu file format v14

[General]
AudioFilename: audio.mp3
AudioLeadIn: 0
PreviewTime: 40773
Countdown: 0
SampleSet: Soft
StackLeniency: 0.7
Mode: 3
LetterboxInBreaks: 0
SpecialStyle: 0
WidescreenStoryboard: 0

[Editor]
DistanceSpacing: 1.2
BeatDivisor: 4
GridSize: 4
TimelineZoom: 2.2

[Metadata]
Title:Skype Piano
TitleUnicode:Skype Piano
Artist:The Flashbulb
ArtistUnicode:The Flashbulb
Creator:Civilization
Version:Ashore
Source:
Tags:benn jordan idm tech light ln hardscrabble
BeatmapID:1753493
BeatmapSetID:837463

[Difficulty]
HPDrainRate:7
CircleSize:4
OverallDifficulty:7
ApproachRate:5
SliderMultiplier:1.4
SliderTickRate:1

[Events]
//Background and Video events
0,0,"biddybabyspaghetti.png",0,0
//Break Periods
//Storyboard Layer 0 (Background)
//Storyboard Layer 1 (Fail)
//Storyboard Layer 2 (Pass)
//Storyboard Layer 3 (Foreground)
//Storyboard Sound Samples

[TimingPoints]
46,363.636363636364,7,2,0,20,1,0

[HitObjects]
64,192,46,5,0,0:0:0:0:
192,192,46,1,0,0:0:0:0:
320,192,227,1,0,0:0:0:0:
448,192,409,1,0,0:0:0:0:
192,192,500,1,0,0:0:0:0:
64,192,591,1,0,0:0:0:0:
448,192,591,1,0,0:0:0:0:
320,192,773,1,0,0:0:0:0:
192,192,955,1,0,0:0:0:0:
64,192,955,1,0,0:0:0:0:
64,192,1136,1,0,0:0:0:0:
320,192,1136,1,0,0:0:0:0:
448,192,1318,128,0,1500:0:0:0:0:
192,192,1500,1,0,0:0:0:0:
64,192,1500,1,0,0:0:0:0:
320,192,1682,1,0,0:0:0:0:
448,192,1864,1,0,0:0:0:0:
192,192,2046,1,0,0:0:0:0:
64,192,2046,1,0,0:0:0:0:
64,192,2227,1,0,0:0:0:0:
320,192,2227,1,0,0:0:0:0:
448,192,2409,1,0,0:0:0:0:
192,192,2591,1,0,0:0:0:0:
64,192,2591,1,0,0:0:0:0:
320,192,2773,1,0,0:0:0:0:
448,192,2955,1,0,0:0:0:0:
192,192,3046,1,0,0:0:0:0:
64,192,3136,1,0,0:0:0:0:
448,192,3136,1,0,0:0:0:0:
320,192,3318,1,0,0:0:0:0:
192,192,3500,1,0,0:0:0:0:
64,192,3500,1,0,0:0:0:0:
64,192,3682,1,0,0:0:0:0:
320,192,3682,1,0,0:0:0:0:
448,192,3864,128,0,4046:0:0:0:0:
192,192,4046,1,0,0:0:0:0:
64,192,4046,1,0,0:0:0:0:
320,192,4227,1,0,0:0:0:0:
448,192,4409,1,0,0:0:0:0:
192,192,4591,1,0,0:0:0:0:
64,192,4591,1,0,0:0:0:0:
64,192,4773,1,0,0:0:0:0:
320,192,4773,1,0,0:0:0:0:
192,192,4955,1,0,0:0:0:0:
320,192,5136,1,0,0:0:0:0:
448,192,5136,1,0,0:0:0:0:
192,192,5318,1,0,0:0:0:0:
64,192,5500,1,0,0:0:0:0:
320,192,5591,1,0,0:0:0:0:
448,192,5682,1,0,0:0:0:0:
64,192,5682,1,0,0:0:0:0:
192,192,5864,1,0,0:0:0:0:
320,192,6046,1,0,0:0:0:0:
448,192,6046,1,0,0:0:0:0:
192,192,6227,1,0,0:0:0:0:
448,192,6227,1,0,0:0:0:0:
64,192,6409,128,0,6591:0:0:0:0:
320,192,6591,1,0,0:0:0:0:
448,192,6591,1,0,0:0:0:0:
192,192,6773,1,0,0:0:0:0:
64,192,6955,1,0,0:0:0:0:
320,192,7136,1,0,0:0:0:0:
448,192,7136,1,0,0:0:0:0:
192,192,7318,1,0,0:0:0:0:
448,192,7318,1,0,0:0:0:0:
64,192,7500,1,0,0:0:0:0:
448,192,7682,1,0,0:0:0:0:
320,192,7682,1,0,0:0:0:0:
192,192,7864,1,0,0:0:0:0:
64,192,8046,1,0,0:0:0:0:
320,192,8136,1,0,0:0:0:0:
448,192,8227,1,0,0:0:0:0:
64,192,8227,1,0,0:0:0:0:
192,192,8409,1,0,0:0:0:0:
320,192,8591,1,0,0:0:0:0:
448,192,8591,1,0,0:0:0:0:
192,192,8773,1,0,0:0:0:0:
448,192,8773,1,0,0:0:0:0:
64,192,8955,128,0,9136:0:0:0:0:
320,192,9136,1,0,0:0:0:0:
448,192,9136,1,0,0:0:0:0:
192,192,9318,1,0,0:0:0:0:
64,192,9500,1,0,0:0:0:0:
320,192,9682,1,0,0:0:0:0:
448,192,9682,1,0,0:0:0:0:
192,192,9864,1,0,0:0:0:0:
448,192,9864,1,0,0:0:0:0:
320,192,10046,1,0,0:0:0:0:
192,192,10227,1,0,0:0:0:0:
64,192,10227,1,0,0:0:0:0:
320,192,10409,1,0,0:0:0:0:
448,192,10591,1,0,0:0:0:0:
192,192,10682,1,0,0:0:0:0:
64,192,10773,1,0,0:0:0:0:
448,192,10773,1,0,0:0:0:0:
320,192,10955,1,0,0:0:0:0:
192,192,11136,1,0,0:0:0:0:
64,192,11136,1,0,0:0:0:0:
64,192,11318,1,0,0:0:0:0:
320,192,11318,1,0,0:0:0:0:
448,192,11500,128,0,11682:0:0:0:0:
192,192,11682,1,0,0:0:0:0:
64,192,11682,1,0,0:0:0:0:
320,192,11864,1,0,0:0:0:0:
448,192,12046,1,0,0:0:0:0:
192,192,12227,1,0,0:0:0:0:
64,192,12227,1,0,0:0:0:0:
64,192,12409,1,0,0:0:0:0:
320,192,12409,1,0,0:0:0:0:
448,192,12591,1,0,0:0:0:0:
192,192,12773,1,0,0:0:0:0:
64,192,12773,1,0,0:0:0:0:
320,192,12955,1,0,0:0:0:0:
448,192,13136,1,0,0:0:0:0:
192,192,13227,1,0,0:0:0:0:
64,192,13318,1,0,0:0:0:0:
448,192,13318,1,0,0:0:0:0:
320,192,13500,1,0,0:0:0:0:
192,192,13682,1,0,0:0:0:0:
64,192,13682,1,0,0:0:0:0:
64,192,13864,1,0,0:0:0:0:
320,192,13864,1,0,0:0:0:0:
448,192,14046,128,0,14227:0:0:0:0:
192,192,14227,1,0,0:0:0:0:
64,192,14227,1,0,0:0:0:0:
320,192,14409,1,0,0:0:0:0:
448,192,14591,1,0,0:0:0:0:
192,192,14773,1,0,0:0:0:0:
64,192,14773,1,0,0:0:0:0:
64,192,14955,1,0,0:0:0:0:
320,192,14955,1,0,0:0:0:0:
192,192,15136,1,0,0:0:0:0:
448,192,15318,1,0,0:0:0:0:
320,192,15318,1,0,0:0:0:0:
192,192,15500,1,0,0:0:0:0:
64,192,15682,1,0,0:0:0:0:
320,192,15773,1,0,0:0:0:0:
448,192,15864,1,0,0:0:0:0:
64,192,15864,1,0,0:0:0:0:
192,192,16046,1,0,0:0:0:0:
320,192,16227,1,0,0:0:0:0:
448,192,16227,1,0,0:0:0:0:
192,192,16409,1,0,0:0:0:0:
448,192,16409,1,0,0:0:0:0:
64,192,16591,128,0,16773:0:0:0:0:
320,192,16773,1,0,0:0:0:0:
448,192,16773,1,0,0:0:0:0:
192,192,16955,1,0,0:0:0:0:
64,192,17136,1,0,0:0:0:0:
448,192,17318,1,0,0:0:0:0:
320,192,17318,1,0,0:0:0:0:
192,192,17500,1,0,0:0:0:0:
448,192,17500,1,0,0:0:0:0:
64,192,17682,1,0,0:0:0:0:
448,192,17864,1,0,0:0:0:0:
320,192,17864,1,0,0:0:0:0:
192,192,18046,1,0,0:0:0:0:
64,192,18227,1,0,0:0:0:0:
320,192,18318,1,0,0:0:0:0:
448,192,18409,1,0,0:0:0:0:
64,192,18409,1,0,0:0:0:0:
192,192,18591,1,0,0:0:0:0:
320,192,18773,1,0,0:0:0:0:
448,192,18773,1,0,0:0:0:0:
192,192,18955,1,0,0:0:0:0:
448,192,18955,1,0,0:0:0:0:
64,192,19136,128,0,19318:0:0:0:0:
320,192,19318,1,0,0:0:0:0:
448,192,19318,1,0,0:0:0:0:
192,192,19500,1,0,0:0:0:0:
64,192,19682,1,0,0:0:0:0:
320,192,19864,1,0,0:0:0:0:
448,192,19864,1,0,0:0:0:0:
192,192,20046,1,0,0:0:0:0:
448,192,20046,1,0,0:0:0:0:
320,192,20227,1,0,0:0:0:0:
192,192,20409,1,0,0:0:0:0:
64,192,20409,1,0,0:0:0:0:
320,192,20591,1,0,0:0:0:0:
448,192,20773,1,0,0:0:0:0:
192,192,20864,1,0,0:0:0:0:
64,192,20955,1,0,0:0:0:0:
448,192,20955,1,0,0:0:0:0:
320,192,21136,1,0,0:0:0:0:
192,192,21318,1,0,0:0:0:0:
64,192,21318,1,0,0:0:0:0:
64,192,21500,1,0,0:0:0:0:
320,192,21500,1,0,0:0:0:0:
448,192,21682,128,0,21864:0:0:0:0:
192,192,21864,1,0,0:0:0:0:
64,192,21864,1,0,0:0:0:0:
320,192,22046,1,0,0:0:0:0:
448,192,22227,1,0,0:0:0:0:
192,192,22409,1,0,0:0:0:0:
64,192,22409,1,0,0:0:0:0:
64,192,22591,1,0,0:0:0:0:
320,192,22591,1,0,0:0:0:0:
448,192,22773,1,0,0:0:0:0:
192,192,22955,1,0,0:0:0:0:
64,192,22955,128,0,23046:0:0:0:0:
320,192,23136,1,0,0:0:0:0:
448,192,23318,1,0,0:0:0:0:
192,192,23409,1,0,0:0:0:0:
64,192,23500,1,0,0:0:0:0:
448,192,23500,1,0,0:0:0:0:
192,192,23682,128,0,23773:0:0:0:0:
320,192,23864,1,0,0:0:0:0:
448,192,23864,1,0,0:0:0:0:
192,192,24046,1,0,0:0:0:0:
448,192,24046,1,0,0:0:0:0:
64,192,24227,128,0,24409:0:0:0:0:
320,192,24409,1,0,0:0:0:0:
448,192,24409,128,0,24500:0:0:0:0:
192,192,24591,1,0,0:0:0:0:
64,192,24773,1,0,0:0:0:0:
320,192,24955,1,0,0:0:0:0:
448,192,24955,1,0,0:0:0:0:
448,192,25136,1,0,0:0:0:0:
192,192,25136,1,0,0:0:0:0:
64,192,25318,1,0,0:0:0:0:
448,192,25500,1,0,0:0:0:0:
320,192,25500,128,0,25591:0:0:0:0:
192,192,25682,1,0,0:0:0:0:
64,192,25864,1,0,0:0:0:0:
320,192,25955,1,0,0:0:0:0:
448,192,26046,1,0,0:0:0:0:
64,192,26046,1,0,0:0:0:0:
192,192,26227,1,0,0:0:0:0:
320,192,26409,1,0,0:0:0:0:
448,192,26409,1,0,0:0:0:0:
448,192,26591,1,0,0:0:0:0:
192,192,26591,1,0,0:0:0:0:
64,192,26773,128,0,26955:0:0:0:0:
448,192,26955,1,0,0:0:0:0:
320,192,26955,128,0,27046:0:0:0:0:
192,192,27136,1,0,0:0:0:0:
64,192,27318,1,0,0:0:0:0:
320,192,27500,1,0,0:0:0:0:
448,192,27500,1,0,0:0:0:0:
192,192,27682,1,0,0:0:0:0:
448,192,27682,1,0,0:0:0:0:
64,192,27864,1,0,0:0:0:0:
448,192,28046,1,0,0:0:0:0:
320,192,28046,128,0,28136:0:0:0:0:
192,192,28227,1,0,0:0:0:0:
64,192,28409,1,0,0:0:0:0:
320,192,28500,1,0,0:0:0:0:
448,192,28591,1,0,0:0:0:0:
64,192,28591,1,0,0:0:0:0:
192,192,28773,1,0,0:0:0:0:
320,192,28955,1,0,0:0:0:0:
448,192,28955,1,0,0:0:0:0:
192,192,29136,1,0,0:0:0:0:
448,192,29136,1,0,0:0:0:0:
64,192,29318,128,0,29500:0:0:0:0:
320,192,29500,1,0,0:0:0:0:
448,192,29500,128,0,29591:0:0:0:0:
192,192,29682,1,0,0:0:0:0:
64,192,29864,1,0,0:0:0:0:
320,192,30046,1,0,0:0:0:0:
448,192,30046,1,0,0:0:0:0:
448,192,30227,1,0,0:0:0:0:
192,192,30227,1,0,0:0:0:0:
64,192,30409,1,0,0:0:0:0:
192,192,30591,1,0,0:0:0:0:
64,192,30591,128,0,30682:0:0:0:0:
320,192,30773,1,0,0:0:0:0:
448,192,30955,1,0,0:0:0:0:
192,192,31046,1,0,0:0:0:0:
64,192,31136,1,0,0:0:0:0:
448,192,31136,1,0,0:0:0:0:
320,192,31318,1,0,0:0:0:0:
192,192,31500,1,0,0:0:0:0:
64,192,31500,1,0,0:0:0:0:
64,192,31682,1,0,0:0:0:0:
320,192,31682,1,0,0:0:0:0:
192,192,31864,128,0,32046:0:0:0:0:
320,192,32046,1,0,0:0:0:0:
448,192,32046,128,0,32136:0:0:0:0:
192,192,32227,1,0,0:0:0:0:
64,192,32409,1,0,0:0:0:0:
320,192,32591,1,0,0:0:0:0:
448,192,32591,1,0,0:0:0:0:
192,192,32773,1,0,0:0:0:0:
448,192,32773,1,0,0:0:0:0:
64,192,32955,1,0,0:0:0:0:
192,192,33136,1,0,0:0:0:0:
64,192,33136,128,0,33227:0:0:0:0:
320,192,33318,1,0,0:0:0:0:
448,192,33500,1,0,0:0:0:0:
192,192,33591,1,0,0:0:0:0:
64,192,33682,1,0,0:0:0:0:
448,192,33682,1,0,0:0:0:0:
320,192,33864,1,0,0:0:0:0:
192,192,34046,1,0,0:0:0:0:
64,192,34046,1,0,0:0:0:0:
64,192,34227,1,0,0:0:0:0:
320,192,34227,1,0,0:0:0:0:
448,192,34409,128,0,34591:0:0:0:0:
192,192,34591,1,0,0:0:0:0:
64,192,34591,128,0,34682:0:0:0:0:
320,192,34773,1,0,0:0:0:0:
448,192,34955,1,0,0:0:0:0:
192,192,35136,1,0,0:0:0:0:
64,192,35136,1,0,0:0:0:0:
64,192,35318,1,0,0:0:0:0:
320,192,35318,1,0,0:0:0:0:
448,192,35500,1,0,0:0:0:0:
448,192,35682,1,0,0:0:0:0:
320,192,35682,128,0,35773:0:0:0:0:
192,192,35864,1,0,0:0:0:0:
64,192,36046,1,0,0:0:0:0:
320,192,36136,1,0,0:0:0:0:
448,192,36227,1,0,0:0:0:0:
64,192,36227,1,0,0:0:0:0:
192,192,36409,1,0,0:0:0:0:
320,192,36591,1,0,0:0:0:0:
448,192,36591,1,0,0:0:0:0:
192,192,36773,1,0,0:0:0:0:
448,192,36773,1,0,0:0:0:0:
64,192,36955,128,0,37136:0:0:0:0:
448,192,37136,1,0,0:0:0:0:
320,192,37136,128,0,37227:0:0:0:0:
192,192,37318,1,0,0:0:0:0:
64,192,37500,1,0,0:0:0:0:
320,192,37682,1,0,0:0:0:0:
448,192,37682,1,0,0:0:0:0:
192,192,37864,1,0,0:0:0:0:
448,192,37864,1,0,0:0:0:0:
64,192,38046,1,0,0:0:0:0:
320,192,38227,1,0,0:0:0:0:
448,192,38227,128,0,38318:0:0:0:0:
192,192,38409,1,0,0:0:0:0:
64,192,38591,1,0,0:0:0:0:
320,192,38682,1,0,0:0:0:0:
448,192,38773,1,0,0:0:0:0:
64,192,38773,1,0,0:0:0:0:
192,192,38955,1,0,0:0:0:0:
320,192,39136,1,0,0:0:0:0:
448,192,39136,1,0,0:0:0:0:
192,192,39318,1,0,0:0:0:0:
448,192,39318,1,0,0:0:0:0:
320,192,39500,128,0,39682:0:0:0:0:
192,192,39682,1,0,0:0:0:0:
64,192,39682,128,0,39773:0:0:0:0:
320,192,39864,1,0,0:0:0:0:
448,192,40046,1,0,0:0:0:0:
192,192,40227,1,0,0:0:0:0:
64,192,40227,1,0,0:0:0:0:
64,192,40409,1,0,0:0:0:0:
320,192,40409,1,0,0:0:0:0:
192,192,40591,1,0,0:0:0:0:
320,192,40773,1,0,0:0:0:0:
448,192,40773,128,0,40955:0:0:0:0:
192,192,40955,1,0,0:0:0:0:
64,192,41136,1,0,0:0:0:0:
320,192,41227,1,0,0:0:0:0:
448,192,41318,1,0,0:0:0:0:
64,192,41318,1,0,0:0:0:0:
320,192,41500,128,0,41682:0:0:0:0:
192,192,41682,1,0,0:0:0:0:
64,192,41682,1,0,0:0:0:0:
64,192,41864,1,0,0:0:0:0:
320,192,41864,1,0,0:0:0:0:
448,192,42046,128,0,42227:0:0:0:0:
64,192,42227,1,0,0:0:0:0:
192,192,42227,128,0,42409:0:0:0:0:
320,192,42409,1,0,0:0:0:0:
448,192,42591,1,0,0:0:0:0:
192,192,42773,1,0,0:0:0:0:
64,192,42773,1,0,0:0:0:0:
64,192,42955,1,0,0:0:0:0:
320,192,42955,1,0,0:0:0:0:
448,192,43136,1,0,0:0:0:0:
192,192,43318,1,0,0:0:0:0:
64,192,43318,128,0,43500:0:0:0:0:
320,192,43500,1,0,0:0:0:0:
448,192,43682,1,0,0:0:0:0:
192,192,43773,1,0,0:0:0:0:
64,192,43864,1,0,0:0:0:0:
448,192,43864,1,0,0:0:0:0:
320,192,44046,1,0,0:0:0:0:
192,192,44227,1,0,0:0:0:0:
64,192,44227,1,0,0:0:0:0:
64,192,44409,1,0,0:0:0:0:
320,192,44409,1,0,0:0:0:0:
448,192,44591,128,0,44773:0:0:0:0:
192,192,44773,1,0,0:0:0:0:
64,192,44773,128,0,44864:0:0:0:0:
320,192,44955,1,0,0:0:0:0:
448,192,45136,1,0,0:0:0:0:
192,192,45318,1,0,0:0:0:0:
64,192,45318,1,0,0:0:0:0:
64,192,45500,1,0,0:0:0:0:
320,192,45500,1,0,0:0:0:0:
448,192,45682,1,0,0:0:0:0:
320,192,45864,1,0,0:0:0:0:
448,192,45864,128,0,46046:0:0:0:0:
192,192,46046,1,0,0:0:0:0:
64,192,46227,1,0,0:0:0:0:
320,192,46318,1,0,0:0:0:0:
448,192,46409,1,0,0:0:0:0:
64,192,46409,1,0,0:0:0:0:
192,192,46591,1,0,0:0:0:0:
320,192,46773,1,0,0:0:0:0:
448,192,46773,1,0,0:0:0:0:
192,192,46955,1,0,0:0:0:0:
448,192,46955,1,0,0:0:0:0:
320,192,47136,128,0,47318:0:0:0:0:
192,192,47318,1,0,0:0:0:0:
64,192,47318,128,0,47409:0:0:0:0:
320,192,47500,1,0,0:0:0:0:
448,192,47682,1,0,0:0:0:0:
192,192,47864,1,0,0:0:0:0:
64,192,47864,1,0,0:0:0:0:
320,192,48046,1,0,0:0:0:0:
64,192,48046,1,0,0:0:0:0:
448,192,48227,1,0,0:0:0:0:
64,192,48409,1,0,0:0:0:0:
192,192,48409,128,0,48500:0:0:0:0:
448,192,48591,1,0,0:0:0:0:
192,192,48773,1,0,0:0:0:0:
320,192,48864,1,0,0:0:0:0:
448,192,48955,1,0,0:0:0:0:
64,192,48955,1,0,0:0:0:0:
64,192,49136,128,0,49318:0:0:0:0:
320,192,49318,1,0,0:0:0:0:
448,192,49318,1,0,0:0:0:0:
448,192,49500,1,0,0:0:0:0:
192,192,49500,128,0,49682:0:0:0:0:
64,192,49682,128,0,49864:0:0:0:0:
320,192,49864,1,0,0:0:0:0:
448,192,49864,128,0,50046:0:0:0:0:
192,192,50046,1,0,0:0:0:0:
64,192,50227,128,0,50318:0:0:0:0:
320,192,50409,1,0,0:0:0:0:
448,192,50409,1,0,0:0:0:0:
192,192,50591,1,0,0:0:0:0:
448,192,50591,128,0,50773:0:0:0:0:
64,192,50773,1,0,0:0:0:0:
64,192,50955,1,0,0:0:0:0:
192,192,50955,128,0,51136:0:0:0:0:
320,192,51136,1,0,0:0:0:0:
448,192,51318,1,0,0:0:0:0:
192,192,51409,1,0,0:0:0:0:
64,192,51500,1,0,0:0:0:0:
448,192,51500,1,0,0:0:0:0:
320,192,51682,128,0,51773:0:0:0:0:
192,192,51864,1,0,0:0:0:0:
64,192,51864,1,0,0:0:0:0:
320,192,52046,1,0,0:0:0:0:
64,192,52046,128,0,52136:0:0:0:0:
192,192,52227,128,0,52409:0:0:0:0:
320,192,52409,1,0,0:0:0:0:
448,192,52409,128,0,52500:0:0:0:0:
192,192,52591,1,0,0:0:0:0:
64,192,52773,128,0,52955:0:0:0:0:
320,192,52955,1,0,0:0:0:0:
448,192,52955,1,0,0:0:0:0:
448,192,53136,1,0,0:0:0:0:
192,192,53136,128,0,53318:0:0:0:0:
64,192,53318,1,0,0:0:0:0:
320,192,53500,128,0,53591:0:0:0:0:
448,192,53500,128,0,53682:0:0:0:0:
192,192,53682,1,0,0:0:0:0:
64,192,53864,1,0,0:0:0:0:
320,192,53955,1,0,0:0:0:0:
448,192,54046,1,0,0:0:0:0:
64,192,54046,1,0,0:0:0:0:
192,192,54227,1,0,0:0:0:0:
320,192,54409,1,0,0:0:0:0:
448,192,54409,1,0,0:0:0:0:
192,192,54591,128,0,54682:0:0:0:0:
448,192,54591,128,0,54773:0:0:0:0:
64,192,54773,1,0,0:0:0:0:
448,192,54955,128,0,55046:0:0:0:0:
320,192,54955,128,0,55136:0:0:0:0:
192,192,55136,1,0,0:0:0:0:
64,192,55318,128,0,55500:0:0:0:0:
320,192,55500,1,0,0:0:0:0:
448,192,55500,1,0,0:0:0:0:
192,192,55682,1,0,0:0:0:0:
448,192,55682,1,0,0:0:0:0:
64,192,55864,1,0,0:0:0:0:
448,192,56046,128,0,56227:0:0:0:0:
320,192,56046,128,0,56136:0:0:0:0:
192,192,56227,1,0,0:0:0:0:
64,192,56409,1,0,0:0:0:0:
320,192,56500,1,0,0:0:0:0:
448,192,56591,1,0,0:0:0:0:
64,192,56591,1,0,0:0:0:0:
192,192,56773,128,0,56864:0:0:0:0:
320,192,56955,1,0,0:0:0:0:
448,192,56955,1,0,0:0:0:0:
192,192,57136,1,0,0:0:0:0:
448,192,57136,128,0,57227:0:0:0:0:
64,192,57318,128,0,57500:0:0:0:0:
320,192,57500,128,0,57591:0:0:0:0:
448,192,57500,128,0,57682:0:0:0:0:
192,192,57682,1,0,0:0:0:0:
64,192,57864,1,0,0:0:0:0:
320,192,58046,1,0,0:0:0:0:
448,192,58046,1,0,0:0:0:0:
448,192,58227,1,0,0:0:0:0:
192,192,58227,128,0,58318:0:0:0:0:
64,192,58409,1,0,0:0:0:0:
320,192,58591,1,0,0:0:0:0:
448,192,58591,128,0,58773:0:0:0:0:
192,192,58773,1,0,0:0:0:0:
64,192,58955,1,0,0:0:0:0:
320,192,59046,1,0,0:0:0:0:
448,192,59136,1,0,0:0:0:0:
64,192,59136,1,0,0:0:0:0:
320,192,59318,128,0,59500:0:0:0:0:
192,192,59500,1,0,0:0:0:0:
64,192,59500,1,0,0:0:0:0:
320,192,59682,1,0,0:0:0:0:
64,192,59682,128,0,59864:0:0:0:0:
448,192,59864,128,0,60046:0:0:0:0:
64,192,60046,1,0,0:0:0:0:
192,192,60046,128,0,60227:0:0:0:0:
320,192,60227,1,0,0:0:0:0:
448,192,60409,1,0,0:0:0:0:
192,192,60591,1,0,0:0:0:0:
64,192,60591,1,0,0:0:0:0:
64,192,60773,1,0,0:0:0:0:
320,192,60773,1,0,0:0:0:0:
448,192,60955,1,0,0:0:0:0:
192,192,61136,1,0,0:0:0:0:
64,192,61136,128,0,61318:0:0:0:0:
320,192,61318,1,0,0:0:0:0:
448,192,61500,128,0,61591:0:0:0:0:
192,192,61591,1,0,0:0:0:0:
64,192,61682,1,0,0:0:0:0:
448,192,61682,1,0,0:0:0:0:
320,192,61864,1,0,0:0:0:0:
192,192,62046,1,0,0:0:0:0:
64,192,62046,1,0,0:0:0:0:
64,192,62227,1,0,0:0:0:0:
320,192,62227,1,0,0:0:0:0:
448,192,62409,128,0,62591:0:0:0:0:
192,192,62591,1,0,0:0:0:0:
64,192,62591,128,0,62682:0:0:0:0:
320,192,62773,1,0,0:0:0:0:
448,192,62955,1,0,0:0:0:0:
192,192,63136,1,0,0:0:0:0:
64,192,63136,1,0,0:0:0:0:
64,192,63318,1,0,0:0:0:0:
320,192,63318,1,0,0:0:0:0:
448,192,63500,1,0,0:0:0:0:
320,192,63682,1,0,0:0:0:0:
448,192,63682,128,0,63864:0:0:0:0:
192,192,63864,1,0,0:0:0:0:
64,192,64046,1,0,0:0:0:0:
320,192,64136,1,0,0:0:0:0:
448,192,64227,1,0,0:0:0:0:
64,192,64227,1,0,0:0:0:0:
192,192,64409,1,0,0:0:0:0:
320,192,64591,1,0,0:0:0:0:
448,192,64591,1,0,0:0:0:0:
192,192,64773,1,0,0:0:0:0:
448,192,64773,1,0,0:0:0:0:
64,192,64955,128,0,65136:0:0:0:0:
320,192,65136,1,0,0:0:0:0:
448,192,65136,128,0,65227:0:0:0:0:
192,192,65318,1,0,0:0:0:0:
64,192,65500,1,0,0:0:0:0:
320,192,65682,1,0,0:0:0:0:
448,192,65682,1,0,0:0:0:0:
192,192,65864,1,0,0:0:0:0:
448,192,65864,1,0,0:0:0:0:
64,192,66046,1,0,0:0:0:0:
64,192,66227,1,0,0:0:0:0:
192,192,66227,128,0,66318:0:0:0:0:
320,192,66409,1,0,0:0:0:0:
448,192,66591,1,0,0:0:0:0:
192,192,66682,1,0,0:0:0:0:
64,192,66773,1,0,0:0:0:0:
448,192,66773,1,0,0:0:0:0:
192,192,66955,128,0,67136:0:0:0:0:
320,192,67136,1,0,0:0:0:0:
448,192,67136,1,0,0:0:0:0:
192,192,67318,1,0,0:0:0:0:
448,192,67318,128,0,67500:0:0:0:0:
64,192,67500,128,0,67682:0:0:0:0:
448,192,67682,1,0,0:0:0:0:
320,192,67682,128,0,67864:0:0:0:0:
192,192,67864,1,0,0:0:0:0:
64,192,68046,128,0,68227:0:0:0:0:
320,192,68227,1,0,0:0:0:0:
448,192,68227,1,0,0:0:0:0:
192,192,68409,1,0,0:0:0:0:
448,192,68409,128,0,68591:0:0:0:0:
320,192,68591,1,0,0:0:0:0:
64,192,68773,1,0,0:0:0:0:
192,192,68773,128,0,68955:0:0:0:0:
320,192,68955,1,0,0:0:0:0:
448,192,69136,1,0,0:0:0:0:
192,192,69227,1,0,0:0:0:0:
64,192,69318,1,0,0:0:0:0:
448,192,69318,1,0,0:0:0:0:
320,192,69500,128,0,69591:0:0:0:0:
192,192,69682,1,0,0:0:0:0:
64,192,69682,1,0,0:0:0:0:
320,192,69864,1,0,0:0:0:0:
64,192,69864,128,0,69955:0:0:0:0:
192,192,70046,128,0,70227:0:0:0:0:
320,192,70227,1,0,0:0:0:0:
448,192,70227,128,0,70318:0:0:0:0:
192,192,70409,1,0,0:0:0:0:
64,192,70591,128,0,70682:0:0:0:0:
320,192,70773,1,0,0:0:0:0:
448,192,70773,1,0,0:0:0:0:
448,192,70955,1,0,0:0:0:0:
192,192,70955,128,0,71046:0:0:0:0:
64,192,71136,1,0,0:0:0:0:
448,192,71318,128,0,71500:0:0:0:0:
320,192,71318,128,0,71409:0:0:0:0:
192,192,71500,1,0,0:0:0:0:
64,192,71682,1,0,0:0:0:0:
320,192,71773,1,0,0:0:0:0:
448,192,71864,1,0,0:0:0:0:
64,192,71864,1,0,0:0:0:0:
192,192,72046,1,0,0:0:0:0:
320,192,72227,1,0,0:0:0:0:
448,192,72227,1,0,0:0:0:0:
448,192,72409,128,0,72591:0:0:0:0:
192,192,72409,128,0,72500:0:0:0:0:
64,192,72591,128,0,72773:0:0:0:0:
320,192,72773,128,0,72955:0:0:0:0:
448,192,72773,128,0,72864:0:0:0:0:
192,192,72955,1,0,0:0:0:0:
64,192,73136,1,0,0:0:0:0:
320,192,73318,1,0,0:0:0:0:
448,192,73318,1,0,0:0:0:0:
192,192,73500,1,0,0:0:0:0:
448,192,73500,1,0,0:0:0:0:
64,192,73682,1,0,0:0:0:0:
320,192,73864,128,0,73955:0:0:0:0:
448,192,73864,128,0,74046:0:0:0:0:
192,192,74046,1,0,0:0:0:0:
64,192,74227,1,0,0:0:0:0:
320,192,74318,1,0,0:0:0:0:
448,192,74409,1,0,0:0:0:0:
64,192,74409,1,0,0:0:0:0:
192,192,74591,1,0,0:0:0:0:
320,192,74773,1,0,0:0:0:0:
448,192,74773,1,0,0:0:0:0:
448,192,74955,1,0,0:0:0:0:
192,192,74955,128,0,75046:0:0:0:0:
64,192,75136,128,0,75318:0:0:0:0:
320,192,75318,128,0,75409:0:0:0:0:
448,192,75318,128,0,75500:0:0:0:0:
192,192,75500,1,0,0:0:0:0:
64,192,75682,1,0,0:0:0:0:
320,192,75864,1,0,0:0:0:0:
448,192,75864,1,0,0:0:0:0:
192,192,76046,1,0,0:0:0:0:
448,192,76046,128,0,76136:0:0:0:0:
320,192,76227,1,0,0:0:0:0:
192,192,76409,1,0,0:0:0:0:
64,192,76409,128,0,76500:0:0:0:0:
320,192,76591,1,0,0:0:0:0:
448,192,76773,1,0,0:0:0:0:
192,192,76864,1,0,0:0:0:0:
64,192,76955,1,0,0:0:0:0:
448,192,76955,1,0,0:0:0:0:
192,192,77136,128,0,77227:0:0:0:0:
320,192,77318,1,0,0:0:0:0:
448,192,77318,1,0,0:0:0:0:
192,192,77500,1,0,0:0:0:0:
448,192,77500,128,0,77591:0:0:0:0:
320,192,77682,128,0,77864:0:0:0:0:
64,192,77864,1,0,0:0:0:0:
192,192,77864,128,0,77955:0:0:0:0:
320,192,78046,1,0,0:0:0:0:
448,192,78227,1,0,0:0:0:0:
192,192,78409,1,0,0:0:0:0:
64,192,78409,1,0,0:0:0:0:
64,192,78591,1,0,0:0:0:0:
320,192,78591,1,0,0:0:0:0:
448,192,78773,1,0,0:0:0:0:
192,192,78955,1,0,0:0:0:0:
64,192,78955,128,0,79046:0:0:0:0:
320,192,79136,1,0,0:0:0:0:
448,192,79318,1,0,0:0:0:0:
192,192,79409,1,0,0:0:0:0:
64,192,79500,1,0,0:0:0:0:
448,192,79500,1,0,0:0:0:0:
320,192,79682,128,0,79773:0:0:0:0:
192,192,79864,1,0,0:0:0:0:
64,192,79864,1,0,0:0:0:0:
64,192,80046,1,0,0:0:0:0:
320,192,80046,128,0,80136:0:0:0:0:
448,192,80227,128,0,80409:0:0:0:0:
64,192,80409,1,0,0:0:0:0:
192,192,80409,128,0,80500:0:0:0:0:
320,192,80591,1,0,0:0:0:0:
448,192,80773,128,0,80864:0:0:0:0:
192,192,80955,1,0,0:0:0:0:
64,192,80955,1,0,0:0:0:0:
320,192,81136,1,0,0:0:0:0:
64,192,81136,128,0,81227:0:0:0:0:
448,192,81318,1,0,0:0:0:0:
192,192,81500,128,0,81591:0:0:0:0:
64,192,81500,128,0,81591:0:0:0:0:
320,192,81682,1,0,0:0:0:0:
448,192,81864,1,0,0:0:0:0:
192,192,81955,1,0,0:0:0:0:
64,192,82046,1,0,0:0:0:0:
448,192,82046,1,0,0:0:0:0:
320,192,82227,1,0,0:0:0:0:
192,192,82409,1,0,0:0:0:0:
64,192,82409,1,0,0:0:0:0:
64,192,82591,1,0,0:0:0:0:
320,192,82591,1,0,0:0:0:0:
192,192,82773,128,0,82955:0:0:0:0:
448,192,82955,1,0,0:0:0:0:
320,192,82955,128,0,83046:0:0:0:0:
192,192,83136,1,0,0:0:0:0:
64,192,83318,1,0,0:0:0:0:
320,192,83500,1,0,0:0:0:0:
448,192,83500,1,0,0:0:0:0:
192,192,83682,1,0,0:0:0:0:
448,192,83682,128,0,83773:0:0:0:0:
320,192,83864,1,0,0:0:0:0:
64,192,84046,1,0,0:0:0:0:
192,192,84046,128,0,84136:0:0:0:0:
320,192,84227,1,0,0:0:0:0:
448,192,84409,1,0,0:0:0:0:
192,192,84500,1,0,0:0:0:0:
64,192,84591,128,0,84773:0:0:0:0:
448,192,84591,1,0,0:0:0:0:
192,192,84773,128,0,84864:0:0:0:0:
320,192,84955,1,0,0:0:0:0:
448,192,84955,1,0,0:0:0:0:
192,192,85136,1,0,0:0:0:0:
448,192,85136,128,0,85318:0:0:0:0:
64,192,85318,1,0,0:0:0:0:
448,192,85500,1,0,0:0:0:0:
320,192,85500,128,0,85682:0:0:0:0:
192,192,85682,128,0,85864:0:0:0:0:
64,192,85864,128,0,86046:0:0:0:0:
320,192,86046,1,0,0:0:0:0:
448,192,86046,1,0,0:0:0:0:
192,192,86227,1,0,0:0:0:0:
448,192,86227,1,0,0:0:0:0:
320,192,86409,1,0,0:0:0:0:
192,192,86591,1,0,0:0:0:0:
64,192,86591,128,0,86773:0:0:0:0:
320,192,86773,1,0,0:0:0:0:
448,192,86955,1,0,0:0:0:0:
192,192,87046,1,0,0:0:0:0:
64,192,87136,1,0,0:0:0:0:
448,192,87136,1,0,0:0:0:0:
320,192,87318,1,0,0:0:0:0:
64,192,87500,1,0,0:0:0:0:
192,192,87500,1,0,0:0:0:0:
320,192,87682,1,0,0:0:0:0:
64,192,87682,1,0,0:0:0:0:
448,192,87864,128,0,88046:0:0:0:0:
192,192,88046,1,0,0:0:0:0:
64,192,88046,128,0,88136:0:0:0:0:
320,192,88227,1,0,0:0:0:0:
64,192,88409,1,0,0:0:0:0:
448,192,88591,1,0,0:0:0:0:
320,192,88591,128,0,88682:0:0:0:0:
192,192,88773,1,0,0:0:0:0:
448,192,88773,128,0,88864:0:0:0:0:
64,192,88955,1,0,0:0:0:0:
448,192,89136,1,0,0:0:0:0:
320,192,89136,128,0,89318:0:0:0:0:
192,192,89318,1,0,0:0:0:0:
64,192,89500,1,0,0:0:0:0:
320,192,89591,1,0,0:0:0:0:
448,192,89682,1,0,0:0:0:0:
64,192,89682,128,0,89773:0:0:0:0:
320,192,89864,128,0,89955:0:0:0:0:
64,192,90046,1,0,0:0:0:0:
192,192,90046,1,0,0:0:0:0:
64,192,90227,1,0,0:0:0:0:
320,192,90227,128,0,90318:0:0:0:0:
192,192,90409,128,0,90591:0:0:0:0:
320,192,90591,1,0,0:0:0:0:
448,192,90591,128,0,90682:0:0:0:0:
192,192,90773,1,0,0:0:0:0:
64,192,90955,128,0,91136:0:0:0:0:
320,192,91136,1,0,0:0:0:0:
448,192,91136,1,0,0:0:0:0:
192,192,91318,1,0,0:0:0:0:
448,192,91318,128,0,91409:0:0:0:0:
320,192,91500,1,0,0:0:0:0:
192,192,91682,1,0,0:0:0:0:
64,192,91682,128,0,91864:0:0:0:0:
320,192,91864,1,0,0:0:0:0:
448,192,92046,1,0,0:0:0:0:
192,192,92136,1,0,0:0:0:0:
64,192,92227,1,0,0:0:0:0:
448,192,92227,1,0,0:0:0:0:
320,192,92409,1,0,0:0:0:0:
192,192,92591,1,0,0:0:0:0:
64,192,92591,1,0,0:0:0:0:
320,192,92773,1,0,0:0:0:0:
64,192,92773,1,0,0:0:0:0:
448,192,92955,1,0,0:0:0:0:
64,192,93136,1,0,0:0:0:0:
192,192,93136,128,0,93318:0:0:0:0:
320,192,93318,1,0,0:0:0:0:
448,192,93500,128,0,93591:0:0:0:0:
192,192,93682,1,0,0:0:0:0:
64,192,93682,1,0,0:0:0:0:
320,192,93864,1,0,0:0:0:0:
64,192,93864,128,0,93955:0:0:0:0:
192,192,94046,1,0,0:0:0:0:
320,192,94227,1,0,0:0:0:0:
448,192,94227,128,0,94409:0:0:0:0:
192,192,94409,1,0,0:0:0:0:
64,192,94591,1,0,0:0:0:0:
320,192,94682,1,0,0:0:0:0:
448,192,94773,1,0,0:0:0:0:
64,192,94773,1,0,0:0:0:0:
320,192,94955,128,0,95136:0:0:0:0:
192,192,95136,1,0,0:0:0:0:
64,192,95136,1,0,0:0:0:0:
64,192,95318,1,0,0:0:0:0:
320,192,95318,1,0,0:0:0:0:
448,192,95500,1,0,0:0:0:0:
64,192,95682,1,0,0:0:0:0:
192,192,95682,128,0,95864:0:0:0:0:
320,192,95864,1,0,0:0:0:0:
448,192,96046,1,0,0:0:0:0:
192,192,96227,1,0,0:0:0:0:
64,192,96227,1,0,0:0:0:0:
64,192,96409,1,0,0:0:0:0:
320,192,96409,1,0,0:0:0:0:
448,192,96591,1,0,0:0:0:0:
192,192,96773,1,0,0:0:0:0:
64,192,96773,128,0,96955:0:0:0:0:
320,192,96955,1,0,0:0:0:0:
448,192,97136,1,0,0:0:0:0:
192,192,97227,1,0,0:0:0:0:
64,192,97318,1,0,0:0:0:0:
448,192,97318,1,0,0:0:0:0:
320,192,97500,128,0,97591:0:0:0:0:
192,192,97682,1,0,0:0:0:0:
64,192,97682,1,0,0:0:0:0:
320,192,97864,1,0,0:0:0:0:
64,192,97864,128,0,97955:0:0:0:0:
192,192,98046,128,0,98227:0:0:0:0:
448,192,98227,1,0,0:0:0:0:
320,192,98227,128,0,98318:0:0:0:0:
192,192,98409,1,0,0:0:0:0:
448,192,98591,128,0,98682:0:0:0:0:
192,192,98773,1,0,0:0:0:0:
64,192,98773,1,0,0:0:0:0:
320,192,98955,1,0,0:0:0:0:
64,192,98955,128,0,99046:0:0:0:0:
448,192,99136,1,0,0:0:0:0:
64,192,99318,1,0,0:0:0:0:
192,192,99318,128,0,99500:0:0:0:0:
320,192,99500,1,0,0:0:0:0:
448,192,99682,1,0,0:0:0:0:
192,192,99773,1,0,0:0:0:0:
64,192,99864,1,0,0:0:0:0:
448,192,99864,1,0,0:0:0:0:
320,192,100046,1,0,0:0:0:0:
192,192,100227,1,0,0:0:0:0:
64,192,100227,1,0,0:0:0:0:
320,192,100409,1,0,0:0:0:0:
64,192,100409,1,0,0:0:0:0:
192,192,100591,128,0,100773:0:0:0:0:
448,192,100773,1,0,0:0:0:0:
320,192,100773,128,0,100864:0:0:0:0:
192,192,100955,1,0,0:0:0:0:
64,192,101136,1,0,0:0:0:0:
320,192,101318,1,0,0:0:0:0:
448,192,101318,1,0,0:0:0:0:
448,192,101500,1,0,0:0:0:0:
192,192,101500,1,0,0:0:0:0:
64,192,101682,1,0,0:0:0:0:
320,192,101864,1,0,0:0:0:0:
448,192,101864,128,0,101955:0:0:0:0:
192,192,102046,1,0,0:0:0:0:
64,192,102227,1,0,0:0:0:0:
320,192,102318,1,0,0:0:0:0:
448,192,102409,128,0,102500:0:0:0:0:
64,192,102409,1,0,0:0:0:0:
320,192,102591,128,0,102682:0:0:0:0:
64,192,102773,1,0,0:0:0:0:
192,192,102773,1,0,0:0:0:0:
320,192,102955,1,0,0:0:0:0:
64,192,102955,128,0,103046:0:0:0:0:
448,192,103136,128,0,103318:0:0:0:0:
64,192,103318,1,0,0:0:0:0:
192,192,103318,128,0,103500:0:0:0:0:
320,192,103500,1,0,0:0:0:0:
448,192,103682,128,0,103864:0:0:0:0:
192,192,103864,1,0,0:0:0:0:
64,192,103864,1,0,0:0:0:0:
64,192,104046,1,0,0:0:0:0:
320,192,104046,1,0,0:0:0:0:
448,192,104227,1,0,0:0:0:0:
192,192,104409,1,0,0:0:0:0:
64,192,104409,128,0,104591:0:0:0:0:
320,192,104591,1,0,0:0:0:0:
448,192,104773,1,0,0:0:0:0:
192,192,104864,1,0,0:0:0:0:
64,192,104955,1,0,0:0:0:0:
448,192,104955,1,0,0:0:0:0:
320,192,105136,1,0,0:0:0:0:
192,192,105318,1,0,0:0:0:0:
64,192,105318,1,0,0:0:0:0:
64,192,105500,1,0,0:0:0:0:
320,192,105500,128,0,105591:0:0:0:0:
448,192,105682,128,0,105864:0:0:0:0:
192,192,105864,1,0,0:0:0:0:
64,192,105864,128,0,106046:0:0:0:0:
320,192,106046,1,0,0:0:0:0:
448,192,106227,1,0,0:0:0:0:
192,192,106409,1,0,0:0:0:0:
64,192,106409,1,0,0:0:0:0:
64,192,106591,1,0,0:0:0:0:
320,192,106591,1,0,0:0:0:0:
448,192,106773,1,0,0:0:0:0:
192,192,106955,128,0,107136:0:0:0:0:
64,192,106955,1,0,0:0:0:0:
320,192,107136,1,0,0:0:0:0:
448,192,107318,1,0,0:0:0:0:
192,192,107409,1,0,0:0:0:0:
64,192,107500,1,0,0:0:0:0:
448,192,107500,1,0,0:0:0:0:
320,192,107682,1,0,0:0:0:0:
64,192,107864,1,0,0:0:0:0:
192,192,107864,128,0,107955:0:0:0:0:
320,192,108046,128,0,108136:0:0:0:0:
64,192,108046,1,0,0:0:0:0:
192,192,108227,128,0,108409:0:0:0:0:
320,192,108409,128,0,108591:0:0:0:0:
448,192,108409,1,0,0:0:0:0:
192,192,108591,1,0,0:0:0:0:
64,192,108773,1,0,0:0:0:0:
320,192,108955,1,0,0:0:0:0:
448,192,108955,1,0,0:0:0:0:
448,192,109136,1,0,0:0:0:0:
192,192,109136,1,0,0:0:0:0:
64,192,109318,1,0,0:0:0:0:
448,192,109500,128,0,109682:0:0:0:0:
320,192,109500,1,0,0:0:0:0:
192,192,109682,1,0,0:0:0:0:
64,192,109864,1,0,0:0:0:0:
320,192,109955,1,0,0:0:0:0:
448,192,110046,1,0,0:0:0:0:
64,192,110046,1,0,0:0:0:0:
192,192,110227,128,0,110318:0:0:0:0:
320,192,110409,1,0,0:0:0:0:
448,192,110409,1,0,0:0:0:0:
192,192,110591,1,0,0:0:0:0:
448,192,110591,1,0,0:0:0:0:
64,192,110773,128,0,110955:0:0:0:0:
448,192,110955,128,0,111136:0:0:0:0:
320,192,110955,1,0,0:0:0:0:
192,192,111136,1,0,0:0:0:0:
64,192,111318,1,0,0:0:0:0:
320,192,111500,1,0,0:0:0:0:
448,192,111500,1,0,0:0:0:0:
192,192,111682,1,0,0:0:0:0:
448,192,111682,128,0,111864:0:0:0:0:
320,192,111864,1,0,0:0:0:0:
192,192,112046,1,0,0:0:0:0:
64,192,112046,128,0,112227:0:0:0:0:
320,192,112227,1,0,0:0:0:0:
448,192,112409,1,0,0:0:0:0:
192,192,112500,1,0,0:0:0:0:
64,192,112591,1,0,0:0:0:0:
448,192,112591,1,0,0:0:0:0:
320,192,112773,1,0,0:0:0:0:
192,192,112955,1,0,0:0:0:0:
64,192,112955,1,0,0:0:0:0:
64,192,113136,1,0,0:0:0:0:
320,192,113136,1,0,0:0:0:0:
448,192,113318,128,0,113500:0:0:0:0:
192,192,113500,128,0,113682:0:0:0:0:
64,192,113500,1,0,0:0:0:0:
320,192,113682,1,0,0:0:0:0:
448,192,113864,1,0,0:0:0:0:
192,192,114046,1,0,0:0:0:0:
64,192,114046,1,0,0:0:0:0:
320,192,114227,1,0,0:0:0:0:
64,192,114227,128,0,114318:0:0:0:0:
192,192,114409,1,0,0:0:0:0:
448,192,114591,128,0,114773:0:0:0:0:
320,192,114591,1,0,0:0:0:0:
192,192,114773,1,0,0:0:0:0:
64,192,114955,1,0,0:0:0:0:
448,192,115046,1,0,0:0:0:0:
64,192,115136,1,0,0:0:0:0:
320,192,115136,1,0,0:0:0:0:
320,192,115318,128,0,115500:0:0:0:0:
448,192,115318,1,0,0:0:0:0:
192,192,115500,1,0,0:0:0:0:
64,192,115682,1,0,0:0:0:0:
320,192,115773,1,0,0:0:0:0:
448,192,115864,1,0,0:0:0:0:
64,192,115864,1,0,0:0:0:0:
192,192,116046,1,0,0:0:0:0:
320,192,116227,1,0,0:0:0:0:
448,192,116227,1,0,0:0:0:0:
448,192,116409,128,0,116591:0:0:0:0:
192,192,116409,1,0,0:0:0:0:
64,192,116591,128,0,116773:0:0:0:0:
320,192,116773,1,0,0:0:0:0:
448,192,116773,1,0,0:0:0:0:
192,192,116955,1,0,0:0:0:0:
64,192,117136,128,0,117318:0:0:0:0:
320,192,117318,1,0,0:0:0:0:
448,192,117318,1,0,0:0:0:0:
192,192,117500,1,0,0:0:0:0:
448,192,117500,1,0,0:0:0:0:
64,192,117682,1,0,0:0:0:0:
320,192,117864,128,0,118046:0:0:0:0:
448,192,117864,1,0,0:0:0:0:
192,192,118046,1,0,0:0:0:0:
64,192,118227,128,0,118318:0:0:0:0:
320,192,118318,1,0,0:0:0:0:
448,192,118409,1,0,0:0:0:0:
64,192,118409,1,0,0:0:0:0:
320,192,118591,128,0,118682:0:0:0:0:
192,192,118773,1,0,0:0:0:0:
64,192,118773,1,0,0:0:0:0:
64,192,118955,1,0,0:0:0:0:
320,192,118955,128,0,119136:0:0:0:0:
64,192,119227,1,0,0:0:0:0:
320,192,119318,1,0,0:0:0:0:
192,192,119500,1,0,0:0:0:0:
448,192,119500,128,0,119682:0:0:0:0:
64,192,119682,128,0,119864:0:0:0:0:
192,192,119682,1,0,0:0:0:0:
320,192,119864,1,0,0:0:0:0:
448,192,120046,1,0,0:0:0:0:
192,192,120136,1,0,0:0:0:0:
64,192,120227,1,0,0:0:0:0:
448,192,120227,1,0,0:0:0:0:
448,192,120409,128,0,120591:0:0:0:0:
64,192,120591,1,0,0:0:0:0:
192,192,120591,128,0,120773:0:0:0:0:
64,192,120773,1,0,0:0:0:0:
320,192,120773,128,0,120955:0:0:0:0:
448,192,120955,128,0,121136:0:0:0:0:
192,192,121136,1,0,0:0:0:0:
64,192,121136,1,0,0:0:0:0:
320,192,121318,1,0,0:0:0:0:
448,192,121500,1,0,0:0:0:0:
192,192,121682,1,0,0:0:0:0:
64,192,121682,1,0,0:0:0:0:
64,192,121864,1,0,0:0:0:0:
320,192,121864,1,0,0:0:0:0:
192,192,122046,1,0,0:0:0:0:
448,192,122227,128,0,122409:0:0:0:0:
320,192,122227,1,0,0:0:0:0:
192,192,122409,1,0,0:0:0:0:
64,192,122591,1,0,0:0:0:0:
320,192,122682,1,0,0:0:0:0:
448,192,122773,1,0,0:0:0:0:
64,192,122773,1,0,0:0:0:0:
192,192,122955,1,0,0:0:0:0:
320,192,123136,1,0,0:0:0:0:
448,192,123136,1,0,0:0:0:0:
448,192,123318,1,0,0:0:0:0:
192,192,123318,128,0,123500:0:0:0:0:
64,192,123500,1,0,0:0:0:0:
320,192,123682,128,0,123864:0:0:0:0:
448,192,123682,1,0,0:0:0:0:
192,192,123864,1,0,0:0:0:0:
64,192,124046,1,0,0:0:0:0:
320,192,124227,1,0,0:0:0:0:
448,192,124227,1,0,0:0:0:0:
192,192,124409,1,0,0:0:0:0:
448,192,124409,1,0,0:0:0:0:
320,192,124591,1,0,0:0:0:0:
192,192,124773,128,0,124955:0:0:0:0:
64,192,124773,1,0,0:0:0:0:
320,192,124955,1,0,0:0:0:0:
448,192,125136,1,0,0:0:0:0:
192,192,125227,1,0,0:0:0:0:
64,192,125318,1,0,0:0:0:0:
448,192,125318,1,0,0:0:0:0:
320,192,125500,1,0,0:0:0:0:
192,192,125682,1,0,0:0:0:0:
64,192,125682,1,0,0:0:0:0:
64,192,125864,1,0,0:0:0:0:
320,192,125864,1,0,0:0:0:0:
448,192,126046,128,0,126227:0:0:0:0:
192,192,126227,1,0,0:0:0:0:
64,192,126227,128,0,126409:0:0:0:0:
320,192,126409,1,0,0:0:0:0:
448,192,126591,1,0,0:0:0:0:
64,192,126773,1,0,0:0:0:0:
192,192,126773,1,0,0:0:0:0:
64,192,126955,1,0,0:0:0:0:
320,192,126955,128,0,127046:0:0:0:0:
192,192,127136,1,0,0:0:0:0:
448,192,127318,128,0,127500:0:0:0:0:
320,192,127318,1,0,0:0:0:0:
192,192,127500,1,0,0:0:0:0:
64,192,127682,1,0,0:0:0:0:
320,192,127773,1,0,0:0:0:0:
448,192,127864,1,0,0:0:0:0:
64,192,127864,1,0,0:0:0:0:
192,192,128046,1,0,0:0:0:0:
320,192,128227,1,0,0:0:0:0:
448,192,128227,1,0,0:0:0:0:
192,192,128409,1,0,0:0:0:0:
448,192,128409,1,0,0:0:0:0:
64,192,128591,1,0,0:0:0:0:
320,192,128773,1,0,0:0:0:0:
448,192,128773,1,0,0:0:0:0:
192,192,128955,1,0,0:0:0:0:
64,192,129136,1,0,0:0:0:0:
320,192,129318,1,0,0:0:0:0:
448,192,129318,1,0,0:0:0:0:
192,192,129500,1,0,0:0:0:0:
448,192,129500,1,0,0:0:0:0:
64,192,129682,1,0,0:0:0:0:
320,192,129841,128,0,129977:0:0:0:0:
448,192,129886,128,0,129977:0:0:0:0:
