osu file format v14

[General]
AudioFilename: audio.mp3
AudioLeadIn: 0
PreviewTime: 124796
Countdown: 0
SampleSet: Normal
StackLeniency: 0.7
Mode: 1
LetterboxInBreaks: 0
WidescreenStoryboard: 0

[Editor]
Bookmarks: 115192
DistanceSpacing: 0.8
BeatDivisor: 4
GridSize: 32
TimelineZoom: 1.7

[Metadata]
Title:Six Acid Strings
TitleUnicode:Six Acid Strings
Artist:The Flashbulb
ArtistUnicode:The Flashbulb
Creator:Nardoxyribonucleic
Version:Volta's Oni
Source:osu!
Tags:Taiko Featured Artist FA Breakcore Benn Jordan Flexing Habitual Volta Greenshell
BeatmapID:2078180
BeatmapSetID:966451

[Difficulty]
HPDrainRate:5.5
CircleSize:5
OverallDifficulty:6
ApproachRate:6
SliderMultiplier:1.4
SliderTickRate:1

[Events]
//Background and Video events
0,0,"bg.jpg",0,0
//Break Periods
2,133996,138146
//Storyboard Layer 0 (Background)
//Storyboard Layer 1 (Fail)
//Storyboard Layer 2 (Pass)
//Storyboard Layer 3 (Foreground)
//Storyboard Sound Samples

[TimingPoints]
1196,300,4,1,0,55,1,0
14396,-100,4,1,0,70,0,0
15596,-100,4,1,0,85,0,0
23996,-100,4,1,0,100,0,1
43196,-100,4,1,0,80,0,0
43946,-119.047619047619,4,1,0,80,0,0
44546,-116.279069767442,4,1,0,80,0,0
44696,-113.636363636364,4,1,0,80,0,0
44846,-111.111111111111,4,1,0,80,0,0
44996,-108.695652173913,4,1,0,80,0,0
45146,-106.382978723404,4,1,0,80,0,0
45296,-104.166666666667,4,1,0,80,0,0
45446,-102.040816326531,4,1,0,80,0,0
45596,-100,4,1,0,80,0,0
52796,-100,4,1,0,60,0,0
53996,-142.857142857143,4,1,0,60,0,0
62396,-125,4,1,0,80,0,0
67196,-111.111111111111,4,1,0,80,0,0
71546,-106.382978723404,4,1,0,80,0,0
71846,-102.040816326531,4,1,0,80,0,0
71996,-100,4,1,0,90,0,1
86396,-100,4,1,0,90,0,0
87596,-100,4,1,0,90,0,1
95996,-105.263157894737,4,1,0,80,0,0
105296,-106.382978723404,4,1,0,80,0,0
105446,-108.695652173913,4,1,0,80,0,0
105596,-111.111111111111,4,1,0,75,0,0
124496,-112.359550561798,4,1,0,75,0,0
124646,-114.942528735632,4,1,0,75,0,0
124796,-117.647058823529,4,1,0,70,0,0
134396,-125,4,1,0,55,0,0
139196,-117.647058823529,4,1,0,65,0,0
143996,-105.263157894737,4,1,0,85,0,0
148496,-104.166666666667,4,1,0,85,0,0
148571,-103.092783505155,4,1,0,85,0,0
148646,-102.040816326531,4,1,0,85,0,0
148721,-101.010101010101,4,1,0,85,0,0
148796,-100,4,1,0,85,0,0
154796,-100,4,1,0,100,0,1
163196,-100,4,1,0,80,0,0
164396,-100,4,1,0,100,0,1
182396,-100,4,1,0,100,0,0

[HitObjects]
130,162,2396,5,0,0:0:0:0:
192,126,2546,1,8,0:0:0:0:
219,73,2846,1,8,0:0:0:0:
192,126,2996,1,8,0:0:0:0:
192,126,3071,1,0,0:0:0:0:
110,128,3221,1,0,0:0:0:0:
132,119,3296,1,0,0:0:0:0:
74,131,3446,1,0,0:0:0:0:
246,68,3521,1,8,0:0:0:0:
74,131,3596,1,0,0:0:0:0:
137,120,3746,1,0,0:0:0:0:
137,120,3896,1,8,0:0:0:0:
99,82,4046,1,0,0:0:0:0:
145,87,4196,1,0,0:0:0:0:
210,98,4271,1,0,0:0:0:0:
210,98,4346,1,8,0:0:0:0:
210,98,4421,1,0,0:0:0:0:
145,87,4496,1,8,0:0:0:0:
184,117,4646,1,0,0:0:0:0:
184,117,4796,1,8,0:0:0:0:
204,102,4946,1,8,0:0:0:0:
217,106,5246,1,0,0:0:0:0:
202,148,5396,1,8,0:0:0:0:
202,148,5471,1,0,0:0:0:0:
202,148,5546,1,8,0:0:0:0:
283,97,5696,1,0,0:0:0:0:
285,77,5846,1,8,0:0:0:0:
285,77,5921,1,8,0:0:0:0:
285,77,5996,1,0,0:0:0:0:
285,77,6146,1,0,0:0:0:0:
285,77,6296,1,8,0:0:0:0:
285,77,6371,1,8,0:0:0:0:
285,77,6446,1,0,0:0:0:0:
285,77,6521,1,8,0:0:0:0:
285,77,6596,1,0,0:0:0:0:
255,68,6746,1,0,0:0:0:0:
285,133,6896,1,8,0:0:0:0:
338,66,7121,1,8,0:0:0:0:
285,133,7196,1,0,0:0:0:0:
341,186,7346,1,0,0:0:0:0:
225,82,7496,1,8,0:0:0:0:
225,82,7646,1,0,0:0:0:0:
254,70,7796,1,0,0:0:0:0:
229,95,7871,1,8,0:0:0:0:
254,70,7946,1,0,0:0:0:0:
254,70,8096,1,0,0:0:0:0:
254,70,8246,1,8,0:0:0:0:
337,149,8546,1,0,0:0:0:0:
337,149,8696,1,8,0:0:0:0:
206,59,8846,1,8,0:0:0:0:
286,115,8996,1,0,0:0:0:0:
286,115,9071,1,0,0:0:0:0:
130,153,9221,1,0,0:0:0:0:
130,153,9296,1,8,0:0:0:0:
202,33,9371,1,8,0:0:0:0:
246,66,9446,1,0,0:0:0:0:
246,66,9596,1,8,0:0:0:0:
241,43,9746,1,0,0:0:0:0:
241,43,9896,1,0,0:0:0:0:
321,103,10046,1,8,0:0:0:0:
262,154,10196,1,0,0:0:0:0:
358,62,10271,1,0,0:0:0:0:
268,95,10346,1,8,0:0:0:0:
268,95,10421,1,0,0:0:0:0:
268,95,10496,1,8,0:0:0:0:
290,100,10646,1,0,0:0:0:0:
290,100,10796,1,8,0:0:0:0:
290,100,10946,1,8,0:0:0:0:
224,107,11246,1,8,0:0:0:0:
224,107,11396,1,0,0:0:0:0:
224,107,11546,1,8,0:0:0:0:
224,107,11621,1,0,0:0:0:0:
252,127,11771,1,0,0:0:0:0:
244,96,11846,1,8,0:0:0:0:
285,107,11921,1,8,0:0:0:0:
244,95,11996,1,0,0:0:0:0:
248,132,12146,1,0,0:0:0:0:
311,146,12296,1,8,0:0:0:0:
145,152,12446,1,0,0:0:0:0:
296,147,12596,1,8,0:0:0:0:
303,99,12746,1,8,0:0:0:0:
303,99,12821,1,8,0:0:0:0:
303,99,12896,1,0,0:0:0:0:
303,99,12971,1,0,0:0:0:0:
303,99,13046,1,8,0:0:0:0:
303,99,13196,1,0,0:0:0:0:
261,134,13346,1,0,0:0:0:0:
261,134,13496,1,8,0:0:0:0:
308,113,13721,1,8,0:0:0:0:
308,113,13796,1,0,0:0:0:0:
261,122,13946,1,0,0:0:0:0:
309,112,14096,1,8,0:0:0:0:
324,101,14171,1,0,0:0:0:0:
324,101,14246,1,8,0:0:0:0:
261,122,14396,1,0,0:0:0:0:
186,137,14546,1,8,0:0:0:0:
294,155,14846,1,0,0:0:0:0:
250,111,14996,1,0,0:0:0:0:
251,111,15071,1,8,0:0:0:0:
279,63,15221,1,8,0:0:0:0:
196,122,15296,1,0,0:0:0:0:
227,69,15371,1,0,0:0:0:0:
227,69,15446,1,8,0:0:0:0:
163,137,15596,1,0,0:0:0:0:
217,118,15746,1,0,0:0:0:0:
285,78,15896,1,8,0:0:0:0:
102,140,16046,1,0,0:0:0:0:
102,140,16121,1,8,0:0:0:0:
238,82,16196,1,0,0:0:0:0:
238,82,16271,1,0,0:0:0:0:
221,97,16346,1,8,0:0:0:0:
281,58,16496,1,8,0:0:0:0:
263,77,16646,1,0,0:0:0:0:
191,85,16721,1,8,0:0:0:0:
263,77,16796,1,0,0:0:0:0:
263,77,16946,1,0,0:0:0:0:
281,58,17096,1,8,0:0:0:0:
281,58,17246,1,0,0:0:0:0:
281,58,17396,1,0,0:0:0:0:
311,49,17471,1,0,0:0:0:0:
311,49,17546,1,0,0:0:0:0:
326,28,17696,1,8,0:0:0:0:
301,36,17846,1,8,0:0:0:0:
301,36,17921,1,8,0:0:0:0:
281,58,17996,1,0,0:0:0:0:
323,28,18296,1,8,0:0:0:0:
228,108,18446,1,0,0:0:0:0:
258,76,18596,1,8,0:0:0:0:
258,76,18671,1,0,0:0:0:0:
258,76,18746,1,8,0:0:0:0:
354,159,18896,1,0,0:0:0:0:
356,142,18971,1,0,0:0:0:0:
356,142,19046,1,8,0:0:0:0:
273,135,19121,1,8,0:0:0:0:
273,135,19196,1,0,0:0:0:0:
273,135,19346,1,0,0:0:0:0:
273,135,19496,1,8,0:0:0:0:
301,66,19571,1,8,0:0:0:0:
301,66,19646,1,0,0:0:0:0:
263,53,19796,1,0,0:0:0:0:
263,53,19871,1,8,0:0:0:0:
242,55,19946,1,0,0:0:0:0:
242,55,20021,1,0,0:0:0:0:
242,55,20096,1,8,0:0:0:0:
337,68,20246,1,8,0:0:0:0:
337,68,20396,1,0,0:0:0:0:
345,112,20621,1,0,0:0:0:0:
389,64,20696,1,8,0:0:0:0:
377,80,20846,1,0,0:0:0:0:
187,80,20996,1,0,0:0:0:0:
187,80,21071,1,8,0:0:0:0:
368,69,21146,1,0,0:0:0:0:
368,69,21296,1,8,0:0:0:0:
266,122,21446,1,0,0:0:0:0:
219,93,21521,1,0,0:0:0:0:
266,99,21596,1,8,0:0:0:0:
264,99,21746,1,0,0:0:0:0:
237,84,22046,1,0,0:0:0:0:
241,65,22196,1,8,0:0:0:0:
237,84,22346,1,0,0:0:0:0:
270,67,22421,1,0,0:0:0:0:
270,67,22496,1,8,0:0:0:0:
270,67,22571,1,0,0:0:0:0:
137,108,22646,1,8,0:0:0:0:
285,66,22796,1,0,0:0:0:0:
273,77,22946,1,0,0:0:0:0:
308,62,23096,1,8,0:0:0:0:
261,53,23246,1,0,0:0:0:0:
261,53,23321,1,8,0:0:0:0:
168,130,23396,1,0,0:0:0:0:
168,130,23546,1,0,0:0:0:0:
314,70,23696,1,8,0:0:0:0:
300,57,23771,1,8,0:0:0:0:
300,57,23846,1,8,0:0:0:0:
306,69,23996,1,0,0:0:0:0:
343,95,24296,1,8,0:0:0:0:
341,88,24746,1,0,0:0:0:0:
343,67,25046,1,8,0:0:0:0:
343,67,25196,1,0,0:0:0:0:
343,67,25346,1,0,0:0:0:0:
343,67,25496,1,8,0:0:0:0:
289,66,25646,1,0,0:0:0:0:
289,66,25721,1,8,0:0:0:0:
223,149,25796,1,0,0:0:0:0:
223,149,25946,1,8,0:0:0:0:
223,149,26021,1,8,0:0:0:0:
255,143,26096,1,8,0:0:0:0:
237,97,26246,1,0,0:0:0:0:
237,97,26396,1,0,0:0:0:0:
366,131,26546,1,0,0:0:0:0:
264,157,26621,1,0,0:0:0:0:
237,97,26696,1,8,0:0:0:0:
182,129,26846,1,0,0:0:0:0:
241,118,27146,1,0,0:0:0:0:
241,118,27296,1,8,0:0:0:0:
277,131,27596,1,0,0:0:0:0:
277,131,27746,1,0,0:0:0:0:
252,109,27896,1,8,0:0:0:0:
285,124,28046,1,8,0:0:0:0:
285,124,28196,1,0,0:0:0:0:
285,124,28271,1,0,0:0:0:0:
309,98,28346,1,8,0:0:0:0:
309,98,28421,1,0,0:0:0:0:
309,98,28496,1,8,0:0:0:0:
238,82,28646,1,0,0:0:0:0:
238,82,28721,1,0,0:0:0:0:
205,128,28796,1,0,0:0:0:0:
217,137,28946,1,0,0:0:0:0:
217,137,29096,1,8,0:0:0:0:
257,90,29246,1,0,0:0:0:0:
272,91,29546,1,0,0:0:0:0:
272,91,29696,1,8,0:0:0:0:
280,84,29846,1,0,0:0:0:0:
280,84,29996,1,0,0:0:0:0:
261,57,30071,5,0,0:0:0:0:
280,84,30146,1,0,0:0:0:0:
280,84,30296,1,8,0:0:0:0:
280,84,30596,1,0,0:0:0:0:
280,84,30896,1,8,0:0:0:0:
292,75,31046,1,0,0:0:0:0:
292,75,31196,1,0,0:0:0:0:
299,72,31496,1,8,0:0:0:0:
313,81,31646,1,8,0:0:0:0:
313,81,31721,1,8,0:0:0:0:
313,81,31796,1,0,0:0:0:0:
332,81,31946,1,0,0:0:0:0:
330,83,32096,1,12,0:0:0:0:
337,102,32396,1,0,0:0:0:0:
330,115,32546,1,0,0:0:0:0:
330,115,32696,1,8,0:0:0:0:
330,115,32771,1,8,0:0:0:0:
341,100,32846,1,0,0:0:0:0:
349,93,32996,1,0,0:0:0:0:
349,93,33146,1,8,0:0:0:0:
89,158,33221,1,8,0:0:0:0:
349,93,33296,1,8,0:0:0:0:
349,93,33596,1,0,0:0:0:0:
161,151,33746,1,0,0:0:0:0:
348,78,33896,1,8,0:0:0:0:
291,87,34046,1,8,0:0:0:0:
256,78,34121,1,0,0:0:0:0:
256,78,34271,1,8,0:0:0:0:
291,87,34346,1,0,0:0:0:0:
290,73,34421,1,0,0:0:0:0:
291,87,34496,1,8,0:0:0:0:
239,118,34646,1,8,0:0:0:0:
239,118,34796,1,0,0:0:0:0:
258,109,34946,1,0,0:0:0:0:
258,109,35096,1,8,0:0:0:0:
258,109,35246,1,0,0:0:0:0:
280,99,35321,1,8,0:0:0:0:
326,92,35396,1,0,0:0:0:0:
295,94,35546,1,0,0:0:0:0:
254,162,35621,1,0,0:0:0:0:
295,94,35696,1,8,0:0:0:0:
295,94,35846,1,0,0:0:0:0:
295,94,35996,1,0,0:0:0:0:
214,115,36296,1,8,0:0:0:0:
286,85,36446,1,0,0:0:0:0:
286,84,36746,1,8,0:0:0:0:
303,53,36896,1,0,0:0:0:0:
336,76,37046,1,8,0:0:0:0:
336,76,37121,1,8,0:0:0:0:
297,68,37196,1,0,0:0:0:0:
297,67,37346,1,0,0:0:0:0:
297,66,37496,1,8,0:0:0:0:
255,42,37646,1,0,0:0:0:0:
255,42,37721,1,8,0:0:0:0:
367,58,37871,1,0,0:0:0:0:
290,58,37946,1,0,0:0:0:0:
290,58,38096,1,8,0:0:0:0:
285,33,38246,1,0,0:0:0:0:
285,33,38321,1,0,0:0:0:0:
285,33,38396,1,0,0:0:0:0:
287,67,38546,1,0,0:0:0:0:
286,67,38696,1,8,0:0:0:0:
301,58,38846,1,0,0:0:0:0:
286,108,38921,1,8,0:0:0:0:
301,60,38996,1,0,0:0:0:0:
407,206,39146,1,0,0:0:0:0:
328,46,39296,1,8,0:0:0:0:
308,75,39596,1,0,0:0:0:0:
308,75,39746,1,0,0:0:0:0:
224,62,39821,1,0,0:0:0:0:
308,75,39896,1,8,0:0:0:0:
324,33,40046,1,0,0:0:0:0:
321,34,40196,1,0,0:0:0:0:
294,45,40271,1,8,0:0:0:0:
294,45,40346,1,0,0:0:0:0:
236,117,40421,1,0,0:0:0:0:
294,45,40496,1,8,0:0:0:0:
223,110,40646,1,8,0:0:0:0:
223,110,40796,1,0,0:0:0:0:
272,71,41096,1,8,0:0:0:0:
272,71,41246,1,0,0:0:0:0:
272,71,41321,1,0,0:0:0:0:
274,59,41471,1,8,0:0:0:0:
263,64,41546,1,0,0:0:0:0:
278,16,41696,1,8,0:0:0:0:
219,70,41846,1,8,0:0:0:0:
307,57,41921,1,8,0:0:0:0:
325,47,41996,1,0,0:0:0:0:
325,47,42146,1,0,0:0:0:0:
363,71,42296,1,8,0:0:0:0:
370,60,42446,1,8,0:0:0:0:
372,60,42521,1,0,0:0:0:0:
368,61,42596,1,0,0:0:0:0:
372,60,42671,1,8,0:0:0:0:
311,20,42746,1,0,0:0:0:0:
292,146,42896,1,12,0:0:0:0:
292,146,43196,1,0,0:0:0:0:
304,84,43946,1,0,0:0:0:0:
304,84,44396,1,0,0:0:0:0:
215,126,44546,1,0,0:0:0:0:
287,91,44696,1,8,0:0:0:0:
154,133,44846,1,0,0:0:0:0:
154,133,44996,1,8,0:0:0:0:
266,118,45146,1,8,0:0:0:0:
267,74,45296,1,0,0:0:0:0:
185,134,45446,1,8,0:0:0:0:
265,111,45596,1,0,0:0:0:0:
280,90,45896,1,8,0:0:0:0:
312,46,46046,5,0,0:0:0:0:
312,65,46346,1,0,0:0:0:0:
312,65,46496,1,8,0:0:0:0:
286,98,46646,1,8,0:0:0:0:
286,98,46796,1,0,0:0:0:0:
286,69,46946,1,0,0:0:0:0:
210,61,47021,1,0,0:0:0:0:
306,124,47096,1,8,0:0:0:0:
209,77,47246,1,0,0:0:0:0:
290,102,47396,1,0,0:0:0:0:
233,95,47471,1,0,0:0:0:0:
233,95,47621,1,0,0:0:0:0:
290,102,47696,1,8,0:0:0:0:
216,104,47846,5,8,0:0:0:0:
216,104,47921,1,8,0:0:0:0:
338,54,47996,1,0,0:0:0:0:
290,121,48146,1,0,0:0:0:0:
338,54,48296,1,8,0:0:0:0:
338,54,48746,1,0,0:0:0:0:
338,54,48896,1,8,0:0:0:0:
297,104,49196,1,0,0:0:0:0:
297,104,49346,1,0,0:0:0:0:
297,104,49496,1,8,0:0:0:0:
235,55,49646,1,0,0:0:0:0:
302,80,49796,1,0,0:0:0:0:
235,55,49871,1,0,0:0:0:0:
235,55,50021,1,0,0:0:0:0:
302,80,50096,1,8,0:0:0:0:
280,44,50246,1,8,0:0:0:0:
280,44,50321,1,8,0:0:0:0:
264,91,50396,1,0,0:0:0:0:
264,91,50546,1,0,0:0:0:0:
264,91,50696,1,8,0:0:0:0:
285,48,50846,1,8,0:0:0:0:
300,41,50996,1,0,0:0:0:0:
300,41,51071,1,0,0:0:0:0:
300,41,51146,1,0,0:0:0:0:
300,41,51221,1,0,0:0:0:0:
300,41,51296,1,8,0:0:0:0:
279,44,51596,1,0,0:0:0:0:
279,44,51746,1,0,0:0:0:0:
279,44,51896,1,8,0:0:0:0:
279,44,52046,1,0,0:0:0:0:
243,51,52121,1,8,0:0:0:0:
243,51,52271,1,8,0:0:0:0:
267,74,52346,1,0,0:0:0:0:
347,95,52496,1,8,0:0:0:0:
347,95,52571,1,8,0:0:0:0:
347,95,52646,1,8,0:0:0:0:
190,129,52796,5,0,0:0:0:0:
303,125,54296,1,0,0:0:0:0:
303,125,54896,1,8,0:0:0:0:
303,125,55196,1,8,0:0:0:0:
307,115,57596,1,0,0:0:0:0:
307,115,57896,1,8,0:0:0:0:
230,108,58796,1,8,0:0:0:0:
263,109,59696,1,8,0:0:0:0:
263,109,59996,1,0,0:0:0:0:
187,129,61196,5,8,0:0:0:0:
187,129,61796,1,0,0:0:0:0:
261,156,62396,5,0,0:0:0:0:
237,91,62696,1,0,0:0:0:0:
261,162,62846,1,8,0:0:0:0:
68,170,63146,1,0,0:0:0:0:
68,170,63596,1,0,0:0:0:0:
269,72,63896,1,0,0:0:0:0:
205,102,64046,1,8,0:0:0:0:
205,102,64346,1,0,0:0:0:0:
213,79,64796,1,0,0:0:0:0:
208,97,65096,1,0,0:0:0:0:
213,79,65246,1,8,0:0:0:0:
213,79,65546,1,0,0:0:0:0:
213,79,65996,1,0,0:0:0:0:
235,61,66296,1,0,0:0:0:0:
213,79,66446,1,8,0:0:0:0:
213,79,66746,1,0,0:0:0:0:
33,159,67196,1,0,0:0:0:0:
195,93,67496,1,0,0:0:0:0:
182,120,67646,1,8,0:0:0:0:
182,120,67946,1,0,0:0:0:0:
228,107,68246,1,8,0:0:0:0:
228,107,68396,1,0,0:0:0:0:
155,139,68696,1,0,0:0:0:0:
310,70,68846,1,8,0:0:0:0:
310,70,69146,1,0,0:0:0:0:
188,95,69446,1,8,0:0:0:0:
310,70,69596,1,0,0:0:0:0:
188,95,69896,1,0,0:0:0:0:
188,95,70046,1,8,0:0:0:0:
195,124,70346,1,0,0:0:0:0:
195,124,70646,1,8,0:0:0:0:
195,124,70796,1,0,0:0:0:0:
119,149,71096,1,0,0:0:0:0:
119,149,71246,1,8,0:0:0:0:
119,149,71546,1,0,0:0:0:0:
119,149,71846,1,8,0:0:0:0:
284,100,71996,1,0,0:0:0:0:
186,151,72296,1,0,0:0:0:0:
247,100,72446,1,8,0:0:0:0:
326,157,72596,1,0,0:0:0:0:
272,75,72746,1,0,0:0:0:0:
272,75,72896,1,8,0:0:0:0:
167,167,73046,1,0,0:0:0:0:
272,75,73196,1,0,0:0:0:0:
127,157,73496,1,0,0:0:0:0:
127,157,73646,1,8,0:0:0:0:
288,133,73796,1,0,0:0:0:0:
288,133,73946,1,0,0:0:0:0:
215,118,74096,1,8,0:0:0:0:
215,118,74171,1,8,0:0:0:0:
215,118,74246,1,8,0:0:0:0:
285,90,74396,1,0,0:0:0:0:
285,90,74546,1,0,0:0:0:0:
285,90,74696,1,8,0:0:0:0:
285,90,74771,1,8,0:0:0:0:
285,90,74846,1,0,0:0:0:0:
230,128,74996,1,0,0:0:0:0:
230,128,75146,1,0,0:0:0:0:
247,99,75296,1,8,0:0:0:0:
247,99,75371,1,8,0:0:0:0:
247,99,75446,1,8,0:0:0:0:
247,99,75596,1,0,0:0:0:0:
257,73,75671,1,0,0:0:0:0:
257,73,75746,1,0,0:0:0:0:
257,73,75821,1,0,0:0:0:0:
257,73,75896,1,8,0:0:0:0:
271,69,76046,1,8,0:0:0:0:
64,155,76196,1,0,0:0:0:0:
305,86,76346,1,0,0:0:0:0:
305,86,76496,1,8,0:0:0:0:
298,86,76796,1,0,0:0:0:0:
298,86,76946,1,0,0:0:0:0:
298,86,77096,1,8,0:0:0:0:
170,137,77246,1,0,0:0:0:0:
261,148,77321,1,0,0:0:0:0:
212,78,77396,1,8,0:0:0:0:
202,99,77546,1,0,0:0:0:0:
250,74,77846,1,8,0:0:0:0:
301,66,77996,1,0,0:0:0:0:
301,66,78146,1,0,0:0:0:0:
301,66,78296,1,8,0:0:0:0:
270,75,78446,1,8,0:0:0:0:
132,130,78521,1,0,0:0:0:0:
270,75,78596,1,0,0:0:0:0:
270,75,78671,1,8,0:0:0:0:
132,130,78821,1,0,0:0:0:0:
213,77,78896,1,8,0:0:0:0:
213,77,79046,1,8,0:0:0:0:
213,77,79196,1,0,0:0:0:0:
183,100,79346,1,0,0:0:0:0:
183,100,79496,1,8,0:0:0:0:
183,100,79646,1,0,0:0:0:0:
265,90,79946,1,0,0:0:0:0:
265,90,80096,1,8,0:0:0:0:
265,90,80171,1,8,0:0:0:0:
265,90,80246,1,8,0:0:0:0:
308,61,80396,1,0,0:0:0:0:
308,61,80471,1,0,0:0:0:0:
308,61,80621,1,0,0:0:0:0:
308,61,80696,1,8,0:0:0:0:
308,61,80846,1,8,0:0:0:0:
288,91,80996,1,0,0:0:0:0:
279,59,81071,1,8,0:0:0:0:
279,59,81146,1,0,0:0:0:0:
279,59,81221,1,0,0:0:0:0:
285,44,81296,1,8,0:0:0:0:
285,44,81446,1,8,0:0:0:0:
285,44,81596,1,0,0:0:0:0:
172,133,81896,1,8,0:0:0:0:
232,66,82046,1,0,0:0:0:0:
232,66,82196,1,0,0:0:0:0:
274,28,82271,1,8,0:0:0:0:
272,55,82421,1,8,0:0:0:0:
272,55,82496,1,0,0:0:0:0:
189,117,82571,1,0,0:0:0:0:
203,100,82646,1,8,0:0:0:0:
231,53,82796,1,0,0:0:0:0:
197,126,82946,1,8,0:0:0:0:
109,134,83021,1,8,0:0:0:0:
208,84,83096,1,8,0:0:0:0:
237,39,83246,1,8,0:0:0:0:
237,39,83396,1,0,0:0:0:0:
263,68,83546,1,0,0:0:0:0:
229,66,83621,1,0,0:0:0:0:
263,68,83696,1,8,0:0:0:0:
125,123,83771,1,0,0:0:0:0:
248,50,83846,1,8,0:0:0:0:
248,50,83996,1,0,0:0:0:0:
245,53,84146,1,0,0:0:0:0:
103,115,84221,1,0,0:0:0:0:
245,53,84296,1,8,0:0:0:0:
245,53,84446,1,0,0:0:0:0:
226,47,84746,1,0,0:0:0:0:
175,124,84896,1,8,0:0:0:0:
263,44,85046,1,0,0:0:0:0:
263,44,85121,1,8,0:0:0:0:
263,44,85196,1,0,0:0:0:0:
140,131,85346,1,0,0:0:0:0:
213,71,85496,1,8,0:0:0:0:
217,87,85571,1,8,0:0:0:0:
213,71,85646,1,8,0:0:0:0:
218,59,85796,1,0,0:0:0:0:
240,98,85946,1,0,0:0:0:0:
237,104,86096,1,8,0:0:0:0:
211,111,86171,1,8,0:0:0:0:
284,72,86246,1,0,0:0:0:0:
299,116,86996,1,8,0:0:0:0:
284,72,87596,1,0,0:0:0:0:
229,103,87746,1,0,0:0:0:0:
355,191,87896,1,8,0:0:0:0:
146,160,88046,1,0,0:0:0:0:
310,77,88346,1,0,0:0:0:0:
310,77,88496,1,8,0:0:0:0:
270,73,88646,1,8,0:0:0:0:
270,73,88796,1,0,0:0:0:0:
247,82,88871,1,0,0:0:0:0:
206,84,89021,1,0,0:0:0:0:
217,115,89096,1,8,0:0:0:0:
174,137,89246,1,0,0:0:0:0:
125,156,89396,1,8,0:0:0:0:
125,156,89471,1,8,0:0:0:0:
252,135,89546,1,0,0:0:0:0:
252,135,89696,1,8,0:0:0:0:
287,105,89996,1,0,0:0:0:0:
287,105,90146,1,0,0:0:0:0:
287,105,90296,1,8,0:0:0:0:
218,149,90446,1,0,0:0:0:0:
261,145,90521,1,8,0:0:0:0:
248,143,90596,1,0,0:0:0:0:
296,146,90746,1,0,0:0:0:0:
296,146,90896,1,8,0:0:0:0:
325,97,91046,1,8,0:0:0:0:
325,97,91121,1,8,0:0:0:0:
325,97,91196,1,0,0:0:0:0:
334,86,91421,1,0,0:0:0:0:
334,86,91496,1,8,0:0:0:0:
252,128,91646,1,0,0:0:0:0:
333,82,91721,1,8,0:0:0:0:
333,82,91796,1,0,0:0:0:0:
339,77,91946,1,0,0:0:0:0:
215,98,92096,1,8,0:0:0:0:
299,89,92246,1,0,0:0:0:0:
299,89,92396,1,0,0:0:0:0:
350,60,92696,1,8,0:0:0:0:
343,73,92846,1,0,0:0:0:0:
331,84,92996,1,0,0:0:0:0:
331,84,93071,1,8,0:0:0:0:
328,89,93221,1,0,0:0:0:0:
328,89,93296,1,8,0:0:0:0:
336,150,93371,1,8,0:0:0:0:
149,135,93446,1,0,0:0:0:0:
159,128,93596,1,0,0:0:0:0:
206,82,93746,1,0,0:0:0:0:
206,82,93896,1,8,0:0:0:0:
259,58,94046,1,8,0:0:0:0:
259,58,94121,1,8,0:0:0:0:
259,58,94196,1,0,0:0:0:0:
249,50,94346,1,0,0:0:0:0:
58,127,94496,1,8,0:0:0:0:
58,127,94646,1,0,0:0:0:0:
246,47,94721,1,0,0:0:0:0:
170,108,94796,1,0,0:0:0:0:
170,108,94946,1,0,0:0:0:0:
205,66,95096,1,8,0:0:0:0:
205,66,95171,1,0,0:0:0:0:
226,41,95246,1,8,0:0:0:0:
246,6,95321,1,0,0:0:0:0:
243,37,95396,1,0,0:0:0:0:
280,124,95471,1,8,0:0:0:0:
270,34,95546,1,0,0:0:0:0:
278,31,95696,1,8,0:0:0:0:
345,116,95996,1,0,0:0:0:0:
270,34,96296,1,8,0:0:0:0:
270,34,96446,1,0,0:0:0:0:
194,89,96746,1,0,0:0:0:0:
238,120,96896,1,8,0:0:0:0:
293,117,97046,1,8,0:0:0:0:
293,117,97196,1,0,0:0:0:0:
235,126,97496,1,8,0:0:0:0:
181,135,97646,1,8,0:0:0:0:
194,89,97796,1,0,0:0:0:0:
245,73,97946,1,0,0:0:0:0:
245,73,98096,1,8,0:0:0:0:
245,73,98246,1,0,0:0:0:0:
245,73,98396,1,0,0:0:0:0:
152,125,98696,1,8,0:0:0:0:
102,153,98846,1,8,0:0:0:0:
146,118,98996,1,0,0:0:0:0:
188,85,99146,1,0,0:0:0:0:
245,73,99296,1,8,0:0:0:0:
297,92,99446,5,8,0:0:0:0:
297,92,99521,1,8,0:0:0:0:
279,184,99596,1,0,0:0:0:0:
261,127,99746,1,0,0:0:0:0:
261,127,99896,1,8,0:0:0:0:
261,127,100046,1,0,0:0:0:0:
261,127,100121,1,8,0:0:0:0:
209,130,100271,1,8,0:0:0:0:
220,94,100346,1,0,0:0:0:0:
165,107,100496,1,8,0:0:0:0:
217,75,100646,1,0,0:0:0:0:
170,105,100796,1,0,0:0:0:0:
261,127,101096,1,8,0:0:0:0:
261,66,101246,1,0,0:0:0:0:
309,166,101546,1,0,0:0:0:0:
282,113,101696,1,8,0:0:0:0:
259,65,101846,1,8,0:0:0:0:
271,91,101996,1,0,0:0:0:0:
228,131,102296,1,8,0:0:0:0:
181,137,102446,1,8,0:0:0:0:
143,143,102596,1,0,0:0:0:0:
169,115,102746,1,0,0:0:0:0:
230,52,102896,1,8,0:0:0:0:
277,73,103046,1,0,0:0:0:0:
135,94,103196,1,0,0:0:0:0:
236,57,103496,1,8,0:0:0:0:
284,40,103646,1,8,0:0:0:0:
232,64,103796,1,0,0:0:0:0:
181,89,103946,1,0,0:0:0:0:
220,60,104096,1,8,0:0:0:0:
284,40,104246,1,8,0:0:0:0:
284,40,104321,1,8,0:0:0:0:
284,132,104396,1,0,0:0:0:0:
261,32,104546,1,0,0:0:0:0:
261,32,104696,1,8,0:0:0:0:
267,134,104846,1,0,0:0:0:0:
267,134,104921,1,8,0:0:0:0:
267,134,105071,1,8,0:0:0:0:
267,134,105146,1,0,0:0:0:0:
284,76,105296,1,8,0:0:0:0:
268,127,105446,1,0,0:0:0:0:
148,127,105596,1,0,0:0:0:0:
148,127,105896,1,8,0:0:0:0:
148,127,106046,1,0,0:0:0:0:
58,191,106346,1,0,0:0:0:0:
97,162,106496,1,8,0:0:0:0:
144,148,106646,1,8,0:0:0:0:
187,101,106796,1,0,0:0:0:0:
96,163,107096,1,8,0:0:0:0:
187,101,107396,1,0,0:0:0:0:
255,75,107546,1,0,0:0:0:0:
187,101,107696,1,8,0:0:0:0:
187,101,107996,1,0,0:0:0:0:
187,101,108296,1,8,0:0:0:0:
187,101,108446,1,8,0:0:0:0:
140,85,108596,1,0,0:0:0:0:
168,90,108671,1,0,0:0:0:0:
168,90,108746,1,0,0:0:0:0:
168,90,108896,1,8,0:0:0:0:
168,90,109196,1,0,0:0:0:0:
168,90,109346,1,0,0:0:0:0:
168,90,109496,1,8,0:0:0:0:
218,64,109646,1,0,0:0:0:0:
188,79,109721,1,8,0:0:0:0:
188,79,109871,1,8,0:0:0:0:
168,90,109946,1,0,0:0:0:0:
168,90,110096,1,8,0:0:0:0:
168,90,110246,1,0,0:0:0:0:
168,90,110396,1,0,0:0:0:0:
265,133,110696,1,8,0:0:0:0:
218,112,110846,1,0,0:0:0:0:
218,112,111146,1,0,0:0:0:0:
218,112,111296,1,8,0:0:0:0:
218,112,111446,1,8,0:0:0:0:
218,112,111596,1,0,0:0:0:0:
111,125,111896,1,8,0:0:0:0:
206,95,112196,1,0,0:0:0:0:
206,95,112346,1,0,0:0:0:0:
210,91,112496,1,8,0:0:0:0:
217,84,112796,1,0,0:0:0:0:
217,84,113096,1,8,0:0:0:0:
217,84,113246,1,8,0:0:0:0:
223,80,113396,1,0,0:0:0:0:
223,80,113471,1,0,0:0:0:0:
223,80,113546,1,0,0:0:0:0:
231,140,113696,1,8,0:0:0:0:
285,135,113996,1,0,0:0:0:0:
285,135,114146,1,0,0:0:0:0:
285,135,114296,1,8,0:0:0:0:
285,92,114446,1,0,0:0:0:0:
285,92,114521,1,8,0:0:0:0:
285,92,114671,1,8,0:0:0:0:
285,92,114746,1,0,0:0:0:0:
25,138,114896,1,8,0:0:0:0:
212,113,115046,1,0,0:0:0:0:
212,113,115196,1,0,0:0:0:0:
234,116,115496,1,8,0:0:0:0:
234,116,115646,1,0,0:0:0:0:
154,160,115946,1,0,0:0:0:0:
182,163,116096,1,8,0:0:0:0:
127,140,116246,1,8,0:0:0:0:
171,129,116321,1,8,0:0:0:0:
127,140,116396,1,0,0:0:0:0:
171,129,116546,1,0,0:0:0:0:
218,138,116696,1,8,0:0:0:0:
218,138,116996,1,0,0:0:0:0:
218,138,117146,1,0,0:0:0:0:
218,138,117296,1,8,0:0:0:0:
55,153,117596,1,0,0:0:0:0:
243,145,117896,1,8,0:0:0:0:
243,145,118046,1,8,0:0:0:0:
250,118,118196,1,0,0:0:0:0:
250,118,118346,1,0,0:0:0:0:
250,118,118496,1,8,0:0:0:0:
250,111,118796,1,0,0:0:0:0:
250,111,118946,1,0,0:0:0:0:
250,111,119096,1,8,0:0:0:0:
250,111,119246,1,0,0:0:0:0:
197,104,119321,1,8,0:0:0:0:
197,104,119471,1,8,0:0:0:0:
197,104,119546,1,0,0:0:0:0:
197,104,119696,1,8,0:0:0:0:
197,104,119846,1,0,0:0:0:0:
197,104,119996,1,0,0:0:0:0:
197,104,120296,1,8,0:0:0:0:
202,97,120446,1,0,0:0:0:0:
203,97,120746,1,0,0:0:0:0:
203,97,120896,1,8,0:0:0:0:
203,97,121046,1,8,0:0:0:0:
165,117,121121,1,8,0:0:0:0:
203,97,121196,1,0,0:0:0:0:
165,117,121346,1,0,0:0:0:0:
159,98,121496,1,8,0:0:0:0:
159,98,121796,1,0,0:0:0:0:
163,97,121946,1,0,0:0:0:0:
163,97,122096,1,8,0:0:0:0:
168,95,122396,1,0,0:0:0:0:
168,95,122696,1,8,0:0:0:0:
168,95,122846,1,8,0:0:0:0:
168,95,122996,1,0,0:0:0:0:
168,95,123146,1,0,0:0:0:0:
168,95,123296,1,8,0:0:0:0:
210,133,123596,5,0,0:0:0:0:
212,102,123746,1,0,0:0:0:0:
221,91,123896,1,8,0:0:0:0:
224,87,124046,1,0,0:0:0:0:
225,87,124121,1,8,0:0:0:0:
161,129,124271,1,8,0:0:0:0:
225,86,124346,1,0,0:0:0:0:
225,86,124496,1,8,0:0:0:0:
229,77,124646,1,0,0:0:0:0:
232,158,124796,5,0,0:0:0:0:
221,140,125396,1,8,0:0:0:0:
235,130,125846,1,0,0:0:0:0:
88,135,126296,1,0,0:0:0:0:
141,108,126596,1,8,0:0:0:0:
141,108,127046,1,8,0:0:0:0:
141,108,127196,1,0,0:0:0:0:
158,133,127496,1,0,0:0:0:0:
158,133,127796,1,8,0:0:0:0:
212,98,127946,1,0,0:0:0:0:
216,96,128396,1,0,0:0:0:0:
221,93,128996,1,8,0:0:0:0:
224,138,129596,1,0,0:0:0:0:
224,138,129746,1,8,0:0:0:0:
224,138,129896,1,8,0:0:0:0:
224,138,129971,1,8,0:0:0:0:
76,147,130046,1,0,0:0:0:0:
228,130,130196,1,8,0:0:0:0:
234,91,130346,1,0,0:0:0:0:
194,108,130496,1,0,0:0:0:0:
163,140,130796,1,8,0:0:0:0:
163,140,131096,1,0,0:0:0:0:
252,143,131396,1,8,0:0:0:0:
248,128,131996,1,0,0:0:0:0:
248,128,132146,1,0,0:0:0:0:
248,127,132446,1,0,0:0:0:0:
248,128,132596,1,8,0:0:0:0:
166,118,132896,1,0,0:0:0:0:
189,97,133196,1,8,0:0:0:0:
189,97,133346,1,0,0:0:0:0:
194,98,133496,1,0,0:0:0:0:
178,111,133796,5,8,0:0:0:0:
227,170,139196,5,8,0:0:0:0:
141,85,139646,1,8,0:0:0:0:
205,128,139796,1,8,0:0:0:0:
141,85,139946,1,8,0:0:0:0:
205,128,140096,1,8,0:0:0:0:
227,170,140396,1,8,0:0:0:0:
141,85,140846,1,8,0:0:0:0:
205,128,140996,1,8,0:0:0:0:
174,152,141146,1,0,0:0:0:0:
205,128,141296,1,8,0:0:0:0:
227,170,141596,1,0,0:0:0:0:
157,133,141896,1,8,0:0:0:0:
157,133,142046,1,0,0:0:0:0:
227,170,142196,1,8,0:0:0:0:
258,94,142346,1,8,0:0:0:0:
157,133,142496,1,0,0:0:0:0:
227,170,142796,1,8,0:0:0:0:
225,113,142946,1,8,0:0:0:0:
157,133,143096,1,0,0:0:0:0:
225,113,143171,1,0,0:0:0:0:
239,112,143246,1,0,0:0:0:0:
227,170,143396,1,8,0:0:0:0:
196,126,143996,5,0,0:0:0:0:
228,103,144296,1,8,0:0:0:0:
228,103,144596,1,0,0:0:0:0:
228,103,144896,1,8,0:0:0:0:
121,103,145196,1,0,0:0:0:0:
121,103,145496,1,8,0:0:0:0:
121,103,145646,1,0,0:0:0:0:
121,103,145946,1,0,0:0:0:0:
121,103,146096,1,8,0:0:0:0:
138,140,146396,1,0,0:0:0:0:
156,147,146696,5,8,0:0:0:0:
169,140,146771,1,8,0:0:0:0:
169,140,146846,1,8,0:0:0:0:
255,120,146996,1,0,0:0:0:0:
175,101,147296,1,8,0:0:0:0:
175,101,147371,1,8,0:0:0:0:
175,101,147446,1,8,0:0:0:0:
198,81,147596,1,0,0:0:0:0:
211,62,147896,1,8,0:0:0:0:
211,62,148046,1,0,0:0:0:0:
39,149,148346,1,0,0:0:0:0:
39,149,148496,1,8,0:0:0:0:
117,153,148571,1,8,0:0:0:0:
117,153,148646,1,8,0:0:0:0:
117,153,148721,1,8,0:0:0:0:
101,113,148796,5,0,0:0:0:0:
101,113,148946,1,0,0:0:0:0:
241,98,149096,1,8,0:0:0:0:
215,77,149321,1,8,0:0:0:0:
215,77,149396,1,0,0:0:0:0:
184,109,149546,5,0,0:0:0:0:
184,109,149696,1,8,0:0:0:0:
160,121,149846,1,0,0:0:0:0:
184,109,149996,5,0,0:0:0:0:
184,109,150071,1,0,0:0:0:0:
184,109,150146,1,0,0:0:0:0:
184,109,150221,1,0,0:0:0:0:
184,109,150296,1,8,0:0:0:0:
249,110,150521,1,8,0:0:0:0:
261,64,150596,5,0,0:0:0:0:
261,64,150746,1,0,0:0:0:0:
261,64,150896,5,8,0:0:0:0:
261,64,150971,1,8,0:0:0:0:
261,64,151046,1,8,0:0:0:0:
261,64,151121,1,8,0:0:0:0:
221,114,151196,5,0,0:0:0:0:
164,118,151346,1,0,0:0:0:0:
164,118,151496,1,8,0:0:0:0:
145,121,151796,1,0,0:0:0:0:
69,149,151946,1,0,0:0:0:0:
197,53,152096,5,8,0:0:0:0:
197,53,152246,1,8,0:0:0:0:
212,115,152396,5,0,0:0:0:0:
268,121,152546,1,8,0:0:0:0:
212,115,152696,1,0,0:0:0:0:
274,122,152846,1,8,0:0:0:0:
212,115,152996,1,0,0:0:0:0:
177,80,153146,1,8,0:0:0:0:
225,99,153296,1,0,0:0:0:0:
169,173,153371,1,8,0:0:0:0:
195,87,153446,1,8,0:0:0:0:
169,99,153521,1,8,0:0:0:0:
168,80,153596,1,0,0:0:0:0:
138,99,154796,5,0,0:0:0:0:
138,99,154946,1,0,0:0:0:0:
167,87,155021,1,0,0:0:0:0:
138,99,155096,1,8,0:0:0:0:
188,73,155246,1,0,0:0:0:0:
219,56,155321,1,8,0:0:0:0:
244,44,155396,1,0,0:0:0:0:
209,85,155546,1,0,0:0:0:0:
172,129,155696,1,8,0:0:0:0:
216,94,155846,1,8,0:0:0:0:
209,85,155996,1,0,0:0:0:0:
209,85,156071,1,0,0:0:0:0:
209,85,156146,1,0,0:0:0:0:
209,85,156221,1,0,0:0:0:0:
209,85,156296,1,8,0:0:0:0:
255,53,156446,1,0,0:0:0:0:
255,53,156521,1,8,0:0:0:0:
255,53,156596,1,0,0:0:0:0:
172,129,156746,1,0,0:0:0:0:
216,94,156896,1,8,0:0:0:0:
265,67,157046,1,8,0:0:0:0:
287,55,157121,1,8,0:0:0:0:
328,104,157196,1,0,0:0:0:0:
266,99,157346,1,0,0:0:0:0:
232,96,157496,1,8,0:0:0:0:
232,96,157646,1,8,0:0:0:0:
232,96,157721,1,0,0:0:0:0:
232,96,157796,1,0,0:0:0:0:
232,96,157871,1,8,0:0:0:0:
232,96,157946,1,0,0:0:0:0:
194,133,158096,1,8,0:0:0:0:
204,26,158396,1,0,0:0:0:0:
198,85,158546,1,0,0:0:0:0:
198,85,158621,1,0,0:0:0:0:
198,85,158696,1,8,0:0:0:0:
229,132,158846,5,0,0:0:0:0:
229,132,158921,1,8,0:0:0:0:
229,132,158996,1,0,0:0:0:0:
176,133,159146,1,0,0:0:0:0:
176,133,159296,1,8,0:0:0:0:
198,133,159371,1,8,0:0:0:0:
135,92,159446,1,0,0:0:0:0:
124,100,159521,1,0,0:0:0:0:
173,130,159596,1,8,0:0:0:0:
168,115,159746,1,0,0:0:0:0:
189,124,159821,1,0,0:0:0:0:
168,115,159896,1,8,0:0:0:0:
168,115,160046,1,0,0:0:0:0:
196,127,160121,1,0,0:0:0:0:
168,115,160196,1,8,0:0:0:0:
132,162,160346,1,0,0:0:0:0:
132,162,160421,1,0,0:0:0:0:
147,136,160496,1,8,0:0:0:0:
147,136,160571,1,8,0:0:0:0:
176,126,160646,1,0,0:0:0:0:
176,126,160796,1,0,0:0:0:0:
235,142,160946,5,0,0:0:0:0:
235,142,161021,1,0,0:0:0:0:
235,142,161096,1,8,0:0:0:0:
175,144,161246,1,0,0:0:0:0:
66,117,161546,1,0,0:0:0:0:
112,97,161696,1,8,0:0:0:0:
112,97,161846,1,0,0:0:0:0:
112,97,161921,1,8,0:0:0:0:
112,97,161996,1,0,0:0:0:0:
112,97,162146,1,0,0:0:0:0:
175,144,162296,1,8,0:0:0:0:
175,144,162371,1,8,0:0:0:0:
175,144,162446,1,8,0:0:0:0:
175,144,162521,1,8,0:0:0:0:
175,144,162596,1,0,0:0:0:0:
175,144,162746,1,0,0:0:0:0:
175,144,162896,1,8,0:0:0:0:
127,129,163046,1,8,0:0:0:0:
235,47,163196,1,0,0:0:0:0:
270,109,163946,5,8,0:0:0:0:
343,198,164396,5,0,0:0:0:0:
343,198,164546,1,0,0:0:0:0:
343,198,164696,1,8,0:0:0:0:
289,98,164846,1,8,0:0:0:0:
289,98,164921,1,8,0:0:0:0:
289,98,164996,1,0,0:0:0:0:
261,64,165146,1,0,0:0:0:0:
323,110,165296,1,8,0:0:0:0:
261,64,165371,1,0,0:0:0:0:
43,151,165446,1,8,0:0:0:0:
292,69,165596,1,0,0:0:0:0:
292,69,165671,1,0,0:0:0:0:
292,69,165746,1,0,0:0:0:0:
197,98,165821,1,0,0:0:0:0:
197,98,165896,1,8,0:0:0:0:
346,97,166046,1,0,0:0:0:0:
346,97,166196,1,0,0:0:0:0:
346,97,166271,1,8,0:0:0:0:
346,97,166346,1,0,0:0:0:0:
346,97,166496,1,8,0:0:0:0:
292,57,166571,1,8,0:0:0:0:
292,57,166646,1,8,0:0:0:0:
292,57,166721,1,8,0:0:0:0:
292,57,166796,1,0,0:0:0:0:
270,91,166946,1,0,0:0:0:0:
270,91,167096,1,8,0:0:0:0:
190,118,167246,1,0,0:0:0:0:
150,121,167321,1,0,0:0:0:0:
212,97,167396,1,8,0:0:0:0:
190,118,167471,1,8,0:0:0:0:
200,152,167621,1,0,0:0:0:0:
263,66,167696,1,8,0:0:0:0:
263,66,167846,1,8,0:0:0:0:
265,93,167996,1,0,0:0:0:0:
265,93,168146,1,0,0:0:0:0:
265,93,168296,1,8,0:0:0:0:
282,95,168446,1,8,0:0:0:0:
296,66,168596,1,0,0:0:0:0:
147,148,168671,1,0,0:0:0:0:
296,66,168746,1,8,0:0:0:0:
286,68,168896,1,8,0:0:0:0:
193,104,169196,1,0,0:0:0:0:
193,104,169271,1,0,0:0:0:0:
193,104,169346,1,0,0:0:0:0:
193,104,169421,1,0,0:0:0:0:
255,55,169496,1,8,0:0:0:0:
255,55,169646,1,0,0:0:0:0:
186,79,169796,1,8,0:0:0:0:
186,79,169871,1,0,0:0:0:0:
186,80,169946,1,8,0:0:0:0:
37,144,170096,1,8,0:0:0:0:
37,144,170171,1,8,0:0:0:0:
37,144,170246,1,8,0:0:0:0:
37,144,170321,1,8,0:0:0:0:
37,144,170396,1,0,0:0:0:0:
254,102,170546,1,0,0:0:0:0:
254,102,170696,1,8,0:0:0:0:
254,102,170846,1,0,0:0:0:0:
201,43,170921,1,8,0:0:0:0:
179,90,170996,1,0,0:0:0:0:
179,90,171146,1,0,0:0:0:0:
256,73,171296,1,8,0:0:0:0:
256,73,171446,1,8,0:0:0:0:
256,73,171521,1,8,0:0:0:0:
279,40,171596,1,0,0:0:0:0:
285,55,171671,1,0,0:0:0:0:
285,55,171746,1,0,0:0:0:0:
198,77,171821,1,0,0:0:0:0:
198,77,171896,1,8,0:0:0:0:
241,59,172046,1,0,0:0:0:0:
249,77,172196,1,0,0:0:0:0:
181,140,172271,1,8,0:0:0:0:
181,140,172346,1,0,0:0:0:0:
221,98,172496,1,8,0:0:0:0:
278,78,172796,1,0,0:0:0:0:
278,78,172946,1,8,0:0:0:0:
197,56,173246,1,0,0:0:0:0:
201,50,173396,1,8,0:0:0:0:
186,63,173546,1,0,0:0:0:0:
186,63,173621,1,8,0:0:0:0:
70,132,173696,1,0,0:0:0:0:
45,117,173846,1,8,0:0:0:0:
130,117,173996,1,0,0:0:0:0:
183,101,174071,1,0,0:0:0:0:
183,101,174146,1,0,0:0:0:0:
183,101,174221,1,0,0:0:0:0:
197,91,174296,1,8,0:0:0:0:
183,101,174446,1,8,0:0:0:0:
183,101,174521,1,8,0:0:0:0:
183,101,174596,1,0,0:0:0:0:
104,129,174746,1,0,0:0:0:0:
163,114,174896,5,8,0:0:0:0:
172,128,175196,5,0,0:0:0:0:
172,128,175346,1,0,0:0:0:0:
298,93,175496,5,8,0:0:0:0:
298,93,175646,1,8,0:0:0:0:
298,93,175796,1,8,0:0:0:0:
298,93,175946,1,8,0:0:0:0:
323,68,176096,1,0,0:0:0:0:
311,44,176171,1,8,0:0:0:0:
311,44,176246,1,8,0:0:0:0:
199,109,176396,1,0,0:0:0:0:
199,109,176546,1,0,0:0:0:0:
268,66,176696,1,8,0:0:0:0:
236,49,176846,1,8,0:0:0:0:
230,51,176921,1,8,0:0:0:0:
247,91,176996,1,0,0:0:0:0:
247,91,177071,1,8,0:0:0:0:
157,135,177146,1,0,0:0:0:0:
234,76,177296,1,0,0:0:0:0:
234,76,177446,1,8,0:0:0:0:
234,76,177596,1,0,0:0:0:0:
236,74,177671,1,0,0:0:0:0:
236,74,177746,1,0,0:0:0:0:
248,82,177821,1,0,0:0:0:0:
248,82,177896,1,8,0:0:0:0:
241,45,178046,1,0,0:0:0:0:
241,45,178196,1,0,0:0:0:0:
241,45,178271,1,8,0:0:0:0:
241,45,178346,1,0,0:0:0:0:
295,62,178496,1,8,0:0:0:0:
295,62,178646,1,8,0:0:0:0:
297,41,178796,1,0,0:0:0:0:
219,117,179096,1,8,0:0:0:0:
245,83,179246,1,0,0:0:0:0:
245,83,179396,1,0,0:0:0:0:
265,78,179471,1,8,0:0:0:0:
176,131,179546,1,0,0:0:0:0:
246,76,179696,1,8,0:0:0:0:
254,57,179846,1,8,0:0:0:0:
166,157,179921,1,8,0:0:0:0:
254,57,179996,1,0,0:0:0:0:
254,57,180146,1,0,0:0:0:0:
254,57,180296,1,8,0:0:0:0:
254,57,180446,1,0,0:0:0:0:
201,70,180596,1,0,0:0:0:0:
218,68,180671,1,8,0:0:0:0:
282,48,180746,1,0,0:0:0:0:
185,111,180821,1,0,0:0:0:0:
263,89,180896,5,8,0:0:0:0:
280,67,181046,1,0,0:0:0:0:
280,67,181121,1,0,0:0:0:0:
280,67,181196,1,0,0:0:0:0:
279,71,181346,1,0,0:0:0:0:
279,71,181496,1,8,0:0:0:0:
155,118,181571,1,0,0:0:0:0:
279,71,181646,1,8,0:0:0:0:
135,97,181721,1,8,0:0:0:0:
226,101,181796,5,0,0:0:0:0:
226,101,181946,1,0,0:0:0:0:
200,105,182021,1,0,0:0:0:0:
202,133,182096,5,8,0:0:0:0:
202,133,182171,1,8,0:0:0:0:
226,101,182246,1,0,0:0:0:0:
202,133,182321,1,0,0:0:0:0:
212,87,182396,1,8,0:0:0:0:
